<?xml version="1.0" standalone="no"?>
<!DOCTYPE svg PUBLIC "-//W3C//DTD SVG 1.1//EN" "http://www.w3.org/Graphics/SVG/1.1/DTD/svg11.dtd" >
<svg xmlns="http://www.w3.org/2000/svg">
<metadata></metadata>
<defs>
<font id="bitterbold_italic" horiz-adv-x="1310" >
<font-face units-per-em="2048" ascent="1638" descent="-410" />
<missing-glyph horiz-adv-x="583" />
<glyph unicode="fi" horiz-adv-x="1423" d="M115 881l28 180l189 31q12 100 32 174.5t57.5 142t91 110.5t134.5 68t187 25q84 0 217.5 -12t224.5 -24l92 -11l-61 -332h-240v153h-225q-98 0 -143 -42t-58 -125l-20 -123l698 10l-141 -891l155 -31l-26 -164l-451 -20l137 883h-407l-150 -946q-32 -204 -145.5 -321.5 t-306.5 -117.5q-36 0 -88.5 7t-86.5 15l-34 7l39 178h141q157 0 188 197l154 979h-182z" />
<glyph unicode="fl" horiz-adv-x="1433" d="M870 0l217 1372q-132 14 -245 14q-87 0 -138 -44t-63 -123l-20 -134h251l-36 -204h-250l-150 -944q-32 -204 -145.5 -321.5t-306.5 -117.5q-36 0 -88.5 7t-86.5 15l-34 7l39 178h141q157 0 188 197l154 979h-182l28 178l189 26q10 82 27 148.5t45.5 127.5t70 106t97.5 78 t132 50t170 17q109 0 244 -13t215 -27l80 -13l-215 -1344l156 -31l-27 -164z" />
<glyph unicode="&#xd;" horiz-adv-x="583" />
<glyph unicode=" "  horiz-adv-x="583" />
<glyph unicode="&#x09;" horiz-adv-x="583" />
<glyph unicode="&#xa0;" horiz-adv-x="583" />
<glyph unicode="!" horiz-adv-x="704" d="M225 524l135 1043h304l-201 -1032zM113 119q0 95 52 160t148 65q68 0 108 -40t40 -107q0 -95 -52 -159.5t-147 -64.5q-68 0 -108.5 39.5t-40.5 106.5z" />
<glyph unicode="&#x22;" horiz-adv-x="919" d="M143 1024l90 578h269l-135 -578h-224zM543 1024l90 578h266l-135 -578h-221z" />
<glyph unicode="#" horiz-adv-x="1411" d="M479 963l78 266h252l-78 -266h250l78 266h250l-76 -266h188l-32 -211h-215l-74 -252h196l-32 -211h-224l-84 -289h-251l83 289h-249l-82 -289h-252l82 289h-185l33 211h211l74 252h-195l33 211h221zM848 500l74 252h-250l-74 -252h250z" />
<glyph unicode="$" horiz-adv-x="1167" d="M279 416l4 -164q76 -37 182 -37q92 0 162.5 46t70.5 120q0 39 -28.5 70.5t-74 54.5t-100.5 46t-110 52.5t-100.5 66t-74 94t-28.5 130.5q0 179 111.5 291t290.5 141l37 225l213 15l-37 -234q73 -7 147.5 -25t113.5 -32l38 -14l-64 -347h-158l-24 162q-84 31 -158 31 q-92 0 -150.5 -40t-58.5 -110q0 -33 22.5 -61.5t58.5 -48t82.5 -41t95.5 -41t95.5 -49t82.5 -63t58.5 -84t22.5 -111.5q0 -127 -57 -227.5t-149.5 -160.5t-210.5 -83l-45 -287h-211l43 276q-78 5 -160 22.5t-125 32.5l-43 15l59 369h177z" />
<glyph unicode="%" horiz-adv-x="1671" d="M584 1468q137 0 211.5 -70.5t74.5 -199.5q0 -207 -113.5 -344t-303.5 -137q-144 0 -221.5 69.5t-77.5 204.5q0 209 120.5 343t309.5 134zM483 893q65 0 110.5 77.5t45.5 180.5q0 72 -21 106.5t-75 34.5q-68 0 -113 -77.5t-45 -184.5q0 -69 23.5 -103t74.5 -34zM1389 723 q137 0 211.5 -70.5t74.5 -199.5q0 -207 -114 -343.5t-304 -136.5q-144 0 -221.5 69t-77.5 204q0 209 121 343t310 134zM1288 147q65 0 110.5 78t45.5 181q0 72 -21 106.5t-75 34.5q-68 0 -113 -77.5t-45 -184.5q0 -138 98 -138zM1585 1458l-1063 -1472h-286l1062 1472h287z " />
<glyph unicode="&#x26;" horiz-adv-x="1353" d="M950 1059l-10 133q-73 27 -184 27q-103 0 -158 -50.5t-55 -130.5q0 -77 55 -122.5t152 -45.5h604l-29 -174l-145 -47l-35 -215q-35 -217 -193.5 -338t-402.5 -121q-232 0 -344.5 90t-112.5 252q0 83 28.5 156.5t77.5 128t104 93.5t118 67q-2 2 -21.5 13.5t-31 20t-32 25 t-33.5 35t-26.5 43t-20.5 56t-7 67.5q0 147 72.5 249.5t191.5 149.5t274 47q115 0 237.5 -30.5t168.5 -55.5l-55 -323h-187zM891 649h-193q-122 0 -205 -69.5t-83 -186.5q0 -81 51.5 -124.5t142.5 -43.5q105 0 170.5 59t85.5 177z" />
<glyph unicode="'" horiz-adv-x="442" d="M199 1024l90 578h268l-135 -578h-223z" />
<glyph unicode="(" horiz-adv-x="675" d="M651 1577h258q-113 -148 -197 -287t-153.5 -300.5t-105 -341.5t-35.5 -374q0 -206 41.5 -400.5t122.5 -344.5h-256q-98 183 -145.5 360.5t-47.5 374.5q0 365 123.5 682.5t394.5 630.5z" />
<glyph unicode=")" horiz-adv-x="677" d="M102 -471h-256q113 148 197.5 287t153.5 300.5t105 341t36 373.5q0 206 -41.5 401t-122.5 345h256q98 -183 145.5 -360.5t47.5 -374.5q0 -364 -125 -681.5t-396 -631.5z" />
<glyph unicode="*" horiz-adv-x="884" d="M524 1202l-57 62l10 243l187 4l-60 -249zM557 1180l47 82l236 100l37 -184l-254 -52zM489 1176l-86 -46l-239 44l86 182l217 -92zM494 1137l6 -90l-158 -228l-133 111l194 200zM623 1126l133 -198l-164 -109l-92 228l35 90z" />
<glyph unicode="+" horiz-adv-x="1263" d="M530 672l68 420h262l-67 -420h401l-39 -238h-401l-68 -434h-262l68 434h-400l41 238h397z" />
<glyph unicode="," horiz-adv-x="569" d="M45 -377l-106 107q18 19 44.5 49t70.5 96t44 102q0 23 -18.5 73t-18.5 87q0 91 55 149t140 58q71 0 110.5 -39.5t39.5 -109.5q0 -69 -36 -151.5t-96 -162t-115 -141t-114 -117.5z" />
<glyph unicode="-" horiz-adv-x="788" d="M707 686l-41 -256h-564l41 256h564z" />
<glyph unicode="." horiz-adv-x="587" d="M57 121q0 95 51 159t146 64q68 0 110 -39t42 -106q0 -95 -53 -160.5t-148 -65.5q-67 0 -107.5 40.5t-40.5 107.5z" />
<glyph unicode="/" horiz-adv-x="917" d="M1149 1444l-899 -1444h-301l899 1444h301z" />
<glyph unicode="0" horiz-adv-x="1275" d="M795 1468q218 0 324 -122t106 -334q0 -94 -9 -189t-31.5 -198.5t-56.5 -196t-88 -177t-121 -145.5t-160.5 -97t-203.5 -36q-442 0 -442 457q0 97 10.5 195t34.5 201.5t60 195.5t91.5 174.5t123.5 142t161 94.5t201 35zM743 1212q-66 0 -121 -56.5t-90 -142.5 t-59.5 -192.5t-34.5 -202.5t-10 -176q0 -115 39.5 -164t132.5 -49q63 0 116 57t87 144t58.5 193.5t35 203.5t10.5 177q0 112 -38 160t-126 48z" />
<glyph unicode="1" horiz-adv-x="1024" d="M61 0l39 236h275l141 880l-332 -198l-94 212l520 314h262l-192 -1208h272l-37 -236h-854z" />
<glyph unicode="2" horiz-adv-x="1159" d="M-20 0l32 250l234 174q291 216 421.5 360t131.5 271q0 81 -51.5 122.5t-147.5 41.5q-38 0 -84.5 -7.5t-73.5 -14.5l-28 -7l-45 -182h-205l43 383q27 9 72 21.5t161.5 34t204.5 21.5q112 0 197.5 -16t154.5 -53t105.5 -103t36.5 -159q0 -105 -38 -204t-114.5 -194 t-162.5 -175.5t-210 -178.5l-172 -135h596l-37 -250h-1021z" />
<glyph unicode="3" horiz-adv-x="1157" d="M154 1026l45 360q26 9 71 22.5t163 36.5t212 23q213 0 336 -82t123 -233q0 -145 -79 -249.5t-232 -149.5q109 -32 170 -109t61 -184q0 -145 -83 -257.5t-222.5 -171.5t-310.5 -59q-68 0 -137 12t-119.5 29t-91.5 34.5t-62 29.5l-21 12l117 219q20 -9 54.5 -23 t124.5 -37.5t159 -23.5q118 0 196.5 66.5t78.5 173.5q0 170 -234 170h-162l35 215h156q141 0 213.5 65t72.5 160q0 68 -52.5 106t-147.5 38q-40 0 -86 -6.5t-72 -13.5l-27 -7l-38 -166h-211z" />
<glyph unicode="4" horiz-adv-x="1210" d="M915 297l-47 -297h-299l47 297h-616l14 235l772 943l312 -31l-144 -901h205l-39 -246h-205zM741 1081l-440 -538h354z" />
<glyph unicode="5" horiz-adv-x="1161" d="M20 88l115 219q21 -9 56 -22.5t124 -36.5t154 -23q113 0 194.5 67t81.5 169q0 188 -296 188h-254l145 795h811l-41 -252h-530l-52 -309h72q223 -6 348 -102.5t125 -264.5q0 -160 -82 -285t-219 -191.5t-301 -66.5q-111 0 -224 29t-170 58z" />
<glyph unicode="6" horiz-adv-x="1204" d="M1190 1444l-49 -236q-76 11 -166 11q-85 0 -159 -22.5t-123.5 -58t-89.5 -79t-63 -87t-38.5 -79t-21.5 -57.5l-5 -23q17 10 46.5 24.5t116 39t165.5 24.5q165 0 269 -92t104 -260q0 -159 -80.5 -291.5t-219.5 -208.5t-307 -76q-115 0 -203.5 37t-141 102.5t-79 149.5 t-26.5 184q0 110 23.5 225.5t69 230.5t118.5 216.5t165 180t217 124t267 45.5q51 0 104 -6t80 -12zM432 588q-16 -93 -16 -144q0 -102 52.5 -160.5t139.5 -58.5q107 0 173.5 70t72.5 180q10 184 -182 184q-56 0 -116 -17.5t-92 -35.5z" />
<glyph unicode="7" horiz-adv-x="1042" d="M1128 1223l-710 -1223h-328l701 1188h-439l-71 -191h-199l72 447h1011z" />
<glyph unicode="8" horiz-adv-x="1226" d="M1196 1149q0 -133 -73.5 -228.5t-196.5 -148.5q46 -27 75 -49t61 -57t48 -81.5t16 -105.5q0 -113 -47.5 -208.5t-130 -160t-194.5 -101t-240 -36.5q-220 0 -336.5 95.5t-116.5 244.5q0 278 318 426q-80 49 -123 110t-43 157q0 216 159 339t416 123q198 0 303 -87 t105 -232zM727 1219q-88 0 -150.5 -45.5t-62.5 -126.5q0 -64 47.5 -103t138.5 -76q79 33 137 91.5t58 134.5q0 58 -44.5 91.5t-123.5 33.5zM561 225q112 0 180 59t68 150q0 37 -15.5 66.5t-48 53.5t-63 40t-80.5 37q-46 -20 -80.5 -41.5t-69.5 -52t-54 -72t-19 -90.5 q0 -70 48 -110t134 -40z" />
<glyph unicode="9" horiz-adv-x="1200" d="M92 0l43 233q78 -8 168 -8q87 0 162 22.5t125 59t90 80.5t62.5 88t37.5 80.5t20 58.5l5 23q-17 -10 -46.5 -24t-116 -38t-165.5 -24q-169 0 -272 89t-103 257q0 160 79 291t218 205.5t308 74.5q203 0 327.5 -120.5t124.5 -352.5q0 -99 -17 -200.5t-52 -202t-86 -191.5 t-122.5 -169.5t-157 -136t-195 -90t-230.5 -32.5q-48 0 -100 6.5t-79 13.5zM848 864q14 71 14 131q0 111 -53.5 167.5t-138.5 56.5q-106 0 -173 -70.5t-73 -181.5q-5 -86 41 -131t143 -45q56 0 116 18.5t92 36.5z" />
<glyph unicode=":" horiz-adv-x="567" d="M158 735q0 96 50.5 161t145.5 65q68 0 110 -39.5t42 -106.5q0 -95 -53 -160t-148 -65q-68 0 -107.5 39t-39.5 106zM61 121q0 95 51 159t146 64q68 0 110 -39t42 -106q0 -95 -53 -160.5t-148 -65.5q-67 0 -107.5 40.5t-40.5 107.5z" />
<glyph unicode=";" horiz-adv-x="606" d="M176 735q0 95 52 160.5t147 65.5q68 0 108.5 -39t40.5 -107q0 -94 -53 -159.5t-149 -65.5q-68 0 -107 38t-39 107zM66 -377l-107 107q7 7 17.5 18.5t38 44.5t48.5 63t38.5 64.5t17.5 56.5q0 23 -18.5 73t-18.5 87q0 91 54.5 149t139.5 58q71 0 110.5 -39.5t39.5 -109.5 q0 -69 -36 -151.5t-95.5 -162t-114.5 -141t-114 -117.5z" />
<glyph unicode="&#x3c;" horiz-adv-x="1257" d="M1057 -20l-955 446l41 246l1100 448l-45 -272l-752 -303l654 -297z" />
<glyph unicode="=" horiz-adv-x="1325" d="M1212 895l-36 -236h-994l37 236h993zM1143 455l-37 -236h-993l37 236h993z" />
<glyph unicode="&#x3e;" horiz-adv-x="1247" d="M164 856l43 264l954 -452l-39 -246l-1102 -442q34 198 46 274l753 293z" />
<glyph unicode="?" horiz-adv-x="937" d="M258 510v133q0 59 23.5 111t61 91.5t82.5 76.5t90 71.5t82.5 69t61 78t23.5 90.5q0 106 -152 106q-39 0 -85 -4.5t-73 -8.5l-26 -5l-16 209q161 49 319 49q74 0 134.5 -14.5t108.5 -45.5t74.5 -85t26.5 -127q0 -69 -25 -133.5t-66 -115t-90 -97.5t-98.5 -88.5t-91 -81 t-69 -83t-29.5 -85.5l-6 -93zM174 119q0 95 52.5 160t148.5 65q68 0 107.5 -39t39.5 -106q0 -95 -51.5 -160.5t-146.5 -65.5q-68 0 -109 39.5t-41 106.5z" />
<glyph unicode="@" horiz-adv-x="1679" d="M983 219l80 -164q-7 -3 -19 -9t-51 -21t-80 -26t-102 -20.5t-121 -9.5q-264 0 -415.5 148.5t-151.5 412.5q0 202 60 374t169 297t271.5 196t359.5 71q297 0 467 -146t170 -417q0 -165 -48 -299t-144.5 -215.5t-225.5 -81.5q-176 0 -192 223q-9 -20 -19 -39t-36.5 -55 t-54.5 -61.5t-72.5 -45.5t-92.5 -20q-107 0 -166 73t-59 189q0 134 35.5 240t95.5 171.5t135.5 99.5t159.5 34q40 0 81 -12t62 -24l21 -13l35 33h120l-77 -496q-7 -44 -7 -61q0 -70 56 -70q53 0 93.5 64.5t58.5 150.5t18 170q0 202 -113.5 306t-341.5 104q-138 0 -251 -54.5 t-187 -148.5t-114 -219t-40 -268q0 -202 101 -307t286 -105q58 0 119.5 13t93.5 25zM1006 821l26 125q-45 17 -96 17q-94 0 -158.5 -106t-64.5 -249q0 -121 69 -121q37 0 74 34.5t63 83.5t46.5 98t30.5 83z" />
<glyph unicode="A" horiz-adv-x="1456" d="M1386 180l-30 -180h-606l28 178l162 51l-25 150h-452l-74 -156l141 -45l-28 -178h-580l29 180l137 47l629 1203l315 14l236 -1223zM565 598h316l-76 494z" />
<glyph unicode="B" horiz-adv-x="1337" d="M682 1444h197q170 0 285.5 -81t115.5 -230q0 -147 -86 -243.5t-217 -135.5q250 -72 250 -273q0 -156 -79.5 -266.5t-209.5 -162.5t-297 -52h-647l29 178l159 49l154 977l-141 60l26 170zM588 854h112q117 0 189 59t72 158q0 65 -43.5 98t-114.5 33h-160zM489 240h146 q129 0 199.5 63.5t70.5 161.5q0 92 -56.5 133t-176.5 41h-119z" />
<glyph unicode="C" horiz-adv-x="1320" d="M1130 983l-26 193q-111 36 -221 36q-104 0 -189.5 -56t-139 -148.5t-82 -206.5t-28.5 -234q0 -151 75.5 -240t195.5 -89q196 0 401 143l109 -172q-41 -35 -89 -68t-124.5 -75t-172 -67.5t-192.5 -25.5q-243 0 -388.5 145.5t-145.5 391.5q0 278 102.5 496.5t286 340 t416.5 121.5q108 0 219 -24t168 -48l57 -24l-62 -389h-170z" />
<glyph unicode="D" horiz-adv-x="1456" d="M688 1444h191q244 0 385 -132.5t141 -379.5q0 -222 -59.5 -398.5t-167.5 -293t-259.5 -178.5t-336.5 -62h-578l29 178l160 49l153 977l-141 60l26 170zM496 240h133q111 0 199.5 56.5t143 152t83 216t28.5 255.5q0 124 -62.5 203t-182.5 79h-189z" />
<glyph unicode="E" horiz-adv-x="1251" d="M608 860h404l-35 -225h-406l-61 -389h358l74 166h184l-67 -412h-1045l29 178l160 49l153 977l-141 60l27 170l460 10h560l-64 -395h-164l-26 149h-344z" />
<glyph unicode="F" horiz-adv-x="1134" d="M600 840h414l-37 -226h-412l-61 -387l158 -49l-29 -178h-619l29 178l160 49l153 977l-141 60l27 170l454 10h559l-63 -395h-164l-27 153h-342z" />
<glyph unicode="G" horiz-adv-x="1466" d="M1284 537l-63 -416q-261 -146 -568 -146q-248 0 -394 142.5t-146 392.5q0 278 104 497t289 340t418 121q108 0 220.5 -24t171.5 -48l58 -24l-63 -364h-170l-27 170q-112 34 -229 34q-135 0 -238.5 -94t-155 -239.5t-51.5 -311.5q0 -162 79.5 -250t215.5 -88q125 0 228 39 l45 269l-154 47l27 164l575 10l-26 -174z" />
<glyph unicode="H" horiz-adv-x="1603" d="M1434 0h-613l29 178l160 49l63 398h-522l-64 -398l144 -49l-29 -178h-608l29 178l157 49l156 977l-141 60l26 170l610 10l-28 -180l-160 -62l-55 -338h522l55 340l-145 60l27 170l614 10l-29 -180l-159 -62l-156 -975l145 -49z" />
<glyph unicode="I" horiz-adv-x="774" d="M604 0h-610l29 178l159 49l156 977l-141 60l26 170l611 10l-29 -180l-160 -62l-156 -975l144 -49z" />
<glyph unicode="J" horiz-adv-x="753" d="M666 1202l-160 -993q-22 -137 -59.5 -232.5t-100 -164.5t-155 -101.5t-220.5 -32.5q-28 0 -65.5 4t-60.5 8l-23 3l59 205h96q84 0 137 50.5t68 145.5l176 1110l-141 60l27 170l610 10l-29 -180z" />
<glyph unicode="K" horiz-adv-x="1372" d="M1356 0h-586l29 178l116 43l-210 404h-148l-63 -398l139 -49l-29 -178h-600l29 178l160 49l153 977l-141 60l26 170l603 10l-29 -180l-158 -60l-55 -354h133l426 584l338 10l-29 -180l-155 -62l-347 -450l291 -527l135 -47z" />
<glyph unicode="L" horiz-adv-x="1083" d="M791 246l81 225h189l-78 -471h-999l28 178l160 49l154 977l-142 60l27 170l616 10l-28 -180l-166 -60l-154 -958h312z" />
<glyph unicode="M" horiz-adv-x="1746" d="M553 0h-569l28 178l158 49l156 977l-142 60l27 170l508 10l196 -692l416 682l486 10l-31 -180l-158 -62l-153 -973l141 -51l-29 -178h-579l28 178l152 51l115 729l-359 -583l-221 -15l-170 590l-115 -723l144 -49z" />
<glyph unicode="N" horiz-adv-x="1570" d="M-16 0l28 178l160 49l154 977l-142 60l27 170l475 10l391 -955l113 715l-133 60l26 170l568 10l-29 -180l-158 -60l-190 -1204h-318l-395 950l-117 -723l138 -49l-29 -178h-569z" />
<glyph unicode="O" horiz-adv-x="1499" d="M627 -27q-247 0 -381.5 137.5t-134.5 393.5q0 156 35 300.5t103.5 264.5t164 209.5t222.5 139.5t273 50q251 0 392 -142.5t141 -393.5q0 -196 -59 -371.5t-163.5 -305.5t-258.5 -206t-334 -76zM1114 920q0 292 -246 292q-104 0 -189.5 -66.5t-136 -171t-77.5 -220.5 t-27 -226q0 -144 60.5 -221.5t179.5 -77.5q103 0 188.5 66t138 169.5t81 222.5t28.5 233z" />
<glyph unicode="P" horiz-adv-x="1239" d="M-6 0l29 178l159 49l154 977l-141 60l26 170l461 10h192q87 0 161 -20.5t133 -61t92.5 -109.5t33.5 -159q0 -122 -34.5 -221.5t-94.5 -167.5t-143 -114.5t-178.5 -67.5t-202.5 -21h-109l-43 -275l148 -49l-29 -178h-614zM569 741h109q153 0 227 80t74 209 q0 89 -50.5 130.5t-127.5 41.5h-158z" />
<glyph unicode="Q" horiz-adv-x="1529" d="M936 -305l-375 285q-211 14 -330.5 152t-119.5 372q0 156 35 300.5t103.5 264.5t164 209.5t223.5 139.5t274 50q250 0 391.5 -140.5t141.5 -385.5q0 -214 -69.5 -403.5t-196.5 -326t-293 -196.5l170 -114q111 -76 176 -76q32 0 85.5 18t90.5 36l37 18l78 -164 q-9 -6 -24.5 -15.5t-59.5 -33.5t-84.5 -42.5t-90 -33.5t-85.5 -15q-105 0 -242 101zM868 1212q-104 0 -189.5 -66.5t-136 -171t-77.5 -220.5t-27 -226q0 -144 61 -221.5t181 -77.5q83 0 155 43.5t122.5 115.5t87 163.5t54 188.5t17.5 190q0 282 -248 282z" />
<glyph unicode="R" horiz-adv-x="1341" d="M610 0h-606l29 178l160 51l153 973l-139 62l26 170l455 10h197q118 0 211 -36.5t151 -115t58 -188.5q0 -174 -86 -293.5t-240 -173.5q40 -40 84 -166l80 -242l139 -51l-29 -178h-358l-111 389q-30 108 -79 143t-154 35l-53 -338l141 -51zM584 782h116q133 0 211 68 t78 194q0 77 -46.5 117.5t-127.5 40.5h-164z" />
<glyph unicode="S" horiz-adv-x="1212" d="M301 444l4 -176q78 -39 199 -39q97 0 172.5 49t75.5 134q0 43 -30.5 77.5t-79.5 59.5t-108 50.5t-118.5 58t-108.5 73t-79.5 104.5t-30.5 144q0 119 45 213.5t122.5 154t178.5 90.5t217 31q98 0 202.5 -20.5t159.5 -41.5l56 -20l-70 -372h-168l-25 174q-88 31 -178 31 q-97 0 -156 -43t-59 -117q0 -42 30.5 -76.5t79.5 -60t107.5 -50.5t117.5 -57t108 -71t79.5 -100t30.5 -138q0 -125 -48.5 -227.5t-130.5 -168.5t-189 -101.5t-226 -35.5q-97 0 -205 19.5t-168 39.5l-59 19l64 393h188z" />
<glyph unicode="T" horiz-adv-x="1181" d="M385 227l154 975h-191l-82 -198h-184l74 440h1157l-70 -440h-184l-21 198h-192l-154 -975l158 -49l-29 -178h-637l29 178z" />
<glyph unicode="U" horiz-adv-x="1548" d="M625 1202l-105 -649q-10 -68 -10 -115q0 -104 49.5 -158.5t171.5 -54.5q139 0 208 82t99 273l99 622l-144 62l27 170l608 10l-29 -180l-157 -62l-94 -604q-24 -151 -70.5 -262.5t-124.5 -194t-194 -124.5t-271 -42q-258 0 -372.5 102.5t-114.5 307.5q0 85 14 168l104 649 l-145 62l27 170l606 10l-29 -180z" />
<glyph unicode="V" horiz-adv-x="1366" d="M82 1264l29 170l417 10l162 -1032l359 792l-136 60l31 170l584 10l-29 -180l-143 -62l-594 -1202h-313l-224 1208z" />
<glyph unicode="W" horiz-adv-x="2002" d="M92 1264l27 170l395 10l127 -965l397 948l238 17l129 -971l303 731l-141 60l30 170l570 10l-31 -180l-147 -60l-547 -1204h-240l-133 901l-403 -901h-240l-190 1208z" />
<glyph unicode="X" horiz-adv-x="1361" d="M500 0h-588l29 178l155 47l422 492l-278 508l-127 39l26 170l604 10l-28 -180l-101 -31l144 -285l231 279l-86 37l27 170l577 10l-28 -180l-156 -43l-424 -478l285 -524l139 -41l-29 -178h-612l29 178l98 25l-143 297l-236 -287l98 -35z" />
<glyph unicode="Y" horiz-adv-x="1263" d="M842 0h-606l28 178l160 51l43 275l-219 715l-156 45l27 170l385 10l184 -674l260 449l-139 45l27 170l579 10l-29 -180l-151 -58l-469 -735l-39 -242l143 -51z" />
<glyph unicode="Z" horiz-adv-x="1216" d="M51 213l766 989h-409l-74 -174h-180l59 416h1012l-25 -227l-760 -977h420l78 213h190l-71 -453h-1034z" />
<glyph unicode="[" horiz-adv-x="694" d="M31 -471l325 2048l494 -10l-33 -211l-242 -23l-247 -1562l235 -23l-33 -209z" />
<glyph unicode="\" horiz-adv-x="1040" d="M627 0l-443 1444h289l440 -1444h-286z" />
<glyph unicode="]" horiz-adv-x="714" d="M201 -227l250 1560l-238 23l35 211l497 10l-325 -2048l-492 10l31 211z" />
<glyph unicode="^" horiz-adv-x="1169" d="M72 655l508 789h217l258 -789h-252l-162 502l-319 -502h-250z" />
<glyph unicode="_" horiz-adv-x="1026" d="M887 -164v-205h-1032v205h1032z" />
<glyph unicode="`" horiz-adv-x="651" d="M250 1722l532 -346l-77 -153l-555 270z" />
<glyph unicode="a" horiz-adv-x="1259" d="M1153 20l-440 -20l71 303q-7 -14 -24.5 -42t-60 -79.5t-90.5 -94t-119.5 -75t-143.5 -32.5q-132 0 -212.5 105.5t-80.5 264.5q0 149 35 276.5t94.5 218t139.5 155t171 95.5t187 31q63 0 123 -19t89 -37l28 -19l59 55h186l-143 -893l158 -31zM803 711l31 170 q-60 24 -150 24q-141 0 -232.5 -146.5t-91.5 -369.5q0 -81 27.5 -125.5t73.5 -44.5q57 0 113.5 50.5t96 123t70.5 145t47 122.5z" />
<glyph unicode="b" horiz-adv-x="1253" d="M145 1407l27 164l449 16l-91 -512l-69 -280q7 14 13 25.5t29 48.5t46 65.5t61.5 66.5t77.5 63.5t92 43.5t107 18q94 0 161 -52.5t98.5 -136.5t31.5 -189q0 -143 -36 -267t-99.5 -215t-147.5 -156t-181.5 -97.5t-201.5 -32.5q-98 0 -204.5 15t-163.5 31l-58 15l209 1325z M444 395l-32 -168q67 -22 139 -22q128 0 225.5 144.5t97.5 350.5q0 76 -28.5 128.5t-83.5 52.5q-57 0 -111 -50t-90 -121.5t-63.5 -143t-40.5 -121.5z" />
<glyph unicode="c" horiz-adv-x="993" d="M819 309l88 -162q-242 -167 -467 -167q-179 0 -281 102.5t-102 292.5q0 339 176 545t459 206q32 0 63.5 -3.5t60.5 -10t52 -12.5t49 -16t38.5 -15.5t33 -14.5t21.5 -10l-52 -323h-180l-10 143q-41 19 -109 19q-74 0 -133.5 -41.5t-94.5 -109.5t-53 -149t-18 -167 q0 -89 45 -140t123 -51q24 0 50 3.5t52.5 10t47 12.5t46.5 16.5t38 15.5t34 15t23 11z" />
<glyph unicode="d" horiz-adv-x="1249" d="M1143 10l-428 -10l76 303q-7 -15 -24.5 -42.5t-60 -79.5t-90.5 -94t-119.5 -74.5t-144.5 -32.5q-133 0 -211 104.5t-78 265.5q0 185 53 335.5t141 245t199 145t232 50.5q43 0 87.5 -10t67.5 -20l23 -9l47 279l-157 41l24 164l455 16l-221 -1374l155 -31zM805 711l29 170 q-58 24 -144 24q-76 0 -139 -43.5t-102.5 -116t-60.5 -163.5t-21 -189q0 -82 26.5 -128t73.5 -46q57 0 113 50.5t95 123t69.5 145t45.5 122.5z" />
<glyph unicode="e" horiz-adv-x="1069" d="M856 289l86 -152q-41 -28 -102.5 -60t-170.5 -64.5t-208 -32.5q-187 0 -297.5 100t-110.5 278q0 166 49.5 310.5t133 244t196.5 156.5t238 57q181 0 285 -79t104 -213q0 -177 -187.5 -286t-519.5 -112q0 -126 47.5 -173.5t145.5 -47.5q42 0 95 10.5t87.5 21t79.5 26 t49 16.5zM762 797q0 98 -117 98q-91 0 -164 -77.5t-104 -201.5q186 4 285.5 55.5t99.5 125.5z" />
<glyph unicode="f" horiz-adv-x="821" d="M115 881l28 178l189 26q12 101 32 176.5t56 144t87 112t128 69t178 25.5q76 0 161.5 -12t133.5 -24l47 -11l-61 -332h-174v153h-99q-85 0 -126 -42.5t-54 -124.5l-20 -134h272l-37 -204h-270l-150 -944q-32 -204 -145.5 -321.5t-306.5 -117.5q-36 0 -88.5 7t-86.5 15 l-34 7l39 178h141q157 0 188 197l154 979h-182z" />
<glyph unicode="g" horiz-adv-x="1206" d="M25 -416l67 201q22 -8 57.5 -19.5t123.5 -31t149 -19.5q128 0 198 63.5t97 190.5l71 340q-132 -220 -291 -296q-71 -33 -141 -33q-132 0 -213.5 101.5t-81.5 258.5q0 184 53 336t141 248.5t198.5 149t228.5 52.5q63 0 123 -19t89 -37l28 -19l59 55h180l-180 -1131 q-79 -491 -518 -491q-90 0 -199.5 25t-174 48.5t-64.5 26.5zM805 711l29 170q-58 24 -148 24q-93 0 -167.5 -67t-115.5 -184.5t-41 -262.5q0 -82 27 -127t74 -45q42 0 84 27t74.5 70.5t62.5 96t51.5 105t37.5 96t24 70.5z" />
<glyph unicode="h" horiz-adv-x="1308" d="M645 1587l-143 -809q5 13 22.5 44.5t59 86t90 101t121 81.5t147.5 35q229 0 229 -247q0 -49 -10 -121l-86 -543l154 -31l-27 -164l-459 -20l115 700q6 40 6 74q0 100 -78 100q-51 0 -100.5 -40.5t-86 -100t-67 -131.5t-48 -129.5t-25.5 -99.5l-68 -373h-297l219 1366 l-157 41l26 164z" />
<glyph unicode="i" horiz-adv-x="684" d="M301 1403q0 94 54 159.5t141 65.5q63 0 102 -37t39 -106q0 -96 -53.5 -163t-137.5 -67q-66 0 -105.5 38t-39.5 110zM438 215l156 -31l-27 -164l-458 -20l139 885l-158 41l29 164l461 16z" />
<glyph unicode="j" horiz-adv-x="673" d="M295 1403q0 94 53.5 159.5t140.5 65.5q65 0 104.5 -37t39.5 -106q0 -96 -53.5 -163t-139.5 -67q-65 0 -105 38.5t-40 109.5zM121 1090l454 16l-192 -1194q-31 -195 -148 -304.5t-305 -109.5q-39 0 -90 8t-82 16l-32 7l41 180q7 0 51.5 -3t77.5 -3q54 0 89 14t58 49.5 t35.5 80t25.5 120.5l148 918l-160 41z" />
<glyph unicode="k" horiz-adv-x="1124" d="M494 694h133l168 209l-82 29l24 164l488 10l-27 -174l-133 -25l-242 -280l170 -416l148 -47l-23 -164h-354l-180 500h-121l-80 -500h-293l219 1366l-157 41l26 164l459 16z" />
<glyph unicode="l" horiz-adv-x="657" d="M422 215l156 -31l-27 -164l-457 -20l219 1366l-157 41l26 164l459 16z" />
<glyph unicode="m" horiz-adv-x="1921" d="M569 1106l-67 -330q96 193 234 285q96 65 198 65q112 0 166.5 -67.5t54.5 -179.5q0 -35 -6 -76q18 36 40.5 72t62 83.5t83 82.5t103.5 60t123 25q116 0 170.5 -66t54.5 -183q0 -51 -10 -119l-88 -543l153 -31l-26 -164l-453 -20l115 700q6 40 6 74q0 100 -78 100 q-54 0 -106 -48.5t-92 -126t-68.5 -153t-48.5 -151.5l-64 -395h-289l113 700q6 40 6 74q0 100 -78 100q-52 0 -102.5 -48t-91.5 -128t-72.5 -167t-56.5 -183l-58 -348h-288l139 885l-158 41l27 164z" />
<glyph unicode="n" horiz-adv-x="1327" d="M578 1106l-70 -328q9 18 25 45t60 85t92.5 102.5t122 80t148.5 35.5q117 0 176.5 -67t59.5 -182q0 -51 -10 -119l-95 -543l160 -31l-26 -164l-463 -20l112 696q9 61 9 74q0 100 -78 100q-63 0 -126.5 -65.5t-107.5 -155.5t-72.5 -172t-33.5 -127l-60 -350h-295l142 885 l-158 41l27 164z" />
<glyph unicode="o" horiz-adv-x="1185" d="M500 -20q-208 0 -323.5 112.5t-115.5 317.5q0 325 170 520.5t449 195.5q210 0 326 -115.5t116 -316.5q0 -324 -171 -519t-451 -195zM815 707q-3 86 -47.5 130t-122.5 44q-125 0 -200.5 -131.5t-75.5 -323.5q0 -201 166 -201q79 0 136.5 46t87 121t43 153.5t13.5 161.5z " />
<glyph unicode="p" horiz-adv-x="1261" d="M563 1106l-82 -311q10 21 23.5 45.5t55 80.5t87 97t117 74.5t147.5 33.5q139 0 217 -108t78 -270q0 -175 -53.5 -322.5t-142.5 -242.5t-201.5 -148t-233.5 -53q-103 0 -180 36l-45 -274l158 -51l-27 -164h-608l27 164l161 51l179 1141l-150 41l27 164zM461 395l-31 -168 q69 -22 145 -22q83 0 157.5 64.5t120.5 179.5t46 251q0 77 -28.5 129t-84.5 52q-42 0 -83 -27t-72.5 -69.5t-59.5 -94.5t-47.5 -104t-34 -94.5t-21.5 -69.5z" />
<glyph unicode="q" horiz-adv-x="1208" d="M1065 -471h-614l26 164l182 57l43 250l78 291q-10 -19 -24 -41t-57 -75t-89 -92t-116 -71t-142 -32q-131 0 -210 105t-79 265q0 184 53.5 334.5t142 245t198.5 145.5t229 51q63 0 123 -19t89 -37l28 -19l59 55h180l-217 -1356l144 -57zM811 711l31 170q-64 24 -152 24 q-140 0 -231.5 -147t-91.5 -369q0 -81 27 -125.5t73 -44.5q57 0 113.5 50.5t96.5 123t71.5 145t47.5 122.5z" />
<glyph unicode="r" horiz-adv-x="915" d="M733 700v160q-48 -13 -106.5 -89t-106.5 -186t-65 -214l-60 -371h-286l141 901l-158 41l25 148l454 16l-63 -307q6 14 20.5 42.5t51.5 80.5t80 95t108.5 76t134.5 33q25 0 54 -5t45 -10l16 -5l-80 -406h-205z" />
<glyph unicode="s" horiz-adv-x="997" d="M252 358v-143q59 -22 141 -22q83 0 128.5 30t45.5 88q0 34 -24 62.5t-62 51t-84.5 45t-93 50.5t-84.5 61.5t-62 84t-24 112.5q0 116 62 196t162.5 116t232.5 36q81 0 168 -14t134 -28l46 -15l-55 -307h-176l-11 133q-42 18 -118 18q-68 0 -106 -28.5t-38 -79.5 q0 -34 24.5 -62.5t64 -51t86.5 -45t94.5 -50t87 -60.5t64 -81.5t24.5 -108.5q0 -173 -138 -269.5t-362 -96.5q-82 0 -171 12.5t-137 25.5l-48 13l53 327h176z" />
<glyph unicode="t" horiz-adv-x="827" d="M711 250l45 -148q-60 -38 -165 -80t-185 -42q-123 0 -181.5 67t-58.5 201q0 67 10 123l76 483h-184l30 195l189 26l45 281l299 57l-56 -338h275l-35 -221h-274l-72 -444q-10 -56 -10 -101q0 -100 86 -100q26 0 67.5 10.5t69.5 20.5z" />
<glyph unicode="u" d="M741 0l70 326q-9 -18 -24.5 -44.5t-59.5 -84.5t-92 -102t-121.5 -79.5t-148.5 -35.5q-226 0 -226 247q0 43 12.5 129t57.5 355q18 109 29 174l-158 41l26 164l455 16q-114 -707 -118 -752q-1 -12 -1 -22q0 -103 78 -103q51 0 101.5 41t86 97.5t68 128t48.5 119t26 85.5 l68 406h288l-141 -893l156 -31l-27 -162z" />
<glyph unicode="v" horiz-adv-x="1155" d="M819 895l-125 31l27 164l516 16l-29 -174l-100 -33l-446 -899h-332l-187 891l-139 35l25 164l389 16l110 -637l17 -174z" />
<glyph unicode="w" horiz-adv-x="1683" d="M1370 895l-131 31l27 164l495 16l-28 -174l-86 -27l-414 -905h-305l-86 614l-248 -614h-303l-141 899l-132 27l27 164l389 16l84 -768l289 739l237 33l101 -772z" />
<glyph unicode="x" horiz-adv-x="1122" d="M1165 932l-145 -33l-283 -344l178 -354l156 -29l-27 -162l-350 -20l-172 377l-260 -367h-315l26 164l138 47l278 352l-174 332l-145 31l26 164l340 16l162 -363l262 353l334 10z" />
<glyph unicode="y" horiz-adv-x="1153" d="M18 926l25 164l393 16l139 -668l13 -127l241 586l-127 29l25 164l514 16l-29 -174l-100 -33l-391 -866q-47 -104 -82 -174t-75 -133.5t-76 -101t-81.5 -65.5t-95.5 -39.5t-114 -11.5q-55 0 -120 10t-103 20l-37 11l57 205q79 -10 151 -10q102 0 152 40.5t104 158.5 l-241 948z" />
<glyph unicode="z" horiz-adv-x="1019" d="M983 926l-586 -709h289l70 182h164l-50 -399h-856l15 184l602 707h-279l-67 -154h-170l55 369h827z" />
<glyph unicode="{" horiz-adv-x="763" d="M621 1167l-48 -274q-34 -217 -225 -289q139 -59 139 -219q0 -35 -6 -72l-57 -354q-6 -43 -6 -74q0 -78 47 -108.5t166 -30.5l-33 -207h-104q-177 0 -257.5 63t-80.5 208q0 53 8 108l59 371q6 38 6 69q0 69 -36 106.5t-121 37.5l34 205q103 0 152 55.5t66 157.5l47 288 q33 205 138.5 292t311.5 87h103l-31 -207q-98 0 -151 -20t-79.5 -63.5t-41.5 -129.5z" />
<glyph unicode="|" horiz-adv-x="604" d="M344 1546h234l-322 -2017h-233z" />
<glyph unicode="}" horiz-adv-x="761" d="M369 893l34 205q19 121 19 143q0 77 -47.5 108t-165.5 31l35 207h108q181 0 265 -71.5t67 -225.5l-49 -336q-12 -78 -12 -102q0 -70 37 -107.5t122 -37.5l-32 -205q-106 0 -156.5 -56t-65.5 -157l-51 -328q-35 -223 -141.5 -322.5t-312.5 -99.5h-105l33 207q138 0 195 45 t77 168l49 311q21 131 76.5 213.5t159.5 120.5q-146 61 -146 223q0 26 7 66z" />
<glyph unicode="~" horiz-adv-x="1280" d="M231 428l-108 102q6 10 17 26.5t47.5 58.5t75 74t97 58.5t117.5 26.5q58 0 115.5 -21.5t96 -47t90 -47t98.5 -21.5q49 0 99.5 28.5t76.5 56.5l26 28l115 -103q-6 -10 -17.5 -26.5t-48.5 -59t-75 -75t-94.5 -59t-110.5 -26.5q-58 0 -117.5 21.5t-101 47.5t-95.5 47.5 t-102 21.5q-29 0 -60.5 -11.5t-55.5 -27.5t-44 -32.5t-30 -27.5z" />
<glyph unicode="&#xa1;" horiz-adv-x="624" d="M238 918q0 95 50.5 159t145.5 64q68 0 110 -39.5t42 -106.5q0 -95 -53 -160t-148 -65q-67 0 -107 40t-40 108zM481 590l-137 -1043h-303l201 1033z" />
<glyph unicode="&#xa2;" horiz-adv-x="1007" d="M543 1247l30 180q110 9 215 15l-30 -180q35 -3 70 -10.5t64.5 -17.5t50 -18.5t41 -18.5t24.5 -11l-58 -307h-174v141q-40 16 -106 16q-72 0 -129 -33t-91.5 -88.5t-52.5 -125t-18 -146.5q0 -88 52.5 -144.5t135.5 -56.5q58 0 113.5 14.5t82.5 27t68 34.5l87 -143 q-52 -38 -142.5 -84t-185.5 -66l-35 -225h-213l35 225q-131 30 -209 129.5t-78 243.5q0 261 122.5 431t330.5 218z" />
<glyph unicode="&#xa3;" horiz-adv-x="1232" d="M33 178l106 37q81 27 104.5 101t45.5 299q3 26 4 40h-184l30 185l176 30q10 98 21 174q26 198 149 311t340 113q108 0 211 -17t152 -33l49 -17l-59 -369h-170l-27 185q-108 12 -160 12q-86 0 -135.5 -49.5t-60.5 -132.5q-5 -33 -10 -95.5t-7 -77.5h285l-37 -219h-268 l-23 -202q-4 -41 -16.5 -77.5t-25 -58.5t-28.5 -41t-23 -25t-13 -11h370l72 176h186l-67 -416h-1014z" />
<glyph unicode="&#xa4;" horiz-adv-x="1261" d="M53 240l172 153q-20 59 -20 142q0 160 92 292l-125 156l172 164l131 -160q107 57 225 57q122 0 207 -51l178 156l123 -160l-170 -151q23 -71 23 -142q0 -170 -98 -311l124 -152l-174 -161l-129 155q-106 -53 -219 -53q-129 0 -217 55l-174 -153zM672 827q-97 0 -155 -74 t-58 -200q0 -80 38.5 -121t104.5 -41q94 0 150.5 75t56.5 198q0 81 -35.5 122t-101.5 41z" />
<glyph unicode="&#xa5;" horiz-adv-x="1335" d="M397 825l-118 394l-156 45l27 170l382 10l185 -674l260 449l-139 45l28 170l580 10l-29 -180l-153 -58l-244 -381h184l-28 -184h-994l31 184h184zM756 229l145 -51l-29 -178h-606l29 178l160 51l16 105h-336l29 184h993l-31 -184h-354z" />
<glyph unicode="&#xa6;" horiz-adv-x="557" d="M367 1567h233l-131 -819h-233zM164 297h233l-135 -840h-231z" />
<glyph unicode="&#xa7;" horiz-adv-x="1126" d="M291 106l6 -184q43 -10 100 -10q76 0 131.5 48.5t55.5 125.5q0 41 -23.5 79t-61.5 69.5t-83.5 63.5t-91 68.5t-83.5 76.5t-61.5 95t-23.5 117q0 126 56 220t138 143q-31 97 -31 149q0 130 65.5 233t171.5 157.5t230 54.5q82 0 160.5 -16t115.5 -32l38 -16l-60 -338h-149 l-12 176q-47 11 -88 11q-86 0 -140.5 -49.5t-54.5 -130.5q0 -40 23.5 -78.5t61.5 -71.5t84 -66.5t92 -70.5t84 -77t61.5 -93t23.5 -111q0 -113 -53.5 -203.5t-145.5 -154.5q35 -72 35 -137q0 -130 -64.5 -235.5t-172.5 -163.5t-236 -58q-76 0 -155.5 14.5t-120.5 29.5 l-41 15l65 350h154zM471 864q-59 -59 -59 -137q0 -41 31.5 -81.5t72 -68t99 -68t92.5 -71.5q61 57 61 135q0 34 -19 66t-53 60t-70 52t-81 55.5t-74 57.5z" />
<glyph unicode="&#xa8;" horiz-adv-x="1054" d="M209 1421q0 83 45 140t125 57q59 0 93 -33.5t34 -91.5q0 -81 -47.5 -138t-126.5 -57q-57 0 -90 33t-33 90zM645 1421q0 82 45 139.5t123 57.5q59 0 93 -33.5t34 -91.5q0 -82 -46.5 -138.5t-125.5 -56.5q-57 0 -90 33t-33 90z" />
<glyph unicode="&#xa9;" horiz-adv-x="1716" d="M92 707q0 162 60 304.5t163 243.5t246.5 159.5t306.5 58.5q220 0 390.5 -89.5t268 -260t97.5 -396.5q0 -162 -63 -305t-170 -243.5t-254 -159t-310 -58.5q-333 0 -534 201t-201 545zM301 717q0 -264 143.5 -413.5t393.5 -149.5q165 0 296 70.5t206 199.5t75 293 q0 261 -152.5 412t-404.5 151q-248 0 -402.5 -156.5t-154.5 -406.5zM1087 559l76 -117q-156 -131 -311 -131q-175 0 -276 101.5t-101 287.5q0 198 105 315.5t294 117.5q56 0 122.5 -15.5t104.5 -31.5l38 -15l-6 -229h-142l-22 112q-39 13 -99 13q-170 0 -170 -240 q0 -246 179 -246q57 0 116.5 26t91.5 52z" />
<glyph unicode="&#xaa;" horiz-adv-x="989" d="M915 668l-323 -11l51 222q-5 -10 -16 -28.5t-41.5 -57.5t-65 -70t-86 -55.5t-104.5 -24.5q-97 0 -154 80.5t-57 194.5q0 131 37.5 237.5t101 173.5t143 103t166.5 36q43 0 86 -12t65 -24l21 -13l39 35h144l-101 -629l115 -24zM655 1169l23 113q-46 18 -109 18 q-93 0 -158 -101t-65 -259q0 -57 19 -87t51 -30q39 0 78.5 35.5t67 86.5t49.5 102t33 87zM858 481l-33 -205h-745l33 205h745z" />
<glyph unicode="&#xab;" horiz-adv-x="1251" d="M381 106l-264 365l24 158l373 348l145 -119l-278 -311l174 -328zM887 106l-273 365l25 158l381 348l145 -119l-288 -311l184 -328z" />
<glyph unicode="&#xac;" d="M1208 768l-96 -604h-252l60 368h-797l39 236h1046z" />
<glyph unicode="&#xad;" horiz-adv-x="788" d="M707 686l-41 -256h-564l41 256h564z" />
<glyph unicode="&#xae;" horiz-adv-x="1482" d="M182 920q0 184 84 332.5t232.5 232.5t332.5 84q183 0 331 -78t233.5 -222t85.5 -327t-90 -332.5t-243 -233t-337 -83.5q-277 0 -453 174.5t-176 452.5zM385 932q0 -207 117 -333t319 -126q204 0 332.5 127.5t128.5 331.5t-128.5 330.5t-332.5 126.5q-202 0 -319 -125.5 t-117 -331.5zM545 618v93l71 24v406l-71 28v86l293 5q114 2 183 -47t69 -140q0 -119 -107 -172q1 -1 7 -8t14.5 -19t17.5 -28l59 -111l66 -24v-93h-182l-80 170q-24 50 -45.5 64t-65.5 14v-131l68 -24v-93h-297zM774 975h53q41 0 72 23t31 59q0 39 -23 60.5t-65 21.5h-68 v-164z" />
<glyph unicode="&#xaf;" horiz-adv-x="632" d="M633 1530l-37 -215h-596l37 215h596z" />
<glyph unicode="&#xb0;" horiz-adv-x="833" d="M113 1163q0 144 106 249.5t260 105.5q133 0 217 -76t84 -217q0 -94 -46.5 -178t-132 -136.5t-189.5 -52.5q-130 0 -214.5 78t-84.5 227zM461 1329q-63 0 -103.5 -42.5t-40.5 -106.5q0 -67 31.5 -101.5t85.5 -34.5q63 0 103.5 45.5t40.5 114.5q0 62 -32 93.5t-85 31.5z " />
<glyph unicode="&#xb1;" horiz-adv-x="1261" d="M559 829l47 301h264l-47 -301h379l-39 -239h-379l-49 -309h-264l49 309h-383l39 239h383zM1096 160l-37 -234h-1028l37 234h1028z" />
<glyph unicode="&#xb2;" horiz-adv-x="833" d="M104 573l33 205q245 171 300 215q128 101 147 172q4 16 4 31q0 70 -94 70q-21 0 -43 -4t-33 -8l-12 -3l-27 -108h-170l35 270q166 51 301 51q150 0 233.5 -51.5t83.5 -155.5q0 -35 -6.5 -68t-22.5 -64t-31.5 -56.5t-44 -54.5t-48 -48.5t-56.5 -48t-56.5 -43.5t-61 -44.5 t-58.5 -41.5h322l-35 -215h-660z" />
<glyph unicode="&#xb3;" horiz-adv-x="796" d="M180 1184l31 233q178 47 315 47q147 0 223 -51.5t76 -150.5q0 -89 -53 -147.5t-143 -82.5q65 -11 108 -56t43 -108q0 -80 -34.5 -142t-93.5 -97.5t-130 -53.5t-151 -18q-73 0 -148.5 21.5t-114.5 43.5l-40 21l77 164q12 -6 33.5 -15t80.5 -24.5t110 -15.5q72 0 113.5 29 t41.5 79q0 80 -123 80h-116l22 154h111q155 0 155 112q0 68 -98 68q-26 0 -54.5 -3t-43.5 -6l-15 -3l-20 -78h-162z" />
<glyph unicode="&#xb4;" horiz-adv-x="593" d="M748 1518l-107 213l-510 -353l94 -149z" />
<glyph unicode="&#xb5;" horiz-adv-x="1327" d="M764 0l70 328q-5 -14 -20 -45.5t-51 -86.5t-78.5 -101t-106 -80.5t-129.5 -34.5q-31 0 -62 14l-82 -475h-289l234 1366l-160 41l29 164l454 16l-114 -705q-8 -57 -8 -69q0 -47 21 -75t63 -28q61 0 122 60t105 147.5t74 172t41 147.5l61 350h289l-144 -893l156 -35 l-29 -164z" />
<glyph unicode="&#xb6;" horiz-adv-x="1474" d="M371 -133l110 692q-136 18 -221.5 117t-85.5 250q0 140 65 258t186 189t273 71h367l405 -17l-26 -163l-164 -41l-252 -1571h-250l252 1571h-209l-252 -1571h-397l27 168z" />
<glyph unicode="&#xb7;" horiz-adv-x="626" d="M133 586q0 100 53 166.5t152 66.5q70 0 113 -40.5t43 -110.5q0 -98 -55 -166t-154 -68q-69 0 -110.5 41.5t-41.5 110.5z" />
<glyph unicode="&#xb8;" horiz-adv-x="892" d="M221 -418l78 113q65 -39 141 -39q48 0 80.5 22.5t32.5 63.5q0 39 -41.5 59.5t-112.5 20.5l29 178h170l-14 -90q67 -14 106 -54.5t39 -101.5q0 -104 -81 -168.5t-191 -64.5q-62 0 -121 15.5t-87 30.5z" />
<glyph unicode="&#xb9;" horiz-adv-x="761" d="M133 573l29 183h182l70 432l-195 -113l-69 166l342 203h210l-108 -688h178l-29 -183h-610z" />
<glyph unicode="&#xba;" horiz-adv-x="1015" d="M608 1470q154 0 238 -78.5t84 -220.5q0 -151 -55 -270t-162 -188.5t-248 -69.5q-160 0 -247 76.5t-87 224.5q0 233 133 379.5t344 146.5zM567 1284q-62 0 -107 -46.5t-66 -117.5t-21 -155q0 -68 34 -102t97 -34q59 0 102 48t62.5 118.5t19.5 149.5q0 139 -121 139z M811 481l-33 -205h-745l33 205h745z" />
<glyph unicode="&#xbb;" horiz-adv-x="1251" d="M365 977l272 -367l-25 -157l-381 -347l-145 117l289 314l-185 325zM870 977l265 -367l-25 -157l-373 -347l-145 117l278 314l-174 325z" />
<glyph unicode="&#xbc;" horiz-adv-x="1986" d="M1786 348h119l-33 -190h-117l-24 -158h-254l24 158h-397l4 172l477 551l281 -31zM1665 1444l-1026 -1444h-291l1026 1444h291zM1534 348l41 260l-229 -260h188zM102 573l29 183h188l68 428l-197 -113l-71 170l346 203h217l-109 -688h162l-28 -183h-605z" />
<glyph unicode="&#xbd;" horiz-adv-x="2023" d="M102 573l29 183h188l68 428l-197 -113l-71 170l346 203h217l-109 -688h162l-28 -183h-605zM1667 1444l-1026 -1444h-291l1026 1444h291zM1194 0l33 205q245 171 303 217q126 101 144 173q3 14 3 28q0 69 -94 69q-21 0 -43 -3.5t-34 -6.5l-11 -4l-27 -109h-170l35 271 q166 51 301 51q150 0 234 -51.5t84 -155.5q0 -31 -6.5 -61.5t-16 -56t-28.5 -53.5t-34 -48.5t-43 -47t-45.5 -43t-52 -42.5t-52 -39t-55 -40t-52.5 -38h321l-35 -215h-659z" />
<glyph unicode="&#xbe;" horiz-adv-x="2011" d="M1810 348h119l-33 -190h-116l-25 -158h-254l25 158h-398l5 172l477 551l280 -31zM1690 1444l-1026 -1444h-291l1026 1444h291zM1559 348l40 260l-229 -260h189zM184 1176l31 233q178 47 315 47q147 0 223 -52t76 -151q0 -89 -53 -147t-143 -82q65 -11 108 -56t43 -108 q0 -80 -34.5 -142t-93.5 -97.5t-130 -53.5t-151 -18q-73 0 -148.5 21.5t-114.5 43.5l-40 21l78 164q12 -6 33 -15.5t80 -25t110 -15.5q72 0 113.5 29.5t41.5 79.5q0 80 -122 80h-117l22 153h111q156 0 156 113q0 68 -99 68q-26 0 -54 -3t-43 -7l-15 -3l-21 -77h-162z" />
<glyph unicode="&#xbf;" horiz-adv-x="927" d="M492 918q0 95 50.5 159t145.5 64q68 0 110 -39.5t42 -106.5q0 -95 -53 -160t-148 -65q-67 0 -107 40t-40 108zM756 606v-135q0 -58 -23.5 -109.5t-61 -91t-82.5 -76.5t-90 -71.5t-82.5 -69.5t-61 -78t-23.5 -90q0 -108 151 -108q39 0 85.5 4.5t73.5 8.5l26 5l16 -207 q-161 -49 -319 -49q-74 0 -134.5 14.5t-109 46t-75 85t-26.5 125.5q0 70 25 134.5t66 115t90 97.5t98.5 88.5t91 81t69 83t29.5 86.5l7 92z" />
<glyph unicode="&#xc0;" horiz-adv-x="1456" d="M690 1960l496 -268l-78 -164l-514 211zM1386 180l-30 -180h-606l28 178l162 51l-25 150h-452l-74 -156l141 -45l-28 -178h-580l29 180l137 47l629 1203l315 14l236 -1223zM565 598h316l-76 494z" />
<glyph unicode="&#xc1;" horiz-adv-x="1456" d="M791 1511l-78 164l501 267l109 -213zM1386 180l-30 -180h-606l28 178l162 51l-25 150h-452l-74 -156l141 -45l-28 -178h-580l29 180l137 47l629 1203l315 14l236 -1223zM565 598h316l-76 494z" />
<glyph unicode="&#xc2;" horiz-adv-x="1456" d="M516 1659l352 280l179 15l266 -295l-115 -133l-260 205l-336 -205zM1386 180l-30 -180h-606l28 178l162 51l-25 150h-452l-74 -156l141 -45l-28 -178h-580l29 180l137 47l629 1203l315 14l236 -1223zM565 598h316l-76 494z" />
<glyph unicode="&#xc3;" horiz-adv-x="1456" d="M573 1597l-77 84q5 9 14.5 24t39.5 52.5t62 66.5t79 53t93 24q58 0 115.5 -23.5t110.5 -46.5t102 -23q35 0 72.5 21.5t57.5 42.5l20 22l92 -79q-5 -9 -14 -24t-38.5 -54t-61 -68.5t-78 -53.5t-91.5 -24q-58 0 -118 22.5t-115.5 45t-104.5 22.5q-37 0 -77 -21t-62 -42z M1386 180l-30 -180h-606l28 178l162 51l-25 150h-452l-74 -156l141 -45l-28 -178h-580l29 180l137 47l629 1203l315 14l236 -1223zM565 598h316l-76 494z" />
<glyph unicode="&#xc4;" horiz-adv-x="1456" d="M1386 180l-30 -180h-606l28 178l162 51l-25 150h-452l-74 -156l141 -45l-28 -178h-580l29 180l137 47l629 1203l315 14l236 -1223zM565 598h316l-76 494zM594 1700q0 82 45 139t125 57q59 0 93 -33t34 -91q0 -81 -47.5 -138t-126.5 -57q-57 0 -90 33t-33 90zM1030 1700 q0 82 45 139t123 57q59 0 93 -33t34 -91q0 -82 -46.5 -138.5t-125.5 -56.5q-57 0 -90 33t-33 90z" />
<glyph unicode="&#xc5;" horiz-adv-x="1456" d="M88 227l629 1203q-84 59 -84 169q0 131 86.5 225.5t218.5 94.5q99 0 165 -56.5t66 -154.5q0 -79 -37 -151.5t-100 -116.5l236 -1219l118 -41l-30 -180h-606l28 178l162 51l-25 150h-452l-74 -156l141 -45l-28 -178h-580l29 180zM918 1772q-51 0 -83 -45t-32 -103 q0 -88 82 -88q51 0 82.5 44.5t31.5 102.5q0 89 -81 89zM565 598h316l-76 494z" />
<glyph unicode="&#xc6;" horiz-adv-x="1912" d="M1673 860l-35 -225h-405l-62 -395h359l74 172h184l-68 -412h-1036l31 178l153 51l27 164h-389l-109 -172l121 -43l-31 -178h-565l29 178l145 51l615 977l-158 58l27 170l505 10h838l-63 -395h-164l-27 153h-344l-55 -342h403zM989 1202l-356 -588h293l96 588h-33z" />
<glyph unicode="&#xc7;" horiz-adv-x="1320" d="M416 -418l78 113q65 -39 141 -39q48 0 80.5 22.5t32.5 63.5q0 39 -41.5 59.5t-112.5 20.5l24 151q-231 9 -368 154.5t-137 382.5q0 278 102.5 496.5t286 340t416.5 121.5q108 0 219 -24t168 -48l57 -24l-62 -389h-170l-26 193q-111 36 -221 36q-104 0 -189.5 -56 t-139 -148.5t-82 -206.5t-28.5 -234q0 -151 75.5 -240t195.5 -89q196 0 401 143l109 -172q-211 -177 -434 -221l-13 -78q67 -14 106.5 -54.5t39.5 -101.5q0 -103 -81 -168t-192 -65q-62 0 -120.5 15.5t-86.5 30.5z" />
<glyph unicode="&#xc8;" horiz-adv-x="1251" d="M598 1960l496 -268l-78 -164l-514 211zM608 860h404l-35 -225h-406l-61 -389h358l74 166h184l-67 -412h-1045l29 178l160 49l153 977l-141 60l27 170l460 10h560l-64 -395h-164l-26 149h-344z" />
<glyph unicode="&#xc9;" horiz-adv-x="1251" d="M678 1511l-78 164l502 267l108 -213zM608 860h404l-35 -225h-406l-61 -389h358l74 166h184l-67 -412h-1045l29 178l160 49l153 977l-141 60l27 170l460 10h560l-64 -395h-164l-26 149h-344z" />
<glyph unicode="&#xca;" horiz-adv-x="1247" d="M432 1659l352 280l179 15l266 -295l-115 -133l-260 205l-336 -205zM604 860h404l-35 -225h-406l-61 -395h358l74 172h184l-67 -412h-1041l29 178l160 49l153 977l-141 60l27 170l456 10h559l-63 -395h-164l-26 153h-345z" />
<glyph unicode="&#xcb;" horiz-adv-x="1251" d="M459 1700q0 82 45 139t125 57q59 0 93 -33t34 -91q0 -81 -47.5 -138t-126.5 -57q-57 0 -90 33t-33 90zM895 1700q0 82 45 139t123 57q59 0 93 -33t34 -91q0 -82 -46.5 -138.5t-125.5 -56.5q-57 0 -90 33t-33 90zM608 860h404l-35 -225h-406l-61 -389h358l74 166h184 l-67 -412h-1045l29 178l160 49l153 977l-141 60l27 170l460 10h560l-64 -395h-164l-26 149h-344z" />
<glyph unicode="&#xcc;" horiz-adv-x="774" d="M342 1960l496 -268l-78 -164l-514 211zM604 0h-610l29 178l159 49l156 977l-141 60l26 170l611 10l-29 -180l-160 -62l-156 -975l144 -49z" />
<glyph unicode="&#xcd;" horiz-adv-x="774" d="M399 1511l-77 164l501 267l109 -213zM604 0h-610l29 178l159 49l156 977l-141 60l26 170l611 10l-29 -180l-160 -62l-156 -975l144 -49z" />
<glyph unicode="&#xce;" horiz-adv-x="778" d="M184 1653l328 280l178 15l242 -295l-115 -133l-235 204l-312 -204zM604 0h-610l29 178l159 49l156 977l-141 60l26 170l611 10l-29 -180l-160 -62l-156 -975l144 -49z" />
<glyph unicode="&#xcf;" horiz-adv-x="776" d="M225 1700q0 82 45 139t125 57q59 0 93 -33t34 -91q0 -81 -47.5 -138t-126.5 -57q-57 0 -90 33t-33 90zM662 1700q0 82 44.5 139t122.5 57q59 0 93 -33t34 -91q0 -82 -46.5 -138.5t-125.5 -56.5q-57 0 -89.5 33t-32.5 90zM606 0h-610l29 178l159 49l156 977l-141 60 l26 170l611 10l-29 -180l-160 -62l-155 -975l143 -49z" />
<glyph unicode="&#xd0;" horiz-adv-x="1474" d="M686 1444h197q245 0 387.5 -132.5t142.5 -379.5q0 -221 -60 -398t-169 -293.5t-260.5 -178.5t-335.5 -62h-584l29 178l155 51l66 406h-150l37 225h148l55 344l-139 60l26 170zM494 240h139q111 0 200.5 56.5t145 152t84.5 216.5t29 255q0 282 -248 282h-197l-55 -342h242 l-31 -225h-246z" />
<glyph unicode="&#xd1;" horiz-adv-x="1570" d="M616 1597l-77 84q5 9 14.5 24t39.5 52.5t62 66.5t79 53t93 24q58 0 115.5 -23.5t110.5 -46.5t102 -23q35 0 72.5 21.5t57.5 42.5l20 22l92 -79q-5 -9 -14 -24t-38.5 -54t-61 -68.5t-78 -53.5t-91.5 -24q-58 0 -118 22.5t-115.5 45t-104.5 22.5q-37 0 -77 -21t-61 -42z M-16 0l28 178l160 49l154 977l-142 60l27 170l475 10l391 -955l113 715l-133 60l26 170l568 10l-29 -180l-158 -60l-190 -1204h-318l-395 950l-117 -723l138 -49l-29 -178h-569z" />
<glyph unicode="&#xd2;" horiz-adv-x="1499" d="M758 1960l495 -268l-77 -164l-514 211zM627 -27q-247 0 -381.5 137.5t-134.5 393.5q0 156 35 300.5t103.5 264.5t164 209.5t222.5 139.5t273 50q251 0 392 -142.5t141 -393.5q0 -196 -59 -371.5t-163.5 -305.5t-258.5 -206t-334 -76zM1114 920q0 292 -246 292 q-104 0 -189.5 -66.5t-136 -171t-77.5 -220.5t-27 -226q0 -144 60.5 -221.5t179.5 -77.5q103 0 188.5 66t138 169.5t81 222.5t28.5 233z" />
<glyph unicode="&#xd3;" horiz-adv-x="1499" d="M791 1511l-78 164l501 267l109 -213zM627 -27q-247 0 -381.5 137.5t-134.5 393.5q0 156 35 300.5t103.5 264.5t164 209.5t222.5 139.5t273 50q251 0 392 -142.5t141 -393.5q0 -196 -59 -371.5t-163.5 -305.5t-258.5 -206t-334 -76zM1114 920q0 292 -246 292 q-104 0 -189.5 -66.5t-136 -171t-77.5 -220.5t-27 -226q0 -144 60.5 -221.5t179.5 -77.5q103 0 188.5 66t138 169.5t81 222.5t28.5 233z" />
<glyph unicode="&#xd4;" horiz-adv-x="1499" d="M547 1653l352 280l178 15l266 -295l-114 -133l-260 204l-336 -204zM627 -27q-247 0 -381.5 137.5t-134.5 393.5q0 156 35 300.5t103.5 264.5t164 209.5t222.5 139.5t273 50q251 0 392 -142.5t141 -393.5q0 -196 -59 -371.5t-163.5 -305.5t-258.5 -206t-334 -76zM1114 920 q0 292 -246 292q-104 0 -189.5 -66.5t-136 -171t-77.5 -220.5t-27 -226q0 -144 60.5 -221.5t179.5 -77.5q103 0 188.5 66t138 169.5t81 222.5t28.5 233z" />
<glyph unicode="&#xd5;" horiz-adv-x="1499" d="M612 1597l-77 84q5 9 14.5 24t39.5 52.5t62 66.5t79 53t93 24q58 0 115.5 -23.5t110.5 -46.5t102 -23q35 0 72 21.5t57 42.5l20 22l93 -79q-5 -9 -14 -24t-38.5 -54t-61 -68.5t-78 -53.5t-91.5 -24q-58 0 -118 22.5t-115.5 45t-104.5 22.5q-37 0 -77 -21t-61 -42z M627 -27q-247 0 -381.5 137.5t-134.5 393.5q0 156 35 300.5t103.5 264.5t164 209.5t222.5 139.5t273 50q251 0 392 -142.5t141 -393.5q0 -196 -59 -371.5t-163.5 -305.5t-258.5 -206t-334 -76zM1114 920q0 292 -246 292q-104 0 -189.5 -66.5t-136 -171t-77.5 -220.5 t-27 -226q0 -144 60.5 -221.5t179.5 -77.5q103 0 188.5 66t138 169.5t81 222.5t28.5 233z" />
<glyph unicode="&#xd6;" horiz-adv-x="1499" d="M627 -27q-247 0 -381.5 137.5t-134.5 393.5q0 156 35 300.5t103.5 264.5t164 209.5t222.5 139.5t273 50q251 0 392 -142.5t141 -393.5q0 -196 -59 -371.5t-163.5 -305.5t-258.5 -206t-334 -76zM1114 920q0 292 -246 292q-104 0 -189.5 -66.5t-136 -171t-77.5 -220.5 t-27 -226q0 -144 60.5 -221.5t179.5 -77.5q103 0 188.5 66t138 169.5t81 222.5t28.5 233zM627 1700q0 82 45 139t125 57q59 0 93 -33t34 -91q0 -81 -47.5 -138t-126.5 -57q-57 0 -90 33t-33 90zM1063 1700q0 82 45 139t123 57q59 0 93 -33t34 -91q0 -82 -46.5 -138.5 t-125.5 -56.5q-57 0 -90 33t-33 90z" />
<glyph unicode="&#xd7;" horiz-adv-x="1288" d="M688 725l393 348l140 -170l-392 -350l281 -346l-195 -174l-280 348l-393 -348l-140 174l392 346l-281 348l195 172z" />
<glyph unicode="&#xd8;" horiz-adv-x="1511" d="M31 -121l198 262q-108 136 -108 363q0 156 34.5 300.5t102.5 264.5t162.5 209.5t221.5 139.5t273 50q154 0 267 -55l157 211l160 -104l-170 -226q115 -137 115 -352q0 -269 -99 -488t-285.5 -349t-426.5 -130q-145 0 -254 50l-189 -250zM465 455l545 729q-52 28 -136 28 q-97 0 -179 -56.5t-134.5 -149t-82 -206.5t-29.5 -233q0 -59 16 -112zM1100 987l-545 -727q54 -31 129 -31q123 0 222.5 90t152.5 235.5t53 313.5q0 66 -12 119z" />
<glyph unicode="&#xd9;" horiz-adv-x="1548" d="M655 1960l496 -268l-78 -164l-514 211zM625 1202l-105 -649q-10 -68 -10 -115q0 -104 49.5 -158.5t171.5 -54.5q139 0 208 82t99 273l99 622l-144 62l27 170l608 10l-29 -180l-157 -62l-94 -604q-24 -151 -70.5 -262.5t-124.5 -194t-194 -124.5t-271 -42 q-258 0 -372.5 102.5t-114.5 307.5q0 85 14 168l104 649l-145 62l27 170l606 10l-29 -180z" />
<glyph unicode="&#xda;" horiz-adv-x="1548" d="M770 1511l-78 164l502 267l109 -213zM625 1202l-105 -649q-10 -68 -10 -115q0 -104 49.5 -158.5t171.5 -54.5q139 0 208 82t99 273l99 622l-144 62l27 170l608 10l-29 -180l-157 -62l-94 -604q-24 -151 -70.5 -262.5t-124.5 -194t-194 -124.5t-271 -42 q-258 0 -372.5 102.5t-114.5 307.5q0 85 14 168l104 649l-145 62l27 170l606 10l-29 -180z" />
<glyph unicode="&#xdb;" horiz-adv-x="1505" d="M516 1653l352 280l179 15l266 -295l-115 -133l-260 204l-336 -204zM604 1202l-104 -649q-11 -75 -11 -115q0 -104 50 -158.5t172 -54.5q139 0 208 82t99 273l98 622l-143 62l26 170l609 10l-29 -180l-158 -62l-94 -604q-24 -151 -70.5 -262.5t-124 -194t-193.5 -124.5 t-271 -42q-258 0 -373 102.5t-115 307.5q0 79 15 168l104 649l-145 62l26 170l606 10l-28 -180z" />
<glyph unicode="&#xdc;" horiz-adv-x="1507" d="M586 1700q0 82 45 139t125 57q59 0 93 -33t34 -91q0 -81 -47.5 -138t-126.5 -57q-57 0 -90 33t-33 90zM1022 1700q0 82 45 139t123 57q59 0 93 -33t34 -91q0 -82 -46.5 -138.5t-125.5 -56.5q-57 0 -90 33t-33 90zM604 1202l-104 -649q-11 -75 -11 -115q0 -104 50 -158.5 t172 -54.5q139 0 208 82t99 273l98 622l-143 62l26 170l609 10l-29 -180l-158 -62l-94 -604q-24 -151 -70.5 -262.5t-124 -194t-193.5 -124.5t-271 -42q-258 0 -373 102.5t-115 307.5q0 79 15 168l104 649l-145 62l26 170l606 10l-28 -180z" />
<glyph unicode="&#xdd;" horiz-adv-x="1263" d="M711 1511l-78 164l502 267l108 -213zM842 0h-606l28 178l160 51l43 275l-219 715l-156 45l27 170l385 10l184 -674l260 449l-139 45l27 170l579 10l-29 -180l-151 -58l-469 -735l-39 -242l143 -51z" />
<glyph unicode="&#xde;" horiz-adv-x="1253" d="M598 0h-602l27 178l159 51l154 975l-139 60l26 170l606 10l-28 -180l-160 -62l-12 -65h200q193 0 300.5 -79.5t107.5 -234.5q0 -158 -78.5 -271.5t-211.5 -168.5t-306 -55h-141l-15 -99l142 -51zM537 547h127q125 0 196.5 60t71.5 167q0 69 -44.5 103t-139.5 34h-154z " />
<glyph unicode="&#xdf;" horiz-adv-x="1492" d="M86 881l31 178l211 26l8 54q32 215 184 344t377 129q212 0 328 -76.5t116 -216.5q0 -77 -30.5 -141.5t-74.5 -106.5t-87.5 -79t-74 -76.5t-30.5 -81.5q0 -35 21 -64.5t54.5 -51t74 -43t81.5 -46.5t74.5 -55.5t54.5 -76t21 -102.5q0 -119 -68.5 -215t-181.5 -148t-245 -52 q-80 0 -163.5 12t-126.5 24l-44 13l49 325h174l6 -141q39 -18 113 -18q89 0 133.5 39.5t44.5 97.5q0 33 -21 61.5t-54.5 50t-74 43t-81.5 46.5t-74.5 54t-54.5 72.5t-21 96.5q0 61 17 112.5t43.5 86.5t59.5 65.5t65.5 56t59 50.5t43.5 57t17 69q0 133 -174 133 q-93 0 -156.5 -63.5t-82.5 -177.5l-195 -1208q-34 -205 -147.5 -322t-309.5 -117q-39 0 -89 7t-80 13l-31 7l35 184h124q176 0 205 193l156 979h-209z" />
<glyph unicode="&#xe0;" horiz-adv-x="1259" d="M457 1722l532 -346l-78 -153l-555 270zM1153 20l-440 -20l71 303q-7 -14 -24.5 -42t-60 -79.5t-90.5 -94t-119.5 -75t-143.5 -32.5q-132 0 -212.5 105.5t-80.5 264.5q0 149 35 276.5t94.5 218t139.5 155t171 95.5t187 31q63 0 123 -19t89 -37l28 -19l59 55h186l-143 -893 l158 -31zM803 711l31 170q-60 24 -150 24q-141 0 -232.5 -146.5t-91.5 -369.5q0 -81 27.5 -125.5t73.5 -44.5q57 0 113.5 50.5t96 123t70.5 145t47 122.5z" />
<glyph unicode="&#xe1;" horiz-adv-x="1259" d="M1167 1518l-106 213l-510 -353l94 -149zM1153 20l-440 -20l71 303q-7 -14 -24.5 -42t-60 -79.5t-90.5 -94t-119.5 -75t-143.5 -32.5q-132 0 -212.5 105.5t-80.5 264.5q0 149 35 276.5t94.5 218t139.5 155t171 95.5t187 31q63 0 123 -19t89 -37l28 -19l59 55h186 l-143 -893l158 -31zM803 711l31 170q-60 24 -150 24q-141 0 -232.5 -146.5t-91.5 -369.5q0 -81 27.5 -125.5t73.5 -44.5q57 0 113.5 50.5t96 123t70.5 145t47 122.5z" />
<glyph unicode="&#xe2;" horiz-adv-x="1239" d="M299 1401l352 280l178 15l267 -295l-115 -133l-260 205l-336 -205zM1133 20l-435 -20l72 303q-7 -14 -24.5 -42t-60 -79.5t-90.5 -94t-119.5 -75t-143.5 -32.5q-132 0 -210.5 105t-78.5 265q0 185 52.5 336t140.5 245t198.5 144.5t231.5 50.5q63 0 122.5 -19t87.5 -37 l29 -19l60 55h180l-144 -893l158 -31zM788 711l31 170q-59 24 -149 24q-141 0 -232.5 -146.5t-91.5 -369.5q0 -81 27 -125.5t73 -44.5q57 0 113.5 50.5t96 123t70.5 145t46 122.5z" />
<glyph unicode="&#xe3;" horiz-adv-x="1239" d="M377 1305l-78 84q5 9 14.5 23.5t40 52.5t62 67t79 52.5t93.5 23.5q58 0 115 -23t110 -46t102 -23q35 0 72.5 21.5t57.5 42.5l20 22l92 -80q-5 -9 -14 -24t-38.5 -54t-61 -68.5t-78 -53.5t-91.5 -24q-47 0 -94.5 14t-81.5 31.5t-78 31.5t-83 14q-37 0 -77 -21t-62 -42z M1133 20l-435 -20l72 303q-7 -14 -24.5 -42t-60 -79.5t-90.5 -94t-119.5 -75t-143.5 -32.5q-132 0 -210.5 105t-78.5 265q0 185 52.5 336t140.5 245t198.5 144.5t231.5 50.5q63 0 122.5 -19t87.5 -37l29 -19l60 55h180l-144 -893l158 -31zM788 711l31 170q-59 24 -149 24 q-141 0 -232.5 -146.5t-91.5 -369.5q0 -81 27 -125.5t73 -44.5q57 0 113.5 50.5t96 123t70.5 145t46 122.5z" />
<glyph unicode="&#xe4;" horiz-adv-x="1259" d="M1153 20l-440 -20l71 303q-7 -14 -24.5 -42t-60 -79.5t-90.5 -94t-119.5 -75t-143.5 -32.5q-132 0 -212.5 105.5t-80.5 264.5q0 149 35 276.5t94.5 218t139.5 155t171 95.5t187 31q63 0 123 -19t89 -37l28 -19l59 55h186l-143 -893l158 -31zM803 711l31 170 q-60 24 -150 24q-141 0 -232.5 -146.5t-91.5 -369.5q0 -81 27.5 -125.5t73.5 -44.5q57 0 113.5 50.5t96 123t70.5 145t47 122.5zM379 1393q0 82 45 139t125 57q59 0 93 -33.5t34 -91.5q0 -81 -47.5 -137.5t-126.5 -56.5q-57 0 -90 33t-33 90zM815 1393q0 82 45 139t123 57 q59 0 93 -33.5t34 -91.5q0 -81 -46.5 -137.5t-125.5 -56.5q-57 0 -90 33t-33 90z" />
<glyph unicode="&#xe5;" horiz-adv-x="1259" d="M580 1436q0 131 86.5 225t218.5 94q99 0 165 -56.5t66 -154.5q0 -129 -88.5 -225t-220.5 -96q-98 0 -162.5 59t-64.5 154zM864 1608q-51 0 -82.5 -45t-31.5 -103q0 -88 81 -88q51 0 83 45t32 103q0 88 -82 88zM1153 20l-440 -20l71 303q-7 -14 -24.5 -42t-60 -79.5 t-90.5 -94t-119.5 -75t-143.5 -32.5q-132 0 -212.5 105.5t-80.5 264.5q0 149 35 276.5t94.5 218t139.5 155t171 95.5t187 31q63 0 123 -19t89 -37l28 -19l59 55h186l-143 -893l158 -31zM803 711l31 170q-60 24 -150 24q-141 0 -232.5 -146.5t-91.5 -369.5q0 -81 27.5 -125.5 t73.5 -44.5q57 0 113.5 50.5t96 123t70.5 145t47 122.5z" />
<glyph unicode="&#xe6;" horiz-adv-x="1660" d="M178 748l35 296q26 9 71 22.5t161.5 36.5t207.5 23q240 0 281 -135q154 135 342 135q172 0 273.5 -80t101.5 -212q0 -179 -183 -283.5t-518 -108.5q0 -119 42.5 -173t148.5 -54q34 0 73 6t76 16.5t65 19t57.5 19.5t35.5 13l86 -152q-29 -20 -71 -42.5t-105.5 -50.5 t-143.5 -46t-157 -18q-131 0 -220.5 51t-129.5 147q-73 -87 -177.5 -141.5t-220.5 -54.5q-128 0 -204 71t-76 193q0 194 139 292.5t379 98.5h145l19 115q4 24 4 41q0 112 -131 112q-46 0 -92.5 -6.5t-69.5 -12.5l-23 -7l-51 -131h-170zM1354 797q0 98 -117 98 q-90 0 -161 -76t-103 -196q189 4 285 51.5t96 122.5zM666 463h-115q-229 0 -229 -156q0 -42 31.5 -72t74.5 -30q87 0 157 82.5t81 175.5z" />
<glyph unicode="&#xe7;" horiz-adv-x="993" d="M240 -418l77 113q66 -39 142 -39q48 0 80 22.5t32 63.5q0 39 -41 59.5t-112 20.5l24 158q-178 5 -281.5 106t-103.5 289q0 339 176 545t459 206q32 0 63.5 -3.5t60.5 -10t52 -12.5t49 -16t38.5 -15.5t33 -14.5t21.5 -10l-56 -323h-180l-6 151q-41 19 -109 19 q-74 0 -133.5 -43.5t-94.5 -114.5t-53 -154t-18 -169q0 -93 45 -144t123 -51q24 0 50 3.5t52 10t47 13t45.5 16.5t37.5 15.5t33.5 15t23.5 10.5l90 -152q-150 -101 -289 -143l-16 -94q67 -14 106.5 -54.5t39.5 -101.5q0 -103 -81 -168t-192 -65q-62 0 -120.5 15.5 t-86.5 30.5z" />
<glyph unicode="&#xe8;" horiz-adv-x="1069" d="M477 1722l533 -346l-78 -153l-555 270zM856 289l86 -152q-41 -28 -102.5 -60t-170.5 -64.5t-208 -32.5q-187 0 -297.5 100t-110.5 278q0 166 49.5 310.5t133 244t196.5 156.5t238 57q181 0 285 -79t104 -213q0 -177 -187.5 -286t-519.5 -112q0 -126 47.5 -173.5 t145.5 -47.5q42 0 95 10.5t87.5 21t79.5 26t49 16.5zM762 797q0 98 -117 98q-91 0 -164 -77.5t-104 -201.5q186 4 285.5 55.5t99.5 125.5z" />
<glyph unicode="&#xe9;" horiz-adv-x="1069" d="M1116 1518l-106 213l-510 -353l94 -149zM856 289l86 -152q-41 -28 -102.5 -60t-170.5 -64.5t-208 -32.5q-187 0 -297.5 100t-110.5 278q0 166 49.5 310.5t133 244t196.5 156.5t238 57q181 0 285 -79t104 -213q0 -177 -187.5 -286t-519.5 -112q0 -126 47.5 -173.5 t145.5 -47.5q42 0 95 10.5t87.5 21t79.5 26t49 16.5zM762 797q0 98 -117 98q-91 0 -164 -77.5t-104 -201.5q186 4 285.5 55.5t99.5 125.5z" />
<glyph unicode="&#xea;" horiz-adv-x="1058" d="M287 1401l352 280l178 15l266 -295l-114 -133l-260 205l-336 -205zM856 289l86 -152q-41 -28 -102.5 -60t-170.5 -64.5t-208 -32.5q-187 0 -297.5 100t-110.5 278q0 166 49.5 310.5t133 244t196.5 156.5t238 57q181 0 285 -79t104 -213q0 -177 -187.5 -286t-519.5 -112 q0 -126 47.5 -173.5t145.5 -47.5q42 0 95 10.5t87.5 21t79.5 26t49 16.5zM762 797q0 98 -117 98q-91 0 -164 -77.5t-104 -201.5q186 4 285.5 55.5t99.5 125.5z" />
<glyph unicode="&#xeb;" horiz-adv-x="1069" d="M856 289l86 -152q-41 -28 -102.5 -60t-170.5 -64.5t-208 -32.5q-187 0 -297.5 100t-110.5 278q0 166 49.5 310.5t133 244t196.5 156.5t238 57q181 0 285 -79t104 -213q0 -177 -187.5 -286t-519.5 -112q0 -126 47.5 -173.5t145.5 -47.5q42 0 95 10.5t87.5 21t79.5 26 t49 16.5zM762 797q0 98 -117 98q-91 0 -164 -77.5t-104 -201.5q186 4 285.5 55.5t99.5 125.5zM360 1393q0 82 45 139t125 57q59 0 93 -33.5t34 -91.5q0 -81 -47.5 -137.5t-126.5 -56.5q-57 0 -90 33t-33 90zM797 1393q0 82 45 139t123 57q59 0 93 -33.5t34 -91.5 q0 -81 -46.5 -137.5t-125.5 -56.5q-57 0 -90 33t-33 90z" />
<glyph unicode="&#xec;" horiz-adv-x="675" d="M209 1722l532 -346l-77 -153l-555 270zM430 215l156 -31l-27 -164l-450 -20l139 885l-158 41l29 164l452 16z" />
<glyph unicode="&#xed;" horiz-adv-x="675" d="M879 1518l-107 213l-510 -353l94 -149zM430 215l156 -31l-27 -164l-450 -20l139 885l-158 41l29 164l452 16z" />
<glyph unicode="&#xee;" horiz-adv-x="694" d="M41 1395l336 280l178 15l252 -295l-121 -133l-240 204l-313 -204zM442 215l156 -31l-27 -164l-450 -20l139 885l-158 41l29 164l453 16z" />
<glyph unicode="&#xef;" horiz-adv-x="675" d="M123 1393q0 82 45 139t125 57q59 0 93 -33.5t34 -91.5q0 -81 -47.5 -137.5t-126.5 -56.5q-57 0 -90 33t-33 90zM520 1393q0 82 45 139t123 57q59 0 93 -33.5t34 -91.5q0 -81 -46.5 -137.5t-125.5 -56.5q-57 0 -90 33t-33 90zM430 215l156 -31l-27 -164l-450 -20l139 885 l-158 41l29 164l452 16z" />
<glyph unicode="&#xf0;" horiz-adv-x="1155" d="M1094 1456l-183 -98q181 -213 181 -561q0 -250 -69 -433.5t-208.5 -286t-337.5 -102.5t-311 102.5t-113 287.5q0 298 164.5 483.5t423.5 185.5q45 0 89 -13t66 -25l21 -13q-22 151 -123 258l-250 -135l-88 160l185 100q-68 40 -158 72l109 178q156 -42 278 -125l234 125z M522 209q66 0 116.5 38.5t79 101.5t42.5 134t14 146q0 170 -162 170q-62 0 -111 -37t-77 -98t-42.5 -132t-14.5 -147q0 -176 155 -176z" />
<glyph unicode="&#xf1;" d="M420 1290l-78 94q5 9 14 24.5t38.5 54.5t60.5 68.5t77.5 54t92.5 24.5q58 0 112 -23.5t104 -47t99 -23.5q35 0 72.5 21.5t57.5 42.5l20 22l92 -95q-5 -9 -14 -24t-38.5 -53.5t-61 -68t-78 -53.5t-91.5 -24q-58 0 -113 22.5t-106 45t-100 22.5q-37 0 -77 -21t-61 -42z M571 1106l-69 -328q9 18 25 45t60 85t92.5 102.5t122 80t148.5 35.5q116 0 171 -66.5t55 -182.5q0 -44 -11 -119l-88 -543l154 -31l-27 -164l-452 -20l112 700q8 54 8 74q0 100 -77 100q-51 0 -103 -44.5t-91.5 -109.5t-72 -139.5t-51 -135.5t-22.5 -95l-60 -350h-289 l142 885l-158 41l27 164z" />
<glyph unicode="&#xf2;" horiz-adv-x="1185" d="M477 1722l533 -346l-78 -153l-555 270zM500 -20q-208 0 -323.5 112.5t-115.5 317.5q0 325 170 520.5t449 195.5q210 0 326 -115.5t116 -316.5q0 -324 -171 -519t-451 -195zM815 707q-3 86 -47.5 130t-122.5 44q-125 0 -200.5 -131.5t-75.5 -323.5q0 -201 166 -201 q79 0 136.5 46t87 121t43 153.5t13.5 161.5z" />
<glyph unicode="&#xf3;" horiz-adv-x="1185" d="M1106 1518l-107 213l-510 -353l95 -149zM500 -20q-208 0 -323.5 112.5t-115.5 317.5q0 325 170 520.5t449 195.5q210 0 326 -115.5t116 -316.5q0 -324 -171 -519t-451 -195zM815 707q-3 86 -47.5 130t-122.5 44q-125 0 -200.5 -131.5t-75.5 -323.5q0 -201 166 -201 q79 0 136.5 46t87 121t43 153.5t13.5 161.5z" />
<glyph unicode="&#xf4;" horiz-adv-x="1175" d="M309 1378l353 281l178 14l266 -295l-115 -133l-260 205l-336 -205zM475 -20q-200 0 -309 103.5t-109 295.5q0 337 177 542t462 205q202 0 312 -106.5t110 -294.5q0 -336 -178.5 -540.5t-464.5 -204.5zM815 707q0 184 -162 184q-86 0 -154 -69t-103.5 -180.5t-35.5 -242.5 q0 -184 158 -184q87 0 155.5 65.5t105 177t36.5 249.5z" />
<glyph unicode="&#xf5;" horiz-adv-x="1175" d="M369 1307l-78 84q5 9 14.5 23.5t40 52.5t62 67t79 52.5t93.5 23.5q58 0 115 -23t110 -46t102 -23q35 0 72.5 21.5t57.5 42.5l20 22l92 -80q-5 -9 -14 -24t-38.5 -54t-61 -68.5t-78 -53.5t-91.5 -24q-58 0 -118 23t-115.5 45.5t-104.5 22.5q-37 0 -77 -21t-61 -42z M475 -20q-200 0 -309 103.5t-109 295.5q0 337 177 542t462 205q202 0 312 -106.5t110 -294.5q0 -336 -178.5 -540.5t-464.5 -204.5zM815 707q0 184 -162 184q-86 0 -154 -69t-103.5 -180.5t-35.5 -242.5q0 -184 158 -184q87 0 155.5 65.5t105 177t36.5 249.5z" />
<glyph unicode="&#xf6;" horiz-adv-x="1185" d="M500 -20q-208 0 -323.5 112.5t-115.5 317.5q0 325 170 520.5t449 195.5q210 0 326 -115.5t116 -316.5q0 -324 -171 -519t-451 -195zM815 707q-3 86 -47.5 130t-122.5 44q-125 0 -200.5 -131.5t-75.5 -323.5q0 -201 166 -201q79 0 136.5 46t87 121t43 153.5t13.5 161.5z M360 1393q0 82 45 139t125 57q59 0 93 -33.5t34 -91.5q0 -81 -47.5 -137.5t-126.5 -56.5q-57 0 -90 33t-33 90zM797 1393q0 82 45 139t123 57q59 0 93 -33.5t34 -91.5q0 -81 -46.5 -137.5t-125.5 -56.5q-57 0 -90 33t-33 90z" />
<glyph unicode="&#xf7;" horiz-adv-x="1273" d="M535 944q0 99 51 164.5t149 65.5q70 0 112 -40t42 -108q0 -98 -53.5 -164.5t-151.5 -66.5q-69 0 -109 40t-40 109zM1182 662l-37 -236h-1043l37 236h1043zM395 63q0 98 52.5 164t150.5 66q70 0 112 -40t42 -108q0 -98 -54.5 -164.5t-152.5 -66.5q-69 0 -109.5 40 t-40.5 109z" />
<glyph unicode="&#xf8;" horiz-adv-x="1200" d="M-20 -154l184 250q-96 104 -96 283q0 337 176.5 542t460.5 205q103 0 194 -32l164 223l137 -86l-166 -223q99 -110 99 -277q0 -339 -179 -545t-467 -206q-96 0 -188 30l-184 -250zM379 389l360 488q-40 14 -73 14q-85 0 -152 -65t-102 -170t-35 -228q0 -27 2 -39z M821 717l-362 -490q30 -12 71 -12q126 0 209.5 127t83.5 320q0 9 -1 27.5t-1 27.5z" />
<glyph unicode="&#xf9;" d="M471 1722l533 -346l-78 -153l-555 270zM741 0l70 326q-9 -18 -24.5 -44.5t-59.5 -84.5t-92 -102t-121.5 -79.5t-148.5 -35.5q-226 0 -226 247q0 43 12.5 129t57.5 355q18 109 29 174l-158 41l26 164l455 16q-114 -707 -118 -752q-1 -12 -1 -22q0 -103 78 -103 q51 0 101.5 41t86 97.5t68 128t48.5 119t26 85.5l68 406h288l-141 -893l156 -31l-27 -162z" />
<glyph unicode="&#xfa;" d="M1137 1518l-107 213l-510 -353l94 -149zM741 0l70 326q-9 -18 -24.5 -44.5t-59.5 -84.5t-92 -102t-121.5 -79.5t-148.5 -35.5q-226 0 -226 247q0 43 12.5 129t57.5 355q18 109 29 174l-158 41l26 164l455 16q-114 -707 -118 -752q-1 -12 -1 -22q0 -103 78 -103 q51 0 101.5 41t86 97.5t68 128t48.5 119t26 85.5l68 406h288l-141 -893l156 -31l-27 -162z" />
<glyph unicode="&#xfb;" d="M307 1401l352 280l179 15l266 -295l-115 -133l-260 205l-336 -205zM741 0l70 326q-9 -18 -24.5 -44.5t-59.5 -84.5t-92 -102t-121.5 -79.5t-148.5 -35.5q-226 0 -226 247q0 62 11 121l88 537l-158 41l26 164l455 16l-112 -703q-7 -47 -7 -71q0 -103 78 -103 q51 0 101.5 41t86 97.5t68 128t48.5 119t26 85.5l68 406h288l-141 -893l156 -31l-27 -162z" />
<glyph unicode="&#xfc;" d="M365 1393q0 82 45 139t125 57q59 0 93 -33.5t34 -91.5q0 -81 -48 -137.5t-127 -56.5q-57 0 -89.5 33t-32.5 90zM801 1393q0 82 45 139t123 57q59 0 93 -33.5t34 -91.5q0 -81 -46.5 -137.5t-125.5 -56.5q-57 0 -90 33t-33 90zM741 0l70 326q-9 -18 -24.5 -44.5 t-59.5 -84.5t-92 -102t-121.5 -79.5t-148.5 -35.5q-226 0 -226 247q0 43 12.5 129t57.5 355q18 109 29 174l-158 41l26 164l455 16q-114 -707 -118 -752q-1 -12 -1 -22q0 -103 78 -103q51 0 101.5 41t86 97.5t68 128t48.5 119t26 85.5l68 406h288l-141 -893l156 -31 l-27 -162z" />
<glyph unicode="&#xfd;" horiz-adv-x="1153" d="M1098 1518l-107 213l-510 -353l94 -149zM18 926l25 164l393 16l139 -668l13 -127l241 586l-127 29l25 164l514 16l-29 -174l-100 -33l-391 -866q-47 -104 -82 -174t-75 -133.5t-76 -101t-81.5 -65.5t-95.5 -39.5t-114 -11.5q-55 0 -120 10t-103 20l-37 11l57 205 q79 -10 151 -10q102 0 152 40.5t104 158.5l-241 948z" />
<glyph unicode="&#xfe;" horiz-adv-x="1255" d="M571 1106l-88 -311q10 20 24 45.5t55 81t86 96.5t115 74.5t144 33.5q140 0 216.5 -108t76.5 -270q0 -145 -35.5 -270t-97.5 -214.5t-144 -154t-175.5 -96t-192.5 -31.5q-77 0 -158 26l-43 -268l183 -47l-27 -164h-633l27 164l159 47l259 1626l-156 41l27 164l456 16z M465 395l-31 -168q65 -22 137 -22q84 0 159 64.5t121 179.5t46 251q0 76 -29.5 128.5t-85.5 52.5q-41 0 -81 -27t-70.5 -69.5t-58 -94.5t-46.5 -104t-33.5 -94.5t-20.5 -69.5z" />
<glyph unicode="&#xff;" horiz-adv-x="1153" d="M315 1393q0 82 45 139t125 57q59 0 93 -33.5t34 -91.5q0 -81 -47.5 -137.5t-126.5 -56.5q-57 0 -90 33t-33 90zM752 1393q0 82 45 139t123 57q59 0 93 -33.5t34 -91.5q0 -81 -47 -137.5t-126 -56.5q-57 0 -89.5 33t-32.5 90zM18 926l25 164l393 16l139 -668l13 -127 l241 586l-127 29l25 164l514 16l-29 -174l-100 -33l-391 -866q-47 -104 -82 -174t-75 -133.5t-76 -101t-81.5 -65.5t-95.5 -39.5t-114 -11.5q-55 0 -120 10t-103 20l-37 11l57 205q79 -10 151 -10q102 0 152 40.5t104 158.5l-241 948z" />
<glyph unicode="&#x100;" horiz-adv-x="1456" d="M1247 1845l-37 -215h-596l37 215h596zM1386 180l-30 -180h-606l28 178l162 51l-25 150h-452l-74 -156l141 -45l-28 -178h-580l29 180l137 47l629 1203l315 14l236 -1223zM565 598h316l-76 494z" />
<glyph unicode="&#x101;" horiz-adv-x="1239" d="M1024 1530l-37 -215h-596l37 215h596zM1133 20l-435 -20l72 303q-7 -14 -24.5 -42t-60 -79.5t-90.5 -94t-119.5 -75t-143.5 -32.5q-132 0 -210.5 105t-78.5 265q0 185 52.5 336t140.5 245t198.5 144.5t231.5 50.5q63 0 122.5 -19t87.5 -37l29 -19l60 55h180l-144 -893 l158 -31zM788 711l31 170q-59 24 -149 24q-141 0 -232.5 -146.5t-91.5 -369.5q0 -81 27 -125.5t73 -44.5q57 0 113.5 50.5t96 123t70.5 145t46 122.5z" />
<glyph unicode="&#x102;" horiz-adv-x="1456" d="M643 1905l174 18q0 -19 6 -42t19.5 -48.5t41.5 -42t66 -16.5q37 0 68 13.5t49 33t30 39.5t17 34l4 13l174 12q-13 -86 -52 -155t-93 -112t-118 -66t-132 -23q-117 0 -188.5 71t-71.5 193q0 24 6 78zM1386 180l-30 -180h-606l28 178l162 51l-25 150h-452l-74 -156l141 -45 l-28 -178h-580l29 180l137 47l629 1203l315 14l236 -1223zM565 598h316l-76 494z" />
<glyph unicode="&#x103;" horiz-adv-x="1259" d="M477 1595l174 19q0 -19 6 -42t19.5 -48.5t41.5 -42.5t66 -17q37 0 68 13.5t49 33t30 39.5t17 34l4 13l174 13q-18 -113 -79 -196t-143 -122t-173 -39q-117 0 -188.5 71.5t-71.5 193.5q0 23 6 77zM1153 20l-440 -20l71 303q-7 -14 -24.5 -42t-60 -79.5t-90.5 -94 t-119.5 -75t-143.5 -32.5q-132 0 -212.5 105.5t-80.5 264.5q0 149 35 276.5t94.5 218t139.5 155t171 95.5t187 31q63 0 123 -19t89 -37l28 -19l59 55h186l-143 -893l158 -31zM803 711l31 170q-60 24 -150 24q-141 0 -232.5 -146.5t-91.5 -369.5q0 -81 27.5 -125.5 t73.5 -44.5q57 0 113.5 50.5t96 123t70.5 145t47 122.5z" />
<glyph unicode="&#x104;" horiz-adv-x="1456" d="M1386 180l-30 -180q-19 -6 -62.5 -25.5t-111 -53.5t-116 -78t-48.5 -83q0 -28 18.5 -44.5t50.5 -16.5q16 0 36.5 3.5t32.5 7.5l13 3l11 -145q-109 -49 -209 -49q-83 0 -137 45t-54 125q0 167 264 305q8 4 11 6h-305l28 178l162 51l-25 150h-452l-74 -156l141 -45 l-28 -178h-580l29 180l137 47l629 1203l315 14l236 -1223zM565 598h316l-76 494z" />
<glyph unicode="&#x105;" horiz-adv-x="1239" d="M1159 182l-26 -162q-107 -61 -158 -100q-123 -93 -123 -160q0 -28 19 -44.5t51 -16.5q16 0 36.5 3.5t33.5 7.5l12 3l10 -145q-109 -49 -209 -49q-83 0 -137 45t-54 125q0 59 29.5 114.5t77 96.5t83.5 65t73 43l-179 -8l72 303q-7 -14 -24.5 -42t-60 -79.5t-90.5 -94 t-119.5 -75t-143.5 -32.5q-132 0 -210.5 105t-78.5 265q0 185 52.5 336t140.5 245t198.5 144.5t231.5 50.5q63 0 122.5 -19t87.5 -37l29 -19l60 55h180l-144 -893zM788 711l31 170q-59 24 -149 24q-141 0 -232.5 -146.5t-91.5 -369.5q0 -81 27 -125.5t73 -44.5 q57 0 113.5 50.5t96 123t70.5 145t46 122.5z" />
<glyph unicode="&#x106;" horiz-adv-x="1320" d="M788 1511l-77 164l501 267l109 -213zM1130 983l-26 193q-111 36 -221 36q-104 0 -189.5 -56t-139 -148.5t-82 -206.5t-28.5 -234q0 -151 75.5 -240t195.5 -89q196 0 401 143l109 -172q-41 -35 -89 -68t-124.5 -75t-172 -67.5t-192.5 -25.5q-243 0 -388.5 145.5 t-145.5 391.5q0 278 102.5 496.5t286 340t416.5 121.5q108 0 219 -24t168 -48l57 -24l-62 -389h-170z" />
<glyph unicode="&#x107;" horiz-adv-x="993" d="M1094 1518l-107 213l-510 -353l94 -149zM819 309l88 -162q-242 -167 -467 -167q-179 0 -281 102.5t-102 292.5q0 339 176 545t459 206q32 0 63.5 -3.5t60.5 -10t52 -12.5t49 -16t38.5 -15.5t33 -14.5t21.5 -10l-52 -323h-180l-10 143q-41 19 -109 19q-74 0 -133.5 -41.5 t-94.5 -109.5t-53 -149t-18 -167q0 -89 45 -140t123 -51q24 0 50 3.5t52.5 10t47 12.5t46.5 16.5t38 15.5t34 15t23 11z" />
<glyph unicode="&#x108;" horiz-adv-x="1320" d="M528 1653l353 280l178 15l266 -295l-115 -133l-260 204l-336 -204zM1130 983l-26 193q-111 36 -221 36q-104 0 -189.5 -56t-139 -148.5t-82 -206.5t-28.5 -234q0 -151 75.5 -240t195.5 -89q196 0 401 143l109 -172q-41 -35 -89 -68t-124.5 -75t-172 -67.5t-192.5 -25.5 q-243 0 -388.5 145.5t-145.5 391.5q0 278 102.5 496.5t286 340t416.5 121.5q108 0 219 -24t168 -48l57 -24l-62 -389h-170z" />
<glyph unicode="&#x109;" horiz-adv-x="993" d="M309 1401l353 280l178 15l266 -295l-115 -133l-260 205l-336 -205zM817 299l90 -152q-35 -24 -74.5 -47t-101.5 -53t-133 -48.5t-137 -18.5q-186 0 -295 101.5t-109 293.5q0 339 176 545t459 206q32 0 63.5 -3.5t60.5 -10t52 -12.5t49 -16t38.5 -15.5t33 -14.5t21.5 -10 l-56 -323h-180l-6 151q-41 19 -109 19q-74 0 -133.5 -43.5t-94.5 -114.5t-53 -154t-18 -169q0 -93 45 -144t123 -51q24 0 50 3.5t52 10t47 13t45.5 16.5t37.5 15.5t33.5 15t23.5 10.5z" />
<glyph unicode="&#x10a;" horiz-adv-x="1320" d="M819 1698q0 75 49 135.5t127 60.5q123 0 123 -122q0 -89 -53.5 -143t-122.5 -54q-123 0 -123 123zM1130 983l-26 193q-111 36 -221 36q-104 0 -189.5 -56t-139 -148.5t-82 -206.5t-28.5 -234q0 -151 75.5 -240t195.5 -89q196 0 401 143l109 -172q-41 -35 -89 -68 t-124.5 -75t-172 -67.5t-192.5 -25.5q-243 0 -388.5 145.5t-145.5 391.5q0 278 102.5 496.5t286 340t416.5 121.5q108 0 219 -24t168 -48l57 -24l-62 -389h-170z" />
<glyph unicode="&#x10b;" horiz-adv-x="993" d="M594 1393q0 75 49 135.5t127 60.5q123 0 123 -123q0 -89 -53.5 -142.5t-122.5 -53.5q-123 0 -123 123zM819 309l88 -162q-242 -167 -467 -167q-179 0 -281 102.5t-102 292.5q0 339 176 545t459 206q32 0 63.5 -3.5t60.5 -10t52 -12.5t49 -16t38.5 -15.5t33 -14.5 t21.5 -10l-52 -323h-180l-10 143q-41 19 -109 19q-74 0 -133.5 -41.5t-94.5 -109.5t-53 -149t-18 -167q0 -89 45 -140t123 -51q24 0 50 3.5t52.5 10t47 12.5t46.5 16.5t38 15.5t34 15t23 11z" />
<glyph unicode="&#x10c;" horiz-adv-x="1320" d="M1327 1812l-326 -260l-178 -16l-256 274l133 123l234 -190l309 190zM1130 983l-26 193q-111 36 -221 36q-104 0 -189.5 -56t-139 -148.5t-82 -206.5t-28.5 -234q0 -151 75.5 -240t195.5 -89q196 0 401 143l109 -172q-41 -35 -89 -68t-124.5 -75t-172 -67.5t-192.5 -25.5 q-243 0 -388.5 145.5t-145.5 391.5q0 278 102.5 496.5t286 340t416.5 121.5q108 0 219 -24t168 -48l57 -24l-62 -389h-170z" />
<glyph unicode="&#x10d;" horiz-adv-x="993" d="M1167 1569l-360 -316l-170 -14l-283 332l127 117l254 -242l355 244zM819 309l88 -162q-242 -167 -467 -167q-179 0 -281 102.5t-102 292.5q0 339 176 545t459 206q32 0 63.5 -3.5t60.5 -10t52 -12.5t49 -16t38.5 -15.5t33 -14.5t21.5 -10l-52 -323h-180l-10 143 q-41 19 -109 19q-74 0 -133.5 -41.5t-94.5 -109.5t-53 -149t-18 -167q0 -89 45 -140t123 -51q24 0 50 3.5t52.5 10t47 12.5t46.5 16.5t38 15.5t34 15t23 11z" />
<glyph unicode="&#x10e;" horiz-adv-x="1456" d="M1257 1812l-325 -260l-178 -16l-256 274l133 123l233 -190l310 190zM688 1444h191q244 0 385 -132.5t141 -379.5q0 -222 -59.5 -398.5t-167.5 -293t-259.5 -178.5t-336.5 -62h-578l29 178l160 49l153 977l-141 60l26 170zM496 240h133q111 0 199.5 56.5t143 152t83 216 t28.5 255.5q0 124 -62.5 203t-182.5 79h-189z" />
<glyph unicode="&#x10f;" horiz-adv-x="1507" d="M1438 1044l-142 58q56 113 94.5 247t49.5 238l264 10q-19 -116 -97 -272t-169 -281zM1143 10l-428 -10l76 303q-7 -15 -24.5 -42.5t-60 -79.5t-90.5 -94t-119.5 -74.5t-144.5 -32.5q-133 0 -211 104.5t-78 265.5q0 185 53 335.5t141 245t199 145t232 50.5q43 0 87.5 -10 t67.5 -20l23 -9l47 279l-157 41l24 164l455 16l-221 -1374l155 -31zM805 711l29 170q-58 24 -144 24q-76 0 -139 -43.5t-102.5 -116t-60.5 -163.5t-21 -189q0 -82 26.5 -128t73.5 -46q57 0 113 50.5t95 123t69.5 145t45.5 122.5z" />
<glyph unicode="&#x110;" horiz-adv-x="1474" d="M686 1444h197q245 0 387.5 -132.5t142.5 -379.5q0 -221 -60 -398t-169 -293.5t-260.5 -178.5t-335.5 -62h-584l29 178l155 51l66 406h-150l37 225h148l55 344l-139 60l26 170zM494 240h139q111 0 200.5 56.5t145 152t84.5 216.5t29 255q0 282 -248 282h-197l-55 -342h242 l-31 -225h-246z" />
<glyph unicode="&#x111;" horiz-adv-x="1249" d="M907 1329l6 37l-157 41l24 164l455 16l-41 -258h168l-29 -164h-166l-153 -952l155 -31l-26 -172l-428 -10l76 303q-7 -15 -24.5 -42.5t-60 -79.5t-90.5 -94t-119.5 -74.5t-144.5 -32.5q-133 0 -211 104.5t-78 265.5q0 185 53 335.5t141 245t199 145t232 50.5 q43 0 87.5 -10t67.5 -20l23 -9l13 78h-203l29 164h202zM805 711l29 170q-58 24 -144 24q-76 0 -139 -43.5t-102.5 -116t-60.5 -163.5t-21 -189q0 -82 26.5 -128t73.5 -46q57 0 113 50.5t95 123t69.5 145t45.5 122.5z" />
<glyph unicode="&#x112;" horiz-adv-x="1247" d="M1149 1845l-37 -215h-596l37 215h596zM604 860h404l-35 -225h-406l-61 -395h358l74 172h184l-67 -412h-1041l29 178l160 49l153 977l-141 60l27 170l456 10h559l-63 -395h-164l-26 153h-345z" />
<glyph unicode="&#x113;" horiz-adv-x="1058" d="M983 1530l-37 -215h-596l37 215h596zM856 289l86 -152q-41 -28 -102.5 -60t-170.5 -64.5t-208 -32.5q-187 0 -297.5 100t-110.5 278q0 166 49.5 310.5t133 244t196.5 156.5t238 57q181 0 285 -79t104 -213q0 -177 -187.5 -286t-519.5 -112q0 -126 47.5 -173.5 t145.5 -47.5q42 0 95 10.5t87.5 21t79.5 26t49 16.5zM762 797q0 98 -117 98q-91 0 -164 -77.5t-104 -201.5q186 4 285.5 55.5t99.5 125.5z" />
<glyph unicode="&#x114;" horiz-adv-x="1247" d="M580 1905l174 18q0 -19 6 -42t19.5 -48.5t41.5 -42t66 -16.5q37 0 68 13.5t49 33t30 39.5t16 34l5 13l174 12q-13 -86 -52 -155t-93 -112t-118 -66t-132 -23q-117 0 -189 71t-72 193q0 15 7 78zM608 860h404l-35 -225h-406l-61 -389h358l74 166h184l-67 -412h-1045 l29 178l160 49l153 977l-141 60l27 170l460 10h560l-64 -395h-164l-26 149h-344z" />
<glyph unicode="&#x115;" horiz-adv-x="1069" d="M455 1595l174 19q0 -19 6 -42t19.5 -48.5t41.5 -42.5t66 -17q37 0 68 13.5t49 33t30 39.5t17 34l4 13l174 13q-18 -113 -79 -196t-143 -122t-173 -39q-117 0 -188.5 71.5t-71.5 193.5q0 23 6 77zM856 289l86 -152q-41 -28 -102.5 -60t-170.5 -64.5t-208 -32.5 q-187 0 -297.5 100t-110.5 278q0 166 49.5 310.5t133 244t196.5 156.5t238 57q181 0 285 -79t104 -213q0 -177 -187.5 -286t-519.5 -112q0 -126 47.5 -173.5t145.5 -47.5q42 0 95 10.5t87.5 21t79.5 26t49 16.5zM762 797q0 98 -117 98q-91 0 -164 -77.5t-104 -201.5 q186 4 285.5 55.5t99.5 125.5z" />
<glyph unicode="&#x116;" horiz-adv-x="1251" d="M717 1698q0 75 49 135.5t127 60.5q123 0 123 -122q0 -89 -53.5 -143t-122.5 -54q-123 0 -123 123zM608 860h404l-35 -225h-406l-61 -389h358l74 166h184l-67 -412h-1045l29 178l160 49l153 977l-141 60l27 170l460 10h560l-64 -395h-164l-26 149h-344z" />
<glyph unicode="&#x117;" horiz-adv-x="1069" d="M625 1393q0 75 49 135.5t127 60.5q123 0 123 -123q0 -89 -53.5 -142.5t-122.5 -53.5q-123 0 -123 123zM856 289l86 -152q-41 -28 -102.5 -60t-170.5 -64.5t-208 -32.5q-187 0 -297.5 100t-110.5 278q0 166 49.5 310.5t133 244t196.5 156.5t238 57q181 0 285 -79t104 -213 q0 -177 -187.5 -286t-519.5 -112q0 -126 47.5 -173.5t145.5 -47.5q42 0 95 10.5t87.5 21t79.5 26t49 16.5zM762 797q0 98 -117 98q-91 0 -164 -77.5t-104 -201.5q186 4 285.5 55.5t99.5 125.5z" />
<glyph unicode="&#x118;" horiz-adv-x="1247" d="M604 860h404l-35 -225h-406l-61 -395h358l74 172h184l-67 -412q-5 0 -64 -37.5t-121.5 -97.5t-62.5 -105q0 -28 19 -44.5t51 -16.5q16 0 36 3.5t33 7.5l12 3l11 -145q-109 -49 -209 -49q-83 0 -137 45t-54 125q0 48 21.5 94t50 78.5t68 63.5t64.5 46t52 29h-811l29 178 l160 49l153 977l-141 60l27 170l456 10h559l-63 -395h-164l-26 153h-345z" />
<glyph unicode="&#x119;" horiz-adv-x="1058" d="M713 -287l10 -145q-109 -49 -209 -49q-83 0 -136.5 45t-53.5 125q0 85 55.5 157t146.5 138q-40 -4 -65 -4q-187 0 -297.5 100t-110.5 278q0 166 49.5 310.5t133 244t196.5 156.5t238 57q181 0 285 -79t104 -213q0 -177 -187.5 -286t-519.5 -112q0 -126 47.5 -173.5 t145.5 -47.5q42 0 95 10.5t87.5 21t79.5 26t49 16.5l86 -152l-22 -14q-43 -30 -92 -67t-115.5 -93.5t-109 -111t-42.5 -91.5q0 -28 19 -44.5t51 -16.5q16 0 36.5 3.5t32.5 7.5zM377 616q186 4 285.5 55.5t99.5 125.5q0 98 -117 98q-91 0 -164 -77.5t-104 -201.5z" />
<glyph unicode="&#x11a;" horiz-adv-x="1251" d="M1223 1812l-326 -260l-178 -16l-256 274l133 123l233 -190l310 190zM608 860h404l-35 -225h-406l-61 -389h358l74 166h184l-67 -412h-1045l29 178l160 49l153 977l-141 60l27 170l460 10h560l-64 -395h-164l-26 149h-344z" />
<glyph unicode="&#x11b;" horiz-adv-x="1069" d="M1174 1569l-361 -316l-170 -14l-283 332l127 117l254 -242l355 244zM856 289l86 -152q-41 -28 -102.5 -60t-170.5 -64.5t-208 -32.5q-187 0 -297.5 100t-110.5 278q0 166 49.5 310.5t133 244t196.5 156.5t238 57q181 0 285 -79t104 -213q0 -177 -187.5 -286t-519.5 -112 q0 -126 47.5 -173.5t145.5 -47.5q42 0 95 10.5t87.5 21t79.5 26t49 16.5zM762 797q0 98 -117 98q-91 0 -164 -77.5t-104 -201.5q186 4 285.5 55.5t99.5 125.5z" />
<glyph unicode="&#x11c;" horiz-adv-x="1466" d="M528 1653l353 280l178 15l266 -295l-115 -133l-260 204l-336 -204zM1284 537l-63 -416q-261 -146 -568 -146q-248 0 -394 142.5t-146 392.5q0 278 104 497t289 340t418 121q108 0 220.5 -24t171.5 -48l58 -24l-63 -364h-170l-27 170q-112 34 -229 34q-135 0 -238.5 -94 t-155 -239.5t-51.5 -311.5q0 -162 79.5 -250t215.5 -88q125 0 228 39l45 269l-154 47l27 164l575 10l-26 -174z" />
<glyph unicode="&#x11d;" horiz-adv-x="1206" d="M352 1401l353 280l178 15l266 -295l-115 -133l-260 205l-336 -205zM25 -416l67 201q22 -8 57.5 -19.5t123.5 -31t149 -19.5q128 0 198 63.5t97 190.5l71 340q-132 -220 -291 -296q-71 -33 -141 -33q-132 0 -213.5 101.5t-81.5 258.5q0 184 53 336t141 248.5t198.5 149 t228.5 52.5q63 0 123 -19t89 -37l28 -19l59 55h180l-180 -1131q-79 -491 -518 -491q-90 0 -199.5 25t-174 48.5t-64.5 26.5zM805 711l29 170q-58 24 -148 24q-93 0 -167.5 -67t-115.5 -184.5t-41 -262.5q0 -82 27 -127t74 -45q42 0 84 27t74.5 70.5t62.5 96t51.5 105 t37.5 96t24 70.5z" />
<glyph unicode="&#x11e;" horiz-adv-x="1466" d="M686 1905l174 18q0 -19 6 -42t19.5 -48.5t41.5 -42t66 -16.5q37 0 68 13.5t49 33t30 39.5t16 34l5 13l174 12q-13 -86 -52 -155t-93 -112t-118 -66t-132 -23q-117 0 -188.5 71t-71.5 193q0 24 6 78zM1284 537l-63 -416q-261 -146 -568 -146q-248 0 -394 142.5t-146 392.5 q0 278 104 497t289 340t418 121q108 0 220.5 -24t171.5 -48l58 -24l-63 -364h-170l-27 170q-112 34 -229 34q-135 0 -238.5 -94t-155 -239.5t-51.5 -311.5q0 -162 79.5 -250t215.5 -88q125 0 228 39l45 269l-154 47l27 164l575 10l-26 -174z" />
<glyph unicode="&#x11f;" horiz-adv-x="1206" d="M471 1595l174 19q0 -19 6 -42t19.5 -48.5t41.5 -42.5t66 -17q37 0 68 13.5t49 33t30 39.5t17 34l4 13l174 13q-18 -113 -79 -196t-143 -122t-173 -39q-117 0 -188.5 71.5t-71.5 193.5q0 23 6 77zM25 -416l67 201q22 -8 57.5 -19.5t123.5 -31t149 -19.5q128 0 198 63.5 t97 190.5l71 340q-132 -220 -291 -296q-71 -33 -141 -33q-132 0 -213.5 101.5t-81.5 258.5q0 184 53 336t141 248.5t198.5 149t228.5 52.5q63 0 123 -19t89 -37l28 -19l59 55h180l-180 -1131q-79 -491 -518 -491q-90 0 -199.5 25t-174 48.5t-64.5 26.5zM805 711l29 170 q-58 24 -148 24q-93 0 -167.5 -67t-115.5 -184.5t-41 -262.5q0 -82 27 -127t74 -45q42 0 84 27t74.5 70.5t62.5 96t51.5 105t37.5 96t24 70.5z" />
<glyph unicode="&#x120;" horiz-adv-x="1466" d="M809 1698q0 75 49 135.5t127 60.5q123 0 123 -122q0 -89 -53.5 -143t-122.5 -54q-123 0 -123 123zM1284 537l-63 -416q-261 -146 -568 -146q-248 0 -394 142.5t-146 392.5q0 278 104 497t289 340t418 121q108 0 220.5 -24t171.5 -48l58 -24l-63 -364h-170l-27 170 q-112 34 -229 34q-135 0 -238.5 -94t-155 -239.5t-51.5 -311.5q0 -162 79.5 -250t215.5 -88q125 0 228 39l45 269l-154 47l27 164l575 10l-26 -174z" />
<glyph unicode="&#x121;" horiz-adv-x="1206" d="M608 1393q0 75 49 135.5t127 60.5q123 0 123 -123q0 -89 -53.5 -142.5t-122.5 -53.5q-123 0 -123 123zM25 -416l67 201q22 -8 57.5 -19.5t123.5 -31t149 -19.5q128 0 198 63.5t97 190.5l71 340q-132 -220 -291 -296q-71 -33 -141 -33q-132 0 -213.5 101.5t-81.5 258.5 q0 184 53 336t141 248.5t198.5 149t228.5 52.5q63 0 123 -19t89 -37l28 -19l59 55h180l-180 -1131q-79 -491 -518 -491q-90 0 -199.5 25t-174 48.5t-64.5 26.5zM805 711l29 170q-58 24 -148 24q-93 0 -167.5 -67t-115.5 -184.5t-41 -262.5q0 -82 27 -127t74 -45q42 0 84 27 t74.5 70.5t62.5 96t51.5 105t37.5 96t24 70.5z" />
<glyph unicode="&#x122;" horiz-adv-x="1466" d="M1284 537l-63 -416q-261 -146 -568 -146q-248 0 -394 142.5t-146 392.5q0 278 104 497t289 340t418 121q108 0 220.5 -24t171.5 -48l58 -24l-63 -364h-170l-27 170q-112 34 -229 34q-135 0 -238.5 -94t-155 -239.5t-51.5 -311.5q0 -162 79.5 -250t215.5 -88q125 0 228 39 l45 269l-154 47l27 164l575 10l-26 -174zM537 -674l-103 109q5 5 22.5 21t23.5 21.5t20 20t20 22t15.5 21t13 23.5t7 23t3.5 26q0 17 -12 53.5t-12 67.5q0 73 48 118.5t113 45.5q60 0 91.5 -35.5t31.5 -98.5q0 -185 -282 -438z" />
<glyph unicode="&#x123;" horiz-adv-x="1206" d="M709 1194l-103 109q5 5 22.5 21t23.5 21.5t20 20t20 22t15.5 21t13 23.5t7 23t3.5 26q0 17 -12 53.5t-12 67.5q0 73 48 118t113 45q60 0 91.5 -35t31.5 -98q0 -185 -282 -438zM25 -416l67 201q22 -8 57.5 -19.5t123.5 -31t149 -19.5q128 0 198 63.5t97 190.5l71 340 q-132 -220 -291 -296q-71 -33 -141 -33q-132 0 -213.5 101.5t-81.5 258.5q0 184 53 336t141 248.5t198.5 149t228.5 52.5q63 0 123 -19t89 -37l28 -19l59 55h180l-180 -1131q-79 -491 -518 -491q-90 0 -199.5 25t-174 48.5t-64.5 26.5zM805 711l29 170q-58 24 -148 24 q-93 0 -167.5 -67t-115.5 -184.5t-41 -262.5q0 -82 27 -127t74 -45q42 0 84 27t74.5 70.5t62.5 96t51.5 105t37.5 96t24 70.5z" />
<glyph unicode="&#x124;" horiz-adv-x="1591" d="M553 1653l352 280l178 15l267 -295l-115 -133l-260 204l-336 -204zM1421 0h-606l29 178l160 49l63 398h-522l-64 -398l144 -49l-29 -178h-602l29 178l157 49l156 977l-141 60l26 170l604 10l-28 -180l-160 -62l-55 -338h522l55 340l-145 60l26 170l609 10l-29 -180 l-160 -62l-155 -975l145 -49z" />
<glyph unicode="&#x125;" horiz-adv-x="1294" d="M90 1755l352 281l179 14l266 -295l-115 -133l-260 205l-336 -205zM637 1587l-143 -809q5 13 22.5 44.5t59 86t90 101t121 81.5t147.5 35q223 0 223 -247q0 -49 -10 -121l-86 -543l153 -31l-26 -164l-453 -20l115 700q6 40 6 74q0 100 -78 100q-51 0 -100.5 -40.5 t-86 -100t-67 -131.5t-48 -129.5t-25.5 -99.5l-68 -373h-289l219 1366l-157 41l26 164z" />
<glyph unicode="&#x126;" horiz-adv-x="1613" d="M338 1155l8 49l-141 60l26 170l605 10l-29 -180l-160 -62l-8 -47h522l8 49l-145 60l27 170l608 10l-29 -180l-160 -62l-8 -47h154l-29 -184h-153l-119 -744l145 -49l-28 -178h-607l29 178l160 49l63 398h-522l-63 -398l143 -49l-29 -178h-602l29 178l157 49l119 744h-151 l28 184h152zM1130 971h-522l-16 -107h522z" />
<glyph unicode="&#x127;" horiz-adv-x="1294" d="M590 1323h217l-25 -164h-221l-67 -381q5 13 22.5 44.5t59 86t90 101t121 81.5t147.5 35q223 0 223 -247q0 -49 -10 -121l-86 -543l153 -31l-26 -164l-453 -20l115 700q6 40 6 74q0 100 -78 100q-51 0 -100.5 -40.5t-86 -100t-67 -131.5t-48 -129.5t-25.5 -99.5l-68 -373 h-289l187 1159h-162l26 164h160l8 43l-157 41l26 164l455 16z" />
<glyph unicode="&#x128;" horiz-adv-x="776" d="M215 1597l-78 84q5 9 14.5 24t40 52.5t62 66.5t79 53t93.5 24q58 0 115.5 -23.5t110.5 -46.5t102 -23q35 0 72 21.5t57 42.5l20 22l92 -79q-5 -9 -14 -24t-38.5 -54t-60.5 -68.5t-77.5 -53.5t-91.5 -24q-58 0 -118 22.5t-115.5 45t-104.5 22.5q-37 0 -77 -21t-62 -42z M604 0h-610l29 178l159 49l156 977l-141 60l26 170l611 10l-29 -180l-160 -62l-156 -975l144 -49z" />
<glyph unicode="&#x129;" horiz-adv-x="675" d="M66 1290l-78 94q4 9 12.5 24.5t36 54.5t57 68.5t75 54t91.5 24.5q55 0 105.5 -23.5t97 -47t92.5 -23.5q35 0 69.5 21.5t51.5 42.5l18 22l92 -95q-4 -9 -12.5 -24t-36.5 -53.5t-57.5 -68t-75 -53.5t-90.5 -24q-55 0 -106.5 22.5t-99 45t-93.5 22.5q-37 0 -74.5 -21 t-56.5 -42zM430 215l156 -31l-27 -164l-450 -20l139 885l-158 41l29 164l452 16z" />
<glyph unicode="&#x12a;" horiz-adv-x="774" d="M897 1845l-37 -215h-596l37 215h596zM604 0h-610l29 178l159 49l156 977l-141 60l26 170l611 10l-29 -180l-160 -62l-156 -975l144 -49z" />
<glyph unicode="&#x12b;" horiz-adv-x="665" d="M737 1530l-37 -215h-577l37 215h577zM430 215l156 -31l-27 -164l-450 -20l139 885l-158 41l29 164l452 16z" />
<glyph unicode="&#x12c;" horiz-adv-x="774" d="M285 1905l174 18q0 -19 6 -42t19.5 -48.5t41.5 -42t66 -16.5q37 0 68 13.5t49 33t30 39.5t17 34l4 13l174 12q-13 -86 -52 -155t-93 -112t-118 -66t-132 -23q-117 0 -188.5 71t-71.5 193q0 24 6 78zM604 0h-610l29 178l159 49l156 977l-141 60l26 170l611 10l-29 -180 l-160 -62l-156 -975l144 -49z" />
<glyph unicode="&#x12d;" horiz-adv-x="675" d="M123 1595l174 19q0 -19 6 -42t19.5 -48.5t41.5 -42.5t66 -17q37 0 68 13.5t49 33t30 39.5t17 34l4 13l174 13q-18 -113 -79 -196t-143 -122t-173 -39q-117 0 -188.5 71.5t-71.5 193.5q0 23 6 77zM430 215l156 -31l-27 -164l-450 -20l139 885l-158 41l29 164l452 16z" />
<glyph unicode="&#x12e;" horiz-adv-x="774" d="M633 178l-29 -178q-14 -5 -57 -27t-105 -57t-107.5 -78.5t-45.5 -77.5q0 -28 18.5 -44.5t50.5 -16.5q16 0 36.5 3.5t33.5 7.5l12 3l11 -145q-109 -49 -209 -49q-83 0 -137 45t-54 125q0 173 275 311h-332l29 178l159 49l156 977l-141 60l26 170l611 10l-29 -180l-160 -62 l-156 -975z" />
<glyph unicode="&#x12f;" horiz-adv-x="675" d="M293 1403q0 94 53.5 159.5t140.5 65.5q64 0 103 -37.5t39 -105.5q0 -96 -53.5 -163t-137.5 -67q-66 0 -105.5 38t-39.5 110zM430 215l156 -31l-27 -164q-113 -64 -168 -108q-112 -88 -112 -152q0 -28 18.5 -44.5t50.5 -16.5q16 0 36.5 3.5t33.5 7.5l12 3l10 -145 q-109 -49 -209 -49q-83 0 -136.5 45t-53.5 125q0 48 21 95t50.5 80.5t68.5 65t67 48.5t55 30l-194 -8l139 885l-158 41l29 164l452 16z" />
<glyph unicode="&#x130;" horiz-adv-x="774" d="M430 1698q0 75 49 135.5t127 60.5q123 0 123 -122q0 -89 -53.5 -143t-122.5 -54q-123 0 -123 123zM604 0h-610l29 178l159 49l156 977l-141 60l26 170l611 10l-29 -180l-160 -62l-156 -975l144 -49z" />
<glyph unicode="&#x131;" horiz-adv-x="675" d="M430 215l156 -31l-27 -164l-450 -20l139 885l-158 41l29 164l452 16z" />
<glyph unicode="&#x132;" horiz-adv-x="1452" d="M1524 1264l-160 -62l-160 -993q-22 -137 -58.5 -232.5t-98.5 -164.5t-153.5 -101.5t-219.5 -32.5q-28 0 -65.5 4t-60.5 8l-24 3l60 205h96q84 0 137 50.5t68 145.5l176 1110l-215 60l-201 -62l-156 -975l134 -49l-29 -178h-600l29 178l159 49l156 977l-141 60l26 170 l631 10h698z" />
<glyph unicode="&#x133;" horiz-adv-x="1300" d="M283 1403q0 94 53.5 159.5t140.5 65.5q63 0 102 -37t39 -106q0 -96 -53 -163t-137 -67q-66 0 -105.5 38t-39.5 110zM973 1403q0 94 53.5 159.5t140.5 65.5q65 0 104.5 -37t39.5 -106q0 -96 -53.5 -163t-139.5 -67q-65 0 -105 38.5t-40 109.5zM770 926l29 164l454 16 l-192 -1194q-31 -195 -148 -304.5t-305 -109.5q-39 0 -90.5 8t-83.5 16l-31 7l41 180q7 0 51.5 -3t77.5 -3q54 0 89 14t58 49.5t35.5 79.5t26.5 121l64 371q-5 -7 -24 -35.5t-34 -50.5t-43.5 -57t-55 -61.5t-64.5 -56t-76 -49t-86 -32t-98 -12.5q-224 0 -224 247 q0 42 11 121l86 533l-158 41l31 164l452 20l-114 -700q-7 -47 -7 -74q0 -100 78 -100q60 0 126.5 51.5t117.5 124.5t87.5 146.5t45.5 121.5l33 205z" />
<glyph unicode="&#x134;" horiz-adv-x="755" d="M203 1653l327 280l179 15l241 -295l-114 -133l-236 204l-311 -204zM666 1202l-160 -993q-22 -137 -59.5 -232.5t-100 -164.5t-155 -101.5t-220.5 -32.5q-28 0 -65.5 4t-60.5 8l-23 3l59 205h96q84 0 137 50.5t68 145.5l176 1110l-141 60l27 170l610 10l-29 -180z" />
<glyph unicode="&#x135;" horiz-adv-x="673" d="M10 1401l352 280l179 15l266 -295l-115 -133l-260 205l-336 -205zM127 1090l455 16l-193 -1194q-31 -195 -147.5 -304.5t-304.5 -109.5q-39 0 -90.5 8t-82.5 16l-32 7l41 180q7 0 51.5 -3t77.5 -3q54 0 89 14t58.5 49.5t36 80t25.5 120.5l147 918l-160 41z" />
<glyph unicode="&#x136;" horiz-adv-x="1372" d="M1346 0h-586l28 178l117 43l-211 404h-147l-64 -398l140 -49l-29 -178h-600l29 178l159 49l154 977l-141 60l26 170l602 10l-28 -180l-158 -60l-55 -354h133l426 584l338 10l-29 -180l-156 -62l-346 -450l291 -527l135 -47zM471 -674l-102 109q5 5 22.5 21t23.5 21.5 t20 20t20 22t15.5 21t13 23.5t7 23t3.5 26q0 17 -12.5 53.5t-12.5 67.5q0 73 48.5 118.5t113.5 45.5q60 0 91.5 -35.5t31.5 -98.5q0 -50 -21 -105.5t-49.5 -99t-71.5 -92.5t-72.5 -77.5t-68.5 -63.5z" />
<glyph unicode="&#x137;" horiz-adv-x="1114" d="M492 686h120l187 225l-84 25l26 160l478 10l-29 -170l-121 -27l-258 -309q27 -32 61 -125l97 -262l155 -49l-26 -164h-344l-121 352q-30 90 -50 120t-59 30h-61l-80 -502h-289l219 1366l-157 41l26 164l455 16zM397 -674l-102 109q5 5 22.5 21t23.5 21.5t20 20t20 22 t15.5 21t13 23.5t7 23t3.5 26q0 17 -12.5 53.5t-12.5 67.5q0 73 48.5 118.5t113.5 45.5q60 0 91.5 -35.5t31.5 -98.5q0 -50 -21 -105.5t-49.5 -99t-71.5 -92.5t-72.5 -77.5t-68.5 -63.5z" />
<glyph unicode="&#x138;" horiz-adv-x="1146" d="M516 694h133l168 209l-82 29l25 164l487 10l-26 -174l-134 -25l-241 -280l170 -416l147 -47l-22 -164h-355l-180 500h-121l-82 -500h-294l141 887l-160 39l29 166l465 18z" />
<glyph unicode="&#x139;" horiz-adv-x="1083" d="M391 1511l-78 164l502 267l109 -213zM791 246l81 225h189l-78 -471h-999l28 178l160 49l154 977l-142 60l27 170l616 10l-28 -180l-166 -60l-154 -958h312z" />
<glyph unicode="&#x13a;" horiz-adv-x="657" d="M303 1614l-78 164l502 266l109 -213zM422 215l156 -31l-27 -164l-457 -20l219 1366l-157 41l26 164l459 16z" />
<glyph unicode="&#x13b;" horiz-adv-x="1079" d="M786 240l82 231h189l-78 -471h-995l28 178l160 49l154 977l-142 60l27 170l612 10l-28 -180l-166 -60l-154 -964h311zM319 -674l-102 109q5 5 22.5 21t23.5 21.5t20 20t20 22t15.5 21t13 23.5t7 23t3.5 26q0 17 -12.5 53.5t-12.5 67.5q0 73 48.5 118.5t113.5 45.5 q60 0 91.5 -35.5t31.5 -98.5q0 -50 -21 -105.5t-49.5 -99t-71.5 -92.5t-72.5 -77.5t-68.5 -63.5z" />
<glyph unicode="&#x13c;" horiz-adv-x="657" d="M422 215l156 -31l-27 -164l-457 -20l219 1366l-157 41l26 164l459 16zM90 -674l-102 109q5 5 22.5 21t23.5 21.5t20 20t20 22t15.5 21t13 23.5t7 23t3.5 26q0 17 -12.5 53.5t-12.5 67.5q0 73 48.5 118.5t113.5 45.5q60 0 91.5 -35.5t31.5 -98.5q0 -50 -21 -105.5 t-49.5 -99t-71.5 -92.5t-72.5 -77.5t-68.5 -63.5z" />
<glyph unicode="&#x13d;" horiz-adv-x="1134" d="M791 246l81 225h189l-78 -471h-999l28 178l160 49l154 977l-142 60l27 170l616 10l-28 -180l-166 -60l-154 -958h312zM989 891l-141 57q55 112 93.5 247t49.5 239l264 10q-19 -116 -97 -272t-169 -281z" />
<glyph unicode="&#x13e;" horiz-adv-x="899" d="M819 1044l-141 58q55 112 93.5 246.5t49.5 238.5l264 10q-19 -116 -97 -272t-169 -281zM422 215l156 -31l-27 -164l-457 -20l219 1366l-157 41l26 164l459 16z" />
<glyph unicode="&#x13f;" horiz-adv-x="1079" d="M786 240l82 231h189l-78 -471h-995l28 178l160 49l154 977l-142 60l27 170l612 10l-28 -180l-166 -60l-154 -964h311zM696 729q0 100 53 167t152 67q70 0 113 -41t43 -111q0 -98 -55 -165.5t-154 -67.5q-69 0 -110.5 41t-41.5 110z" />
<glyph unicode="&#x140;" horiz-adv-x="995" d="M422 215l156 -31l-27 -164l-457 -20l219 1366l-157 41l26 164l459 16zM631 598q0 100 53 166.5t152 66.5q70 0 112.5 -40.5t42.5 -110.5q0 -98 -55 -166t-154 -68q-69 0 -110 41.5t-41 110.5z" />
<glyph unicode="&#x141;" horiz-adv-x="1138" d="M928 987l22 -194l-360 -146l-66 -407h312l82 231h188l-78 -471h-995l28 178l160 49l45 293l-190 -76l-23 195l248 98l74 467l-142 60l27 170l612 10l-28 -180l-166 -60l-53 -338z" />
<glyph unicode="&#x142;" horiz-adv-x="710" d="M440 215l156 -31l-27 -164l-456 -20l94 584l-199 -80l-22 205l258 104l88 553l-158 41l27 164l458 16l-104 -647l211 84l22 -205l-268 -108z" />
<glyph unicode="&#x143;" horiz-adv-x="1570" d="M885 1511l-78 164l502 267l108 -213zM-16 0l28 178l160 49l154 977l-142 60l27 170l475 10l391 -955l113 715l-133 60l26 170l568 10l-29 -180l-158 -60l-190 -1204h-318l-395 950l-117 -723l138 -49l-29 -178h-569z" />
<glyph unicode="&#x144;" horiz-adv-x="1327" d="M1239 1518l-106 213l-510 -353l94 -149zM578 1106l-70 -328q9 18 25 45t60 85t92.5 102.5t122 80t148.5 35.5q117 0 176.5 -67t59.5 -182q0 -51 -10 -119l-95 -543l160 -31l-26 -164l-463 -20l112 696q9 61 9 74q0 100 -78 100q-63 0 -126.5 -65.5t-107.5 -155.5 t-72.5 -172t-33.5 -127l-60 -350h-295l142 885l-158 41l27 164z" />
<glyph unicode="&#x145;" horiz-adv-x="1570" d="M-16 0l28 178l160 49l154 977l-142 60l27 170l475 10l391 -955l113 715l-133 60l26 170l568 10l-29 -180l-158 -60l-190 -1204h-318l-395 950l-117 -723l138 -49l-29 -178h-569zM528 -674l-102 109q5 5 22.5 21t23.5 21.5t20 20t20 22t15.5 21t13 23.5t7 23t3.5 26 q0 17 -12.5 53.5t-12.5 67.5q0 73 48.5 118.5t113.5 45.5q60 0 91.5 -35.5t31.5 -98.5q0 -50 -21 -105.5t-49.5 -99t-71.5 -92.5t-72.5 -77.5t-68.5 -63.5z" />
<glyph unicode="&#x146;" d="M571 1106l-69 -328q9 18 25 45t60 85t92.5 102.5t122 80t148.5 35.5q116 0 171 -66.5t55 -182.5q0 -44 -11 -119l-88 -543l154 -31l-27 -164l-452 -20l112 700q8 54 8 74q0 100 -77 100q-51 0 -103 -44.5t-91.5 -109.5t-72 -139.5t-51 -135.5t-22.5 -95l-60 -350h-289 l142 885l-158 41l27 164zM393 -674l-102 109q5 5 22.5 21t23.5 21.5t20 20t20 22t15.5 21t13 23.5t7 23t3.5 26q0 17 -12.5 53.5t-12.5 67.5q0 73 48.5 118.5t113.5 45.5q60 0 91.5 -35.5t31.5 -98.5q0 -50 -21 -105.5t-49.5 -99t-71.5 -92.5t-72.5 -77.5t-68.5 -63.5z" />
<glyph unicode="&#x147;" horiz-adv-x="1570" d="M1405 1812l-326 -260l-178 -16l-256 274l133 123l234 -190l309 190zM-16 0l28 178l160 49l154 977l-142 60l27 170l475 10l391 -955l113 715l-133 60l26 170l568 10l-29 -180l-158 -60l-190 -1204h-318l-395 950l-117 -723l138 -49l-29 -178h-569z" />
<glyph unicode="&#x148;" horiz-adv-x="1327" d="M1274 1569l-361 -316l-170 -14l-282 332l127 117l254 -242l354 244zM578 1106l-70 -328q9 18 25 45t60 85t92.5 102.5t122 80t148.5 35.5q117 0 176.5 -67t59.5 -182q0 -51 -10 -119l-95 -543l160 -31l-26 -164l-463 -20l112 696q9 61 9 74q0 100 -78 100 q-63 0 -126.5 -65.5t-107.5 -155.5t-72.5 -172t-33.5 -127l-60 -350h-295l142 885l-158 41l27 164z" />
<glyph unicode="&#x149;" horiz-adv-x="1343" d="M156 1174l-103 108q5 5 22.5 21t23.5 21.5t20 20t20 22t15.5 21t13 23.5t7 23t3.5 26q0 17 -12 53.5t-12 67.5q0 73 48 118.5t113 45.5q60 0 91.5 -35t31.5 -98q0 -185 -282 -438zM604 1106l-69 -328q9 18 25 45t60 85t92.5 102.5t122 80t148.5 35.5q116 0 170.5 -66 t54.5 -183q0 -51 -10 -119l-88 -543l154 -31l-27 -164l-453 -20l113 700q8 54 8 74q0 100 -78 100q-51 0 -102.5 -44.5t-90 -109.5t-71.5 -140t-51.5 -134.5t-24.5 -95.5l-59 -350h-289l142 885l-158 41l27 164z" />
<glyph unicode="&#x14a;" horiz-adv-x="1570" d="M-16 0l28 178l160 49l154 977l-142 60l27 170l475 10l391 -955l113 715l-133 60l26 170l568 10l-29 -180l-158 -60l-159 -995q-22 -137 -58.5 -232t-98 -164.5t-153 -102t-219.5 -32.5q-28 0 -63.5 4t-56.5 8l-21 3l59 205h105q126 0 180 102l-418 950l-117 -723l138 -49 l-29 -178h-569z" />
<glyph unicode="&#x14b;" horiz-adv-x="1316" d="M750 -33l112 701q10 67 10 106q0 100 -77 100q-51 0 -103 -44.5t-91.5 -109.5t-72 -139.5t-51 -135.5t-22.5 -95l-60 -350h-289l142 885l-158 41l27 164l454 16l-69 -328q9 18 25 45t60 85t92.5 102.5t122 80t148.5 35.5q116 0 171 -66.5t55 -182.5q0 -44 -11 -119 l-137 -846q-31 -195 -148 -304.5t-305 -109.5q-39 0 -90 8t-83 16l-31 7l41 180q7 0 51.5 -3t77.5 -3q53 0 88 14t58 49t37 80.5t26 120.5z" />
<glyph unicode="&#x14c;" horiz-adv-x="1499" d="M1280 1845l-37 -215h-596l37 215h596zM627 -27q-247 0 -381.5 137.5t-134.5 393.5q0 156 35 300.5t103.5 264.5t164 209.5t222.5 139.5t273 50q251 0 392 -142.5t141 -393.5q0 -196 -59 -371.5t-163.5 -305.5t-258.5 -206t-334 -76zM1114 920q0 292 -246 292 q-104 0 -189.5 -66.5t-136 -171t-77.5 -220.5t-27 -226q0 -144 60.5 -221.5t179.5 -77.5q103 0 188.5 66t138 169.5t81 222.5t28.5 233z" />
<glyph unicode="&#x14d;" horiz-adv-x="1175" d="M1059 1530l-37 -215h-596l37 215h596zM475 -20q-200 0 -309 103.5t-109 295.5q0 337 177 542t462 205q202 0 312 -106.5t110 -294.5q0 -336 -178.5 -540.5t-464.5 -204.5zM815 707q0 184 -162 184q-86 0 -154 -69t-103.5 -180.5t-35.5 -242.5q0 -184 158 -184 q87 0 155.5 65.5t105 177t36.5 249.5z" />
<glyph unicode="&#x14e;" horiz-adv-x="1499" d="M707 1905l174 18q0 -19 6 -42t19.5 -48.5t41.5 -42t66 -16.5q37 0 68 13.5t49 33t30 39.5t17 34l4 13l174 12q-13 -86 -52 -155t-93 -112t-118 -66t-132 -23q-117 0 -189 71t-72 193q0 15 7 78zM627 -27q-247 0 -381.5 137.5t-134.5 393.5q0 156 35 300.5t103.5 264.5 t164 209.5t222.5 139.5t273 50q251 0 392 -142.5t141 -393.5q0 -196 -59 -371.5t-163.5 -305.5t-258.5 -206t-334 -76zM1114 920q0 292 -246 292q-104 0 -189.5 -66.5t-136 -171t-77.5 -220.5t-27 -226q0 -144 60.5 -221.5t179.5 -77.5q103 0 188.5 66t138 169.5t81 222.5 t28.5 233z" />
<glyph unicode="&#x14f;" horiz-adv-x="1185" d="M465 1595l174 19q0 -19 6 -42t19.5 -48.5t41.5 -42.5t66 -17q37 0 68 13.5t49 33t30 39.5t17 34l4 13l174 13q-18 -113 -79 -196t-143 -122t-173 -39q-117 0 -188.5 71.5t-71.5 193.5q0 23 6 77zM500 -20q-208 0 -323.5 112.5t-115.5 317.5q0 325 170 520.5t449 195.5 q210 0 326 -115.5t116 -316.5q0 -324 -171 -519t-451 -195zM815 707q-3 86 -47.5 130t-122.5 44q-125 0 -200.5 -131.5t-75.5 -323.5q0 -201 166 -201q79 0 136.5 46t87 121t43 153.5t13.5 161.5z" />
<glyph unicode="&#x150;" horiz-adv-x="1499" d="M627 -27q-247 0 -381.5 137.5t-134.5 393.5q0 156 35 300.5t103.5 264.5t164 209.5t222.5 139.5t273 50q251 0 392 -142.5t141 -393.5q0 -196 -59 -371.5t-163.5 -305.5t-258.5 -206t-334 -76zM1114 920q0 292 -246 292q-104 0 -189.5 -66.5t-136 -171t-77.5 -220.5 t-27 -226q0 -144 60.5 -221.5t179.5 -77.5q103 0 188.5 66t138 169.5t81 222.5t28.5 233zM594 1614l371 391l135 -164l-385 -336zM1022 1614l371 391l139 -170l-389 -330z" />
<glyph unicode="&#x151;" horiz-adv-x="1185" d="M500 -20q-208 0 -323.5 112.5t-115.5 317.5q0 325 170 520.5t449 195.5q210 0 326 -115.5t116 -316.5q0 -324 -171 -519t-451 -195zM815 707q-3 86 -47.5 130t-122.5 44q-125 0 -200.5 -131.5t-75.5 -323.5q0 -201 166 -201q79 0 136.5 46t87 121t43 153.5t13.5 161.5z M373 1341l370 392l136 -164l-385 -336zM801 1341l370 392l140 -170l-389 -330z" />
<glyph unicode="&#x152;" horiz-adv-x="1904" d="M1665 860l-35 -225h-405l-62 -395h359l73 172h185l-68 -412h-637q-55 0 -204.5 -12.5t-235.5 -12.5q-240 0 -381 142.5t-141 392.5q0 213 60 393t165 303t248.5 191.5t308.5 68.5q66 0 182 -11t162 -11h676l-64 -395h-163l-27 153h-344l-55 -342h403zM860 240l152 962 q-59 10 -131 10q-91 0 -171 -44.5t-141.5 -129.5t-97 -219.5t-35.5 -302.5q0 -144 69.5 -215.5t194.5 -71.5q32 0 72 2.5t64 5.5z" />
<glyph unicode="&#x153;" horiz-adv-x="1794" d="M1581 289l86 -152q-29 -20 -71 -42.5t-105.5 -50.5t-143.5 -46t-157 -18q-108 0 -190 42t-128 119q-160 -157 -393 -157q-202 0 -312 99.5t-110 295.5q0 223 80 393t223.5 262t329.5 92q236 0 342 -168q162 168 377 168q173 0 274 -79t101 -213q0 -179 -183.5 -284 t-517.5 -108q0 -114 49.5 -170.5t141.5 -56.5q34 0 73 6t76 16.5t65 19t57.5 19.5t35.5 13zM1370 895q-89 0 -160 -76t-104 -196q187 4 283 50.5t96 123.5q0 46 -28.5 72t-86.5 26zM651 891q-86 -1 -153.5 -70t-102.5 -180t-35 -242q0 -91 40 -137.5t116 -46.5 q131 0 213 140.5t82 351.5q0 184 -160 184z" />
<glyph unicode="&#x154;" horiz-adv-x="1341" d="M668 1511l-78 164l502 267l108 -213zM610 0h-606l29 178l160 51l153 973l-139 62l26 170l455 10h197q118 0 211 -36.5t151 -115t58 -188.5q0 -174 -86 -293.5t-240 -173.5q40 -40 84 -166l80 -242l139 -51l-29 -178h-358l-111 389q-30 108 -79 143t-154 35l-53 -338 l141 -51zM584 782h116q133 0 211 68t78 194q0 77 -46.5 117.5t-127.5 40.5h-164z" />
<glyph unicode="&#x155;" horiz-adv-x="915" d="M1075 1518l-106 213l-510 -353l94 -149zM733 700v160q-48 -13 -106.5 -89t-106.5 -186t-65 -214l-60 -371h-286l141 901l-158 41l25 148l454 16l-63 -307q6 14 20.5 42.5t51.5 80.5t80 95t108.5 76t134.5 33q25 0 54 -5t45 -10l16 -5l-80 -406h-205z" />
<glyph unicode="&#x156;" horiz-adv-x="1341" d="M610 0h-606l29 178l160 51l153 973l-139 62l26 170l455 10h197q118 0 211 -36.5t151 -115t58 -188.5q0 -174 -86 -293.5t-240 -173.5q40 -40 84 -166l80 -242l139 -51l-29 -178h-358l-111 389q-30 108 -79 143t-154 35l-53 -338l141 -51zM584 782h116q133 0 211 68 t78 194q0 77 -46.5 117.5t-127.5 40.5h-164zM475 -674l-102 109q5 5 22.5 21t23.5 21.5t20 20t20 22t15.5 21t13 23.5t7 23t3.5 26q0 17 -12.5 53.5t-12.5 67.5q0 73 48.5 118.5t113.5 45.5q60 0 91.5 -35.5t31.5 -98.5q0 -50 -21 -105.5t-49.5 -99t-71.5 -92.5t-72.5 -77.5 t-68.5 -63.5z" />
<glyph unicode="&#x157;" horiz-adv-x="915" d="M733 700v160q-48 -13 -106.5 -89t-106.5 -186t-65 -214l-60 -371h-286l141 901l-158 41l25 148l454 16l-63 -307q6 14 20.5 42.5t51.5 80.5t80 95t108.5 76t134.5 33q25 0 54 -5t45 -10l16 -5l-80 -406h-205zM74 -674l-103 109q5 5 22.5 21t23.5 21.5t20 20t20 22 t15.5 21t13 23.5t7 23t3.5 26q0 17 -12 53.5t-12 67.5q0 73 48 118.5t113 45.5q60 0 91.5 -35.5t31.5 -98.5q0 -185 -282 -438z" />
<glyph unicode="&#x158;" horiz-adv-x="1341" d="M1247 1812l-325 -260l-179 -16l-256 274l134 123l233 -190l309 190zM610 0h-606l29 178l160 51l153 973l-139 62l26 170l455 10h197q118 0 211 -36.5t151 -115t58 -188.5q0 -174 -86 -293.5t-240 -173.5q40 -40 84 -166l80 -242l139 -51l-29 -178h-358l-111 389 q-30 108 -79 143t-154 35l-53 -338l141 -51zM584 782h116q133 0 211 68t78 194q0 77 -46.5 117.5t-127.5 40.5h-164z" />
<glyph unicode="&#x159;" horiz-adv-x="915" d="M1114 1569l-360 -316l-170 -14l-283 332l127 117l254 -242l354 244zM733 700v160q-48 -13 -106.5 -89t-106.5 -186t-65 -214l-60 -371h-286l141 901l-158 41l25 148l454 16l-63 -307q6 14 20.5 42.5t51.5 80.5t80 95t108.5 76t134.5 33q25 0 54 -5t45 -10l16 -5l-80 -406 h-205z" />
<glyph unicode="&#x15a;" horiz-adv-x="1212" d="M657 1511l-77 164l501 267l109 -213zM301 444l4 -176q78 -39 199 -39q97 0 172.5 49t75.5 134q0 43 -30.5 77.5t-79.5 59.5t-108 50.5t-118.5 58t-108.5 73t-79.5 104.5t-30.5 144q0 119 45 213.5t122.5 154t178.5 90.5t217 31q98 0 202.5 -20.5t159.5 -41.5l56 -20 l-70 -372h-168l-25 174q-88 31 -178 31q-97 0 -156 -43t-59 -117q0 -42 30.5 -76.5t79.5 -60t107.5 -50.5t117.5 -57t108 -71t79.5 -100t30.5 -138q0 -125 -48.5 -227.5t-130.5 -168.5t-189 -101.5t-226 -35.5q-97 0 -205 19.5t-168 39.5l-59 19l64 393h188z" />
<glyph unicode="&#x15b;" horiz-adv-x="997" d="M997 1518l-106 213l-510 -353l94 -149zM252 358v-143q59 -22 141 -22q83 0 128.5 30t45.5 88q0 34 -24 62.5t-62 51t-84.5 45t-93 50.5t-84.5 61.5t-62 84t-24 112.5q0 116 62 196t162.5 116t232.5 36q81 0 168 -14t134 -28l46 -15l-55 -307h-176l-11 133q-42 18 -118 18 q-68 0 -106 -28.5t-38 -79.5q0 -34 24.5 -62.5t64 -51t86.5 -45t94.5 -50t87 -60.5t64 -81.5t24.5 -108.5q0 -173 -138 -269.5t-362 -96.5q-82 0 -171 12.5t-137 25.5l-48 13l53 327h176z" />
<glyph unicode="&#x15c;" horiz-adv-x="1212" d="M430 1653l352 280l179 15l266 -295l-115 -133l-260 204l-336 -204zM301 444l4 -176q78 -39 199 -39q97 0 172.5 49t75.5 134q0 43 -30.5 77.5t-79.5 59.5t-108 50.5t-118.5 58t-108.5 73t-79.5 104.5t-30.5 144q0 119 45 213.5t122.5 154t178.5 90.5t217 31 q98 0 202.5 -20.5t159.5 -41.5l56 -20l-70 -372h-168l-25 174q-88 31 -178 31q-97 0 -156 -43t-59 -117q0 -42 30.5 -76.5t79.5 -60t107.5 -50.5t117.5 -57t108 -71t79.5 -100t30.5 -138q0 -125 -48.5 -227.5t-130.5 -168.5t-189 -101.5t-226 -35.5q-97 0 -205 19.5 t-168 39.5l-59 19l64 393h188z" />
<glyph unicode="&#x15d;" horiz-adv-x="1001" d="M215 1401l352 280l178 15l267 -295l-115 -133l-260 205l-336 -205zM256 358v-143q59 -22 141 -22q83 0 128.5 30t45.5 88q0 34 -24 62.5t-62 51t-84.5 45t-93 50.5t-84.5 61.5t-62 84t-24 112.5q0 116 62 196t162.5 116t232.5 36q81 0 168 -14t134 -28l46 -15l-55 -307 h-176l-11 133q-42 18 -118 18q-68 0 -106 -28.5t-38 -79.5q0 -34 24.5 -62.5t64 -51t86.5 -45t94.5 -50t87 -60.5t64 -81.5t24.5 -108.5q0 -173 -138 -269.5t-362 -96.5q-82 0 -171 12.5t-137 25.5l-48 13l53 327h176z" />
<glyph unicode="&#x15e;" horiz-adv-x="1212" d="M940 1014l-25 174q-88 31 -178 31q-97 0 -156 -43t-59 -117q0 -42 30.5 -76.5t79.5 -60t107.5 -50.5t117.5 -57t108 -71t79.5 -100t30.5 -138q0 -114 -40.5 -209.5t-110.5 -161t-162 -106t-199 -52.5l-10 -67q67 -14 106 -54.5t39 -101.5q0 -104 -81 -168.5t-191 -64.5 q-62 0 -121 15.5t-87 30.5l-28 15l78 113q66 -39 142 -39q48 0 80 22.5t32 63.5q0 39 -41 59.5t-112 20.5l24 155q-82 7 -168 25.5t-131 33.5l-45 15l64 393h188l4 -176q78 -39 199 -39q97 0 172.5 49t75.5 134q0 43 -30.5 77.5t-79.5 59.5t-108 50.5t-118.5 58t-108.5 73 t-79.5 104.5t-30.5 144q0 119 45 213.5t122.5 154t178.5 90.5t217 31q98 0 202.5 -20.5t159.5 -41.5l56 -20l-70 -372h-168z" />
<glyph unicode="&#x15f;" horiz-adv-x="997" d="M145 -418l78 113q66 -39 142 -39q48 0 80 22.5t32 63.5q0 39 -41 59.5t-112 20.5l24 158q-76 3 -157.5 15.5t-124.5 24.5l-43 11l53 327h176v-143q59 -22 141 -22q83 0 128.5 30t45.5 88q0 34 -24 62.5t-62 51t-84.5 45t-93 50.5t-84.5 61.5t-62 84t-24 112.5 q0 116 62 196t162.5 116t232.5 36q81 0 168 -14t134 -28l46 -15l-55 -307h-176l-11 133q-42 18 -118 18q-68 0 -106 -28.5t-38 -79.5q0 -34 24.5 -62.5t64 -51t86.5 -45t94.5 -50t87 -60.5t64 -81.5t24.5 -108.5q0 -143 -96.5 -234t-262.5 -120l-12 -82q67 -14 106 -54.5 t39 -101.5q0 -104 -81 -168.5t-191 -64.5q-62 0 -121 15.5t-87 30.5z" />
<glyph unicode="&#x160;" horiz-adv-x="1212" d="M1212 1812l-325 -260l-178 -16l-256 274l133 123l233 -190l309 190zM301 444l4 -176q78 -39 199 -39q97 0 172.5 49t75.5 134q0 43 -30.5 77.5t-79.5 59.5t-108 50.5t-118.5 58t-108.5 73t-79.5 104.5t-30.5 144q0 119 45 213.5t122.5 154t178.5 90.5t217 31 q98 0 202.5 -20.5t159.5 -41.5l56 -20l-70 -372h-168l-25 174q-88 31 -178 31q-97 0 -156 -43t-59 -117q0 -42 30.5 -76.5t79.5 -60t107.5 -50.5t117.5 -57t108 -71t79.5 -100t30.5 -138q0 -125 -48.5 -227.5t-130.5 -168.5t-189 -101.5t-226 -35.5q-97 0 -205 19.5 t-168 39.5l-59 19l64 393h188z" />
<glyph unicode="&#x161;" horiz-adv-x="997" d="M1069 1569l-360 -316l-170 -14l-283 332l127 117l254 -242l354 244zM252 358v-143q59 -22 141 -22q83 0 128.5 30t45.5 88q0 34 -24 62.5t-62 51t-84.5 45t-93 50.5t-84.5 61.5t-62 84t-24 112.5q0 116 62 196t162.5 116t232.5 36q81 0 168 -14t134 -28l46 -15l-55 -307 h-176l-11 133q-42 18 -118 18q-68 0 -106 -28.5t-38 -79.5q0 -34 24.5 -62.5t64 -51t86.5 -45t94.5 -50t87 -60.5t64 -81.5t24.5 -108.5q0 -173 -138 -269.5t-362 -96.5q-82 0 -171 12.5t-137 25.5l-48 13l53 327h176z" />
<glyph unicode="&#x162;" horiz-adv-x="1181" d="M1313 1444l-70 -440h-184l-21 198h-192l-154 -975l158 -49l-29 -178h-223l-14 -90q67 -14 106 -54.5t39 -101.5q0 -104 -81 -168.5t-191 -64.5q-62 0 -121 15.5t-87 30.5l-28 15l78 113q65 -39 141 -39q48 0 80.5 22.5t32.5 63.5q0 39 -41.5 59.5t-112.5 20.5l29 178 h-244l29 178l172 49l154 975h-191l-82 -198h-184l74 440h1157z" />
<glyph unicode="&#x163;" horiz-adv-x="827" d="M100 -418l78 113q65 -39 141 -39q48 0 80.5 22.5t32.5 63.5q0 39 -41 59.5t-112 20.5l26 172q-139 45 -139 254q0 67 10 123l76 483h-184l30 195l189 26l45 281l299 57l-56 -338h275l-35 -221h-274l-72 -444q-10 -56 -10 -101q0 -100 86 -100q26 0 67.5 10.5t69.5 20.5 l29 10l45 -148q-46 -30 -126.5 -65.5t-154.5 -48.5l-12 -78q67 -14 106 -54.5t39 -101.5q0 -104 -81 -168.5t-191 -64.5q-62 0 -121 15.5t-87 30.5z" />
<glyph unicode="&#x164;" horiz-adv-x="1181" d="M1155 1812l-326 -260l-178 -16l-256 274l133 123l234 -190l309 190zM385 227l154 975h-191l-82 -198h-184l74 440h1157l-70 -440h-184l-21 198h-192l-154 -975l158 -49l-29 -178h-637l29 178z" />
<glyph unicode="&#x165;" horiz-adv-x="897" d="M838 1180l-142 57q56 113 94.5 247t49.5 238l264 11q-19 -116 -97 -272t-169 -281zM711 250l45 -148q-60 -38 -165 -80t-185 -42q-123 0 -181.5 67t-58.5 201q0 67 10 123l76 483h-184l30 195l189 26l45 281l299 57l-56 -338h275l-35 -221h-274l-72 -444 q-10 -56 -10 -101q0 -100 86 -100q26 0 67.5 10.5t69.5 20.5z" />
<glyph unicode="&#x166;" horiz-adv-x="1155" d="M481 836l58 366h-191l-82 -194h-184l74 436h1153l-70 -436h-184l-21 194h-192l-58 -366h234l-37 -226h-233l-60 -383l158 -49l-29 -178h-633l29 178l172 49l59 383h-225l37 226h225z" />
<glyph unicode="&#x167;" horiz-adv-x="829" d="M225 680l29 174h-184l30 195l189 26l45 281l299 57l-55 -338h274l-35 -221h-274l-29 -174h272l-34 -215h-273l-8 -55q-10 -56 -10 -101q0 -100 86 -100q26 0 67.5 10.5t69.5 20.5l29 10l45 -148q-60 -38 -165 -80t-185 -42q-123 0 -181.5 67t-58.5 201q0 67 10 123l15 94 h-187l35 215h184z" />
<glyph unicode="&#x168;" horiz-adv-x="1505" d="M610 1597l-78 84q5 9 14.5 24t40 52.5t62 66.5t79 53t93.5 24q58 0 115.5 -23.5t110.5 -46.5t102 -23q35 0 72 21.5t57 42.5l20 22l93 -79q-5 -9 -14 -24t-38.5 -54t-61 -68.5t-78 -53.5t-91.5 -24q-58 0 -118 22.5t-115.5 45t-104.5 22.5q-37 0 -77 -21t-61 -42z M604 1202l-104 -649q-11 -75 -11 -115q0 -104 50 -158.5t172 -54.5q139 0 208 82t99 273l98 622l-143 62l26 170l609 10l-29 -180l-158 -62l-94 -604q-24 -151 -70.5 -262.5t-124 -194t-193.5 -124.5t-271 -42q-258 0 -373 102.5t-115 307.5q0 79 15 168l104 649l-145 62 l26 170l606 10l-28 -180z" />
<glyph unicode="&#x169;" d="M412 1290l-78 94q5 9 14 24.5t38 54.5t60 68.5t77.5 54t92.5 24.5q47 0 91.5 -14.5t74 -32.5t70.5 -32.5t80 -14.5q35 0 72 21.5t57 42.5l20 22l93 -95q-5 -9 -14 -24t-38.5 -53.5t-61 -68t-78 -53.5t-91.5 -24q-58 0 -113.5 22.5t-106.5 45t-100 22.5q-37 0 -77 -21 t-61 -42zM741 0l70 326q-9 -18 -24.5 -44.5t-59.5 -84.5t-92 -102t-121.5 -79.5t-148.5 -35.5q-226 0 -226 247q0 62 11 121l88 537l-158 41l26 164l455 16l-112 -703q-7 -47 -7 -71q0 -103 78 -103q51 0 101.5 41t86 97.5t68 128t48.5 119t26 85.5l68 406h288l-141 -893 l156 -31l-27 -162z" />
<glyph unicode="&#x16a;" horiz-adv-x="1505" d="M1225 1845l-37 -215h-596l37 215h596zM604 1202l-104 -649q-11 -75 -11 -115q0 -104 50 -158.5t172 -54.5q139 0 208 82t99 273l98 622l-143 62l26 170l609 10l-29 -180l-158 -62l-94 -604q-24 -151 -70.5 -262.5t-124 -194t-193.5 -124.5t-271 -42q-258 0 -373 102.5 t-115 307.5q0 79 15 168l104 649l-145 62l26 170l606 10l-28 -180z" />
<glyph unicode="&#x16b;" d="M1075 1530l-37 -215h-596l37 215h596zM741 0l70 326q-9 -18 -24.5 -44.5t-59.5 -84.5t-92 -102t-121.5 -79.5t-148.5 -35.5q-226 0 -226 247q0 62 11 121l88 537l-158 41l26 164l455 16l-112 -703q-7 -47 -7 -71q0 -103 78 -103q51 0 101.5 41t86 97.5t68 128t48.5 119 t26 85.5l68 406h288l-141 -893l156 -31l-27 -162z" />
<glyph unicode="&#x16c;" horiz-adv-x="1505" d="M653 1905l174 18q0 -15 3.5 -32.5t12.5 -38.5t23.5 -38t39 -28.5t55.5 -11.5q37 0 68 13.5t48.5 33t29.5 39.5t17 34l4 13l175 12q-18 -113 -79.5 -196t-143 -121.5t-173.5 -38.5q-117 0 -188.5 71t-71.5 193q0 24 6 78zM606 1202l-104 -649q-10 -68 -10 -115 q0 -104 49.5 -158.5t171.5 -54.5q139 0 208 82t99 273l98 622l-143 62l26 170l609 10l-29 -180l-158 -62l-94 -604q-24 -151 -70.5 -262.5t-124 -194t-193.5 -124.5t-271 -42q-258 0 -373 102.5t-115 307.5q0 79 15 168l104 649l-145 62l26 170l606 10l-28 -180z" />
<glyph unicode="&#x16d;" d="M467 1595l174 19q0 -19 6 -42t19.5 -48.5t41.5 -42.5t66 -17q37 0 68 13.5t49 33t30 39.5t17 34l4 13l174 13q-18 -113 -79 -196t-143 -122t-173 -39q-117 0 -188.5 71.5t-71.5 193.5q0 23 6 77zM741 0l70 326q-9 -18 -24.5 -44.5t-59.5 -84.5t-92 -102t-121.5 -79.5 t-148.5 -35.5q-226 0 -226 247q0 43 12.5 129t57.5 355q18 109 29 174l-158 41l26 164l455 16q-114 -707 -118 -752q-1 -12 -1 -22q0 -103 78 -103q51 0 101.5 41t86 97.5t68 128t48.5 119t26 85.5l68 406h288l-141 -893l156 -31l-27 -162z" />
<glyph unicode="&#x16e;" horiz-adv-x="1507" d="M694 1718q0 131 86.5 225.5t218.5 94.5q99 0 165.5 -56.5t66.5 -154.5q0 -129 -88.5 -225.5t-220.5 -96.5q-98 0 -163 59t-65 154zM979 1890q-51 0 -83 -44.5t-32 -102.5q0 -88 82 -88q51 0 83 44.5t32 102.5q0 88 -82 88zM604 1202l-104 -649q-11 -75 -11 -115 q0 -104 50 -158.5t172 -54.5q139 0 208 82t99 273l98 622l-143 62l26 170l609 10l-29 -180l-158 -62l-94 -604q-24 -151 -70.5 -262.5t-124 -194t-193.5 -124.5t-271 -42q-258 0 -373 102.5t-115 307.5q0 79 15 168l104 649l-145 62l26 170l606 10l-28 -180z" />
<glyph unicode="&#x16f;" d="M512 1436q0 131 86.5 225t218.5 94q99 0 165.5 -56.5t66.5 -154.5q0 -129 -89 -225t-221 -96q-98 0 -162.5 59t-64.5 154zM797 1608q-51 0 -83 -45t-32 -103q0 -88 82 -88q51 0 83 45t32 103q0 88 -82 88zM741 0l70 326q-9 -18 -24.5 -44.5t-59.5 -84.5t-92 -102 t-121.5 -79.5t-148.5 -35.5q-226 0 -226 247q0 62 11 121l88 537l-158 41l26 164l455 16l-112 -703q-7 -47 -7 -71q0 -103 78 -103q51 0 101.5 41t86 97.5t68 128t48.5 119t26 85.5l68 406h288l-141 -893l156 -31l-27 -162z" />
<glyph unicode="&#x170;" horiz-adv-x="1548" d="M575 1614l371 391l135 -164l-385 -336zM1004 1614l370 391l139 -170l-389 -330zM625 1202l-105 -649q-10 -68 -10 -115q0 -104 49.5 -158.5t171.5 -54.5q139 0 208 82t99 273l99 622l-144 62l27 170l608 10l-29 -180l-157 -62l-94 -604q-24 -151 -70.5 -262.5 t-124.5 -194t-194 -124.5t-271 -42q-258 0 -372.5 102.5t-114.5 307.5q0 85 14 168l104 649l-145 62l27 170l606 10l-29 -180z" />
<glyph unicode="&#x171;" d="M379 1341l371 392l135 -164l-385 -336zM807 1341l371 392l139 -170l-389 -330zM741 0l70 326q-9 -18 -24.5 -44.5t-59.5 -84.5t-92 -102t-121.5 -79.5t-148.5 -35.5q-226 0 -226 247q0 43 12.5 129t57.5 355q18 109 29 174l-158 41l26 164l455 16q-114 -707 -118 -752 q-1 -12 -1 -22q0 -103 78 -103q51 0 101.5 41t86 97.5t68 128t48.5 119t26 85.5l68 406h288l-141 -893l156 -31l-27 -162z" />
<glyph unicode="&#x172;" horiz-adv-x="1505" d="M604 1202l-104 -649q-11 -75 -11 -115q0 -104 50 -158.5t172 -54.5q139 0 208 82t99 273l98 622l-143 62l26 170l609 10l-29 -180l-158 -62l-94 -604q-14 -88 -36 -163t-45 -126.5t-55.5 -96t-58 -71t-63 -51.5t-59 -36.5t-55.5 -27.5q-14 -7 -21 -10q-41 -21 -82 -45 t-90.5 -59.5t-80 -75.5t-30.5 -76q0 -28 19 -44.5t51 -16.5q16 0 36.5 3.5t32.5 7.5l13 3l10 -145q-109 -49 -209 -49q-83 0 -136.5 45t-53.5 125q0 48 20 94.5t53.5 83t65.5 62.5t68 48q-233 9 -337 111t-104 297q0 79 15 168l104 649l-145 62l26 170l606 10l-28 -180z" />
<glyph unicode="&#x173;" d="M741 0l70 326q-9 -18 -24.5 -44.5t-59.5 -84.5t-92 -102t-121.5 -79.5t-148.5 -35.5q-226 0 -226 247q0 62 11 121l88 537l-158 41l26 164l455 16l-112 -703q-7 -47 -7 -71q0 -103 78 -103q51 0 102 40t88.5 98.5t68.5 126.5t48.5 121t22.5 85l68 406h288l-141 -893 l156 -31l-27 -162q-107 -61 -158 -100q-123 -93 -123 -160q0 -28 19 -44.5t51 -16.5q16 0 36.5 3.5t32.5 7.5l13 3l10 -145q-109 -49 -209 -49q-83 0 -136.5 45t-53.5 125q0 49 21.5 96t50.5 80.5t69 64.5t68 47.5t55 30.5z" />
<glyph unicode="&#x174;" horiz-adv-x="1992" d="M748 1653l352 280l178 15l266 -295l-114 -133l-261 204l-335 -204zM72 1264l26 170l396 10l127 -965l397 948l237 17l129 -971l304 731l-142 60l31 170l569 10l-30 -180l-148 -60l-547 -1204h-239l-133 901l-404 -901h-239l-191 1208z" />
<glyph unicode="&#x175;" horiz-adv-x="1683" d="M604 1401l352 280l179 15l266 -295l-115 -133l-260 205l-336 -205zM1370 895l-131 31l27 164l495 16l-28 -174l-86 -27l-414 -905h-305l-86 614l-248 -614h-303l-141 899l-132 27l27 164l389 16l84 -768l289 739l237 33l101 -772z" />
<glyph unicode="&#x176;" horiz-adv-x="1263" d="M352 1653l353 280l178 15l266 -295l-115 -133l-260 204l-336 -204zM842 0h-606l28 178l160 51l43 275l-219 715l-156 45l27 170l385 10l184 -674l260 449l-139 45l27 170l579 10l-29 -180l-151 -58l-469 -735l-39 -242l143 -51z" />
<glyph unicode="&#x177;" horiz-adv-x="1153" d="M256 1401l352 280l178 15l267 -295l-115 -133l-260 205l-336 -205zM18 926l25 164l393 16l139 -668l13 -127l241 586l-127 29l25 164l514 16l-29 -174l-100 -33l-391 -866q-47 -104 -82 -174t-75 -133.5t-76 -101t-81.5 -65.5t-95.5 -39.5t-114 -11.5q-55 0 -120 10 t-103 20l-37 11l57 205q79 -10 151 -10q102 0 152 40.5t104 158.5l-241 948z" />
<glyph unicode="&#x178;" horiz-adv-x="1263" d="M426 1700q0 82 45 139t125 57q59 0 93 -33t34 -91q0 -81 -47.5 -138t-126.5 -57q-57 0 -90 33t-33 90zM862 1700q0 82 45 139t123 57q59 0 93 -33t34 -91q0 -82 -46.5 -138.5t-125.5 -56.5q-57 0 -90 33t-33 90zM842 0h-606l28 178l160 51l43 275l-219 715l-156 45 l27 170l385 10l184 -674l260 449l-139 45l27 170l579 10l-29 -180l-151 -58l-469 -735l-39 -242l143 -51z" />
<glyph unicode="&#x179;" horiz-adv-x="1216" d="M532 1511l-77 164l501 267l109 -213zM51 213l766 989h-409l-74 -174h-180l59 416h1012l-25 -227l-760 -977h420l78 213h190l-71 -453h-1034z" />
<glyph unicode="&#x17a;" horiz-adv-x="1019" d="M915 1518l-106 213l-510 -353l94 -149zM983 926l-586 -709h289l70 182h164l-50 -399h-856l15 184l602 707h-279l-67 -154h-170l55 369h827z" />
<glyph unicode="&#x17b;" horiz-adv-x="1216" d="M563 1698q0 75 49 135.5t127 60.5q123 0 123 -122q0 -89 -53.5 -143t-122.5 -54q-123 0 -123 123zM51 213l766 989h-409l-74 -174h-180l59 416h1012l-25 -227l-760 -977h420l78 213h190l-71 -453h-1034z" />
<glyph unicode="&#x17c;" horiz-adv-x="1019" d="M438 1393q0 75 49 135.5t127 60.5q123 0 123 -123q0 -89 -53.5 -142.5t-122.5 -53.5q-123 0 -123 123zM983 926l-586 -709h289l70 182h164l-50 -399h-856l15 184l602 707h-279l-67 -154h-170l55 369h827z" />
<glyph unicode="&#x17d;" horiz-adv-x="1216" d="M1130 1812l-325 -260l-178 -16l-256 274l133 123l233 -190l310 190zM51 213l766 989h-409l-74 -174h-180l59 416h1012l-25 -227l-760 -977h420l78 213h190l-71 -453h-1034z" />
<glyph unicode="&#x17e;" horiz-adv-x="1019" d="M1042 1569l-360 -316l-170 -14l-283 332l127 117l254 -242l355 244zM983 926l-586 -709h289l70 182h164l-50 -399h-856l15 184l602 707h-279l-67 -154h-170l55 369h827z" />
<glyph unicode="&#x17f;" horiz-adv-x="806" d="M154 -98l188 1183q13 84 29 148t41 127t60.5 106.5t84.5 78t115.5 51t150.5 16.5q76 0 161.5 -12t133.5 -24l47 -11l-61 -332h-174v153h-99q-85 0 -126 -42.5t-54 -124.5l-205 -1282q-32 -204 -145.5 -321.5t-306.5 -117.5q-36 0 -88.5 7t-86.5 15l-34 7l39 178h141 q158 0 189 197z" />
<glyph unicode="&#x192;" horiz-adv-x="970" d="M170 920l186 32q26 119 49 201t55 160t69.5 126.5t89.5 86t118.5 53.5t153.5 16q37 0 87 -5t82 -10.5t32 -6.5l-52 -201h-129q-91 0 -134.5 -42.5t-67.5 -141.5l-58 -236h267l-39 -204h-277l-184 -754q-97 -404 -469 -404q-31 0 -71 6t-64 12l-25 5l41 203h104 q87 0 127 45.5t64 144.5l180 742h-164z" />
<glyph unicode="&#x1fa;" horiz-adv-x="1456" d="M1386 180l-30 -180h-606l28 178l162 51l-25 150h-452l-74 -156l141 -45l-28 -178h-580l29 180l137 47l619 1184q-82 59 -82 168q0 131 86.5 225t218.5 94q99 0 165 -56t66 -154q0 -77 -33.5 -146t-93.5 -115l234 -1206zM909 1751q-51 0 -82.5 -44.5t-31.5 -102.5 q0 -88 82 -88q51 0 82.5 44.5t31.5 102.5q0 88 -82 88zM881 598l-76 494l-240 -494h316zM727 1898l-63 170l522 222l90 -222z" />
<glyph unicode="&#x1fb;" horiz-adv-x="1259" d="M578 1405q0 131 86.5 225t218.5 94q99 0 165 -56.5t66 -154.5q0 -129 -88.5 -225t-220.5 -96q-98 0 -162.5 59t-64.5 154zM862 1577q-51 0 -82.5 -44.5t-31.5 -102.5q0 -89 81 -89q51 0 83 45t32 103q0 88 -82 88zM1153 20l-440 -20l71 303q-7 -14 -24.5 -42t-60 -79.5 t-90.5 -94t-119.5 -75t-143.5 -32.5q-132 0 -212.5 105.5t-80.5 264.5q0 149 35 276.5t94.5 218t139.5 155t171 95.5t187 31q63 0 123 -19t89 -37l28 -19l59 55h186l-143 -893l158 -31zM803 711l31 170q-60 24 -150 24q-141 0 -232.5 -146.5t-91.5 -369.5q0 -81 27.5 -125.5 t73.5 -44.5q57 0 113.5 50.5t96 123t70.5 145t47 122.5zM1227 1970l-82 223l-545 -297l78 -159z" />
<glyph unicode="&#x1fc;" horiz-adv-x="1912" d="M1194 1511l-78 164l502 267l108 -213zM1673 860l-35 -225h-405l-62 -395h359l74 172h184l-68 -412h-1036l31 178l153 51l27 164h-389l-109 -172l121 -43l-31 -178h-565l29 178l145 51l615 977l-158 58l27 170l505 10h838l-63 -395h-164l-27 153h-344l-55 -342h403z M989 1202l-356 -588h293l96 588h-33z" />
<glyph unicode="&#x1fd;" horiz-adv-x="1660" d="M178 748l35 296q26 9 71 22.5t161.5 36.5t207.5 23q240 0 281 -135q154 135 342 135q172 0 273.5 -80t101.5 -212q0 -179 -183 -283.5t-518 -108.5q0 -119 42.5 -173t148.5 -54q34 0 73 6t76 16.5t65 19t57.5 19.5t35.5 13l86 -152q-29 -20 -71 -42.5t-105.5 -50.5 t-143.5 -46t-157 -18q-131 0 -220.5 51t-129.5 147q-73 -87 -177.5 -141.5t-220.5 -54.5q-128 0 -204 71t-76 193q0 194 139 292.5t379 98.5h145l19 115q4 24 4 41q0 112 -131 112q-46 0 -92.5 -6.5t-69.5 -12.5l-23 -7l-51 -131h-170zM1354 797q0 98 -117 98 q-90 0 -161 -76t-103 -196q189 4 285 51.5t96 122.5zM666 463h-115q-229 0 -229 -156q0 -42 31.5 -72t74.5 -30q87 0 157 82.5t81 175.5zM1434 1518l-107 213l-510 -353l94 -149z" />
<glyph unicode="&#x1fe;" horiz-adv-x="1511" d="M31 -121l198 262q-108 136 -108 363q0 156 34.5 300.5t102.5 264.5t162.5 209.5t221.5 139.5t273 50q154 0 267 -55l157 211l160 -104l-170 -226q115 -137 115 -352q0 -269 -99 -488t-285.5 -349t-426.5 -130q-145 0 -254 50l-189 -250zM465 455l545 729q-52 28 -136 28 q-97 0 -179 -56.5t-134.5 -149t-82 -206.5t-29.5 -233q0 -59 16 -112zM1100 987l-545 -727q54 -31 129 -31q123 0 222.5 90t152.5 235.5t53 313.5q0 66 -12 119zM770 1511l-78 164l502 267l109 -213z" />
<glyph unicode="&#x1ff;" horiz-adv-x="1200" d="M-20 -154l184 250q-96 104 -96 283q0 337 176.5 542t460.5 205q103 0 194 -32l164 223l137 -86l-166 -223q99 -110 99 -277q0 -339 -179 -545t-467 -206q-96 0 -188 30l-184 -250zM379 389l360 488q-40 14 -73 14q-85 0 -152 -65t-102 -170t-35 -228q0 -27 2 -39z M821 717l-362 -490q30 -12 71 -12q126 0 209.5 127t83.5 320q0 9 -1 27.5t-1 27.5zM1106 1518l-107 213l-510 -353l95 -149z" />
<glyph unicode="&#x218;" horiz-adv-x="1212" d="M301 444l4 -176q78 -39 199 -39q97 0 172.5 49t75.5 134q0 43 -30.5 77.5t-79.5 59.5t-108 50.5t-118.5 58t-108.5 73t-79.5 104.5t-30.5 144q0 119 45 213.5t122.5 154t178.5 90.5t217 31q98 0 202.5 -20.5t159.5 -41.5l56 -20l-70 -372h-168l-25 174q-88 31 -178 31 q-97 0 -156 -43t-59 -117q0 -42 30.5 -76.5t79.5 -60t107.5 -50.5t117.5 -57t108 -71t79.5 -100t30.5 -138q0 -125 -48.5 -227.5t-130.5 -168.5t-189 -101.5t-226 -35.5q-97 0 -205 19.5t-168 39.5l-59 19l64 393h188zM115 -680l-95 98q16 15 39 39t62 74t39 72 q0 20 -16.5 60t-16.5 77q0 68 48 113t110 45t97.5 -37.5t35.5 -104.5q0 -93 -86 -210.5t-217 -225.5z" />
<glyph unicode="&#x219;" horiz-adv-x="997" d="M252 358v-143q59 -22 141 -22q83 0 128.5 30t45.5 88q0 34 -24 62.5t-62 51t-84.5 45t-93 50.5t-84.5 61.5t-62 84t-24 112.5q0 116 62 196t162.5 116t232.5 36q81 0 168 -14t134 -28l46 -15l-55 -307h-176l-11 133q-42 18 -118 18q-68 0 -106 -28.5t-38 -79.5 q0 -34 24.5 -62.5t64 -51t86.5 -45t94.5 -50t87 -60.5t64 -81.5t24.5 -108.5q0 -173 -138 -269.5t-362 -96.5q-82 0 -171 12.5t-137 25.5l-48 13l53 327h176zM115 -680l-95 98q16 15 39 39t62 74t39 72q0 20 -16.5 60t-16.5 77q0 68 48 113t110 45t97.5 -37.5t35.5 -104.5 q0 -93 -86 -210.5t-217 -225.5z" />
<glyph unicode="&#x21a;" horiz-adv-x="1181" d="M385 227l154 975h-191l-82 -198h-184l74 440h1157l-70 -440h-184l-21 198h-192l-154 -975l158 -49l-29 -178h-637l29 178zM311 -680l-94 98q16 15 39 39t61.5 74t38.5 72q0 20 -16 60t-16 77q0 68 47.5 113t109.5 45t97.5 -37.5t35.5 -104.5q0 -93 -86 -210.5 t-217 -225.5z" />
<glyph unicode="&#x21b;" horiz-adv-x="827" d="M711 250l45 -148q-60 -38 -165 -80t-185 -42q-123 0 -181.5 67t-58.5 201q0 67 10 123l76 483h-184l30 195l189 26l45 281l299 57l-56 -338h275l-35 -221h-274l-72 -444q-10 -56 -10 -101q0 -100 86 -100q26 0 67.5 10.5t69.5 20.5zM115 -680l-95 98q16 15 39 39t62 74 t39 72q0 20 -16.5 60t-16.5 77q0 68 48 113t110 45t97.5 -37.5t35.5 -104.5q0 -93 -86 -210.5t-217 -225.5z" />
<glyph unicode="&#x237;" horiz-adv-x="671" d="M121 1090l454 16l-192 -1194q-31 -195 -148 -304.5t-305 -109.5q-39 0 -90 8t-82 16l-32 7l41 180q7 0 51.5 -3t77.5 -3q54 0 89 14t58 49.5t35.5 80t25.5 120.5l148 918l-160 41z" />
<glyph unicode="&#x2c6;" horiz-adv-x="796" d="M0 1407l352 281l178 14l267 -295l-115 -133l-260 205l-336 -205z" />
<glyph unicode="&#x2c7;" horiz-adv-x="815" d="M975 1569l-361 -316l-170 -14l-282 332l127 117l254 -242l354 244z" />
<glyph unicode="&#x2c9;" horiz-adv-x="612" d="M612 1530l-37 -215h-575l37 215h575z" />
<glyph unicode="&#x2d8;" horiz-adv-x="901" d="M197 1563l174 18q0 -19 6 -42t19.5 -48.5t41.5 -42t66 -16.5q37 0 68 13.5t49 33t30 39.5t17 34l4 13l174 12q-13 -86 -52 -155t-93 -112t-118 -66t-132 -23q-117 0 -189 71t-72 193q0 15 7 78z" />
<glyph unicode="&#x2d9;" horiz-adv-x="292" d="M184 1698q0 75 49 135.5t127 60.5q123 0 123 -122q0 -89 -53.5 -143t-122.5 -54q-123 0 -123 123z" />
<glyph unicode="&#x2da;" horiz-adv-x="528" d="M143 1436q0 131 87 225t219 94q99 0 165 -56.5t66 -154.5q0 -129 -88.5 -225t-220.5 -96q-98 0 -163 59t-65 154zM428 1608q-51 0 -83 -45t-32 -103q0 -88 82 -88q51 0 83 45t32 103q0 88 -82 88z" />
<glyph unicode="&#x2db;" horiz-adv-x="706" d="M391 4h227q-10 -6 -26.5 -16t-58.5 -40t-74.5 -58.5t-59 -64.5t-26.5 -65q0 -28 18.5 -44.5t50.5 -16.5q16 0 36.5 3.5t33.5 7.5l12 3l11 -145q-109 -49 -209 -49q-83 0 -137 45t-54 125q0 59 29.5 114t76.5 95.5t81.5 64t68.5 41.5z" />
<glyph unicode="&#x2dc;" horiz-adv-x="780" d="M78 1290l-78 94q5 9 14 24.5t38.5 54.5t60.5 68.5t77.5 54t92.5 24.5q58 0 112 -23.5t104 -47t99 -23.5q35 0 72.5 21.5t57.5 42.5l20 22l92 -95q-5 -9 -14 -24t-38.5 -53.5t-61 -68t-78 -53.5t-91.5 -24q-58 0 -113 22.5t-106 45t-100 22.5q-37 0 -77 -21t-61 -42z" />
<glyph unicode="&#x2dd;" horiz-adv-x="1187" d="M160 1360l370 391l136 -164l-385 -336zM588 1360l370 391l140 -170l-389 -330z" />
<glyph unicode="&#x326;" horiz-adv-x="0" d="M115 -680l-95 98q16 15 39 39t62 74t39 72q0 20 -16.5 60t-16.5 77q0 68 48 113t110 45t97.5 -37.5t35.5 -104.5q0 -93 -86 -210.5t-217 -225.5z" />
<glyph unicode="&#x393;" horiz-adv-x="1144" d="M1217 1004h-187l-18 200h-371l-147 -968l182 -62l-29 -174h-647l29 174l157 62l148 962l-137 62l24 174l459 10h604z" />
<glyph unicode="&#x394;" d="M950 1481l299 -1276l-32 -205h-1278l34 205l715 1276h262zM954 229l-213 918l-499 -918h712z" />
<glyph unicode="&#x3a0;" horiz-adv-x="1495" d="M1458 240l47 -144q-2 -1 -6 -4q-168 -112 -342 -112q-127 0 -189.5 89.5t-33.5 278.5l133 850h-422l-156 -971l144 -49l-29 -178h-604l29 178l159 49l154 977l-141 60l26 170l455 10h879l-29 -182l-160 -60l-137 -866q-21 -129 84 -129q25 0 60 8.5t57 16.5z" />
<glyph unicode="&#x3a9;" horiz-adv-x="1593" d="M1372 0h-543l35 205q72 50 110 88q210 211 210 606q0 139 -67 226t-199 87q-85 0 -156.5 -33t-120.5 -87.5t-83 -127t-50 -150t-16 -157.5q0 -270 129 -439q3 -4 4 -5l-52 -213h-542l41 246l250 -6q-52 59 -99 168t-47 241t33 254t98.5 224.5t158 178.5t218 119t270.5 43 q254 0 405.5 -143.5t151.5 -392.5q0 -98 -25.5 -195.5t-62 -170.5t-84 -140.5t-85 -107.5t-72.5 -70l233 8z" />
<glyph unicode="&#x3bc;" horiz-adv-x="1329" d="M764 0l70 328q-5 -14 -20 -45.5t-51 -86.5t-78.5 -101t-106 -80.5t-129.5 -34.5q-31 0 -62 14l-82 -475h-289l234 1366l-160 41l29 164l454 16l-114 -705q-8 -57 -8 -69q0 -47 21 -75t63 -28q61 0 122 60t105 147.5t74 172t41 147.5l61 350h289l-144 -893l156 -35 l-29 -164z" />
<glyph unicode="&#x3c0;" horiz-adv-x="1341" d="M1274 240l47 -144q-172 -116 -326 -116q-111 0 -174 60t-63 179q0 33 14 133l76 522h-318l-139 -874h-295l142 881l-148 45l25 159l428 21h792l-28 -180l-166 -41l-82 -506q-8 -44 -8 -84q3 -88 88 -88q23 0 56.5 8.5t56.5 16.5z" />
<glyph unicode="&#x400;" horiz-adv-x="1251" d="M598 1960l496 -268l-78 -164l-514 211zM608 860h404l-35 -225h-406l-61 -389h358l74 166h184l-67 -412h-1045l29 178l160 49l153 977l-141 60l27 170l460 10h560l-64 -395h-164l-26 149h-344z" />
<glyph unicode="&#x401;" horiz-adv-x="1251" d="M477 1700q0 82 45 139t125 57q59 0 93 -33t34 -91q0 -81 -47.5 -138t-126.5 -57q-57 0 -90 33t-33 90zM913 1700q0 82 45 139t123 57q59 0 93 -33t34 -91q0 -82 -46.5 -138.5t-125.5 -56.5q-57 0 -90 33t-33 90zM608 860h404l-35 -225h-406l-61 -389h358l74 166h184 l-67 -412h-1045l29 178l160 49l153 977l-141 60l27 170l460 10h560l-64 -395h-164l-26 149h-344z" />
<glyph unicode="&#x402;" horiz-adv-x="1499" d="M821 1198l-76 -477q88 51 193.5 85t198.5 34q144 0 221.5 -77t77.5 -216q0 -119 -26.5 -219.5t-81 -181t-147.5 -126t-216 -45.5q-52 0 -117.5 12t-85.5 19l49 205q46 -6 131 -6q103 0 142.5 60t39.5 190q0 68 -39 103.5t-106 35.5q-53 0 -126 -22.5t-138 -57.5l-82 -514 h-496l29 174l194 51l154 973h-170l-80 -194h-182l68 440h1159l-70 -440h-182l-21 194h-215z" />
<glyph unicode="&#x403;" horiz-adv-x="1144" d="M688 1511l-78 164l502 267l109 -213zM1217 1004h-187l-18 200h-371l-147 -968l182 -62l-29 -174h-647l29 174l157 62l148 962l-137 62l24 174l459 10h604z" />
<glyph unicode="&#x404;" horiz-adv-x="1323" d="M1087 991l-16 199q-84 22 -186 22q-82 0 -150.5 -30t-117 -82.5t-81.5 -115.5t-55 -138h510l-35 -225h-514l-2 -60q0 -321 279 -321q174 0 389 120l84 -174q-282 -213 -549 -213q-261 0 -395.5 138.5t-134.5 404.5q0 221 63.5 402t174.5 300.5t261 184.5t322 65 q95 0 199.5 -22t161.5 -44l57 -22l-70 -389h-195z" />
<glyph unicode="&#x405;" horiz-adv-x="1212" d="M301 444l4 -176q78 -39 199 -39q97 0 172.5 49t75.5 134q0 43 -30.5 77.5t-79.5 59.5t-108 50.5t-118.5 58t-108.5 73t-79.5 104.5t-30.5 144q0 119 45 213.5t122.5 154t178.5 90.5t217 31q98 0 202.5 -20.5t159.5 -41.5l56 -20l-70 -372h-168l-25 174q-88 31 -178 31 q-97 0 -156 -43t-59 -117q0 -42 30.5 -76.5t79.5 -60t107.5 -50.5t117.5 -57t108 -71t79.5 -100t30.5 -138q0 -125 -48.5 -227.5t-130.5 -168.5t-189 -101.5t-226 -35.5q-97 0 -205 19.5t-168 39.5l-59 19l64 393h188z" />
<glyph unicode="&#x406;" horiz-adv-x="774" d="M604 0h-610l29 178l159 49l156 977l-141 60l26 170l611 10l-29 -180l-160 -62l-156 -975l144 -49z" />
<glyph unicode="&#x407;" horiz-adv-x="786" d="M219 1700q0 82 45 139t125 57q59 0 93 -33t34 -91q0 -81 -47.5 -138t-126.5 -57q-57 0 -90 33t-33 90zM655 1700q0 82 45 139t123 57q59 0 93 -33t34 -91q0 -82 -46.5 -138.5t-125.5 -56.5q-57 0 -90 33t-33 90zM600 0h-610l28 178l160 49l156 977l-141 60l26 170l610 10 l-28 -180l-160 -62l-156 -975l144 -49z" />
<glyph unicode="&#x408;" horiz-adv-x="753" d="M666 1202l-160 -993q-22 -137 -59.5 -232.5t-100 -164.5t-155 -101.5t-220.5 -32.5q-28 0 -65.5 4t-60.5 8l-23 3l59 205h96q84 0 137 50.5t68 145.5l176 1110l-141 60l27 170l610 10l-29 -180z" />
<glyph unicode="&#x409;" horiz-adv-x="1925" d="M1264 885h192q198 0 313 -83t115 -255q0 -138 -46 -244t-127.5 -171.5t-189 -98.5t-235.5 -33h-637l29 178l174 49l156 971h-287q-60 -273 -148 -594q-32 -115 -61.5 -199.5t-73 -170t-92.5 -139t-117.5 -87t-150.5 -33.5q-88 0 -184 35l98 318q37 -11 74 -11 q96 0 163.5 68t112.5 213q77 252 147 600l-258 62l31 184h1264l-27 -180l-184 -60zM1163 246h150q114 0 183 72.5t69 189.5q0 85 -53.5 123.5t-161.5 38.5h-119z" />
<glyph unicode="&#x40a;" horiz-adv-x="2041" d="M1413 883h195q194 0 310 -81t116 -245q0 -173 -79.5 -301t-213 -192t-303.5 -64h-625l29 178l159 49l66 430h-520l-68 -430l144 -49l-29 -178h-608l28 178l158 49l156 977l-142 60l27 170l610 10l-28 -180l-160 -62l-55 -319h522l55 321l-145 60l26 170l641 10l-28 -180 l-187 -62zM1313 246h151q110 0 180 77.5t70 186.5q0 147 -213 147h-123z" />
<glyph unicode="&#x40b;" horiz-adv-x="1566" d="M1497 184l-29 -184h-565l27 184l129 62l35 176q8 50 8 67q0 134 -146 134q-106 0 -235 -88l-49 -308l127 -49l-29 -178h-627l29 178l193 49l153 975h-170l-82 -198h-184l74 440h1157l-70 -440h-184l-21 198h-213l-71 -461q185 138 370 138q145 0 221 -74t76 -209 q0 -42 -10 -107l-43 -243z" />
<glyph unicode="&#x40c;" horiz-adv-x="1372" d="M803 1511l-78 164l502 267l108 -213zM1356 0h-586l29 178l116 43l-210 404h-148l-63 -398l139 -49l-29 -178h-600l29 178l160 49l153 977l-141 60l26 170l603 10l-29 -180l-158 -60l-55 -354h133l426 584l338 10l-29 -180l-155 -62l-347 -450l291 -527l135 -47z" />
<glyph unicode="&#x40d;" horiz-adv-x="1646" d="M1130 1528l-514 211l97 221l495 -268zM1694 1444l-29 -180l-160 -62l-155 -975l145 -49l-29 -178h-612l29 178l159 49l101 627l-643 -553l-13 -74l144 -49l-29 -178h-608l29 178l157 49l156 977l-141 60l26 170l610 10l-28 -180l-160 -62l-100 -627l643 558l12 71 l-145 60l26 170z" />
<glyph unicode="&#x40e;" horiz-adv-x="1284" d="M1147 1946l98 -68q-61 -115 -187 -201t-270 -86q-150 0 -237.5 79t-106.5 218l228 58q17 -174 196 -174q82 0 155 47t124 127zM1493 1444l-29 -184l-149 -62l-428 -747q-272 -476 -553 -476q-126 0 -275 66l91 229q96 -39 202 -39q112 0 207 105l-336 862l-141 62l27 174 l622 10l-29 -184l-170 -62l209 -573l326 573l-160 62l27 174z" />
<glyph unicode="&#x40f;" horiz-adv-x="1556" d="M1608 1444l-29 -182l-158 -62l-155 -964l147 -62l-27 -174h-561l-108 -399h-191l19 399h-547l25 176l159 53l156 971l-141 62l26 172l617 10l-27 -182l-168 -62l-153 -954h469l153 954l-151 66l26 168z" />
<glyph unicode="&#x410;" horiz-adv-x="1456" d="M1386 180l-30 -180h-606l28 178l162 51l-25 150h-452l-74 -156l141 -45l-28 -178h-580l29 180l137 47l629 1203l315 14l236 -1223zM565 598h316l-76 494z" />
<glyph unicode="&#x411;" horiz-adv-x="1290" d="M645 1204l-61 -381h198q219 0 337.5 -98.5t90.5 -290.5q-35 -215 -188.5 -324.5t-400.5 -109.5h-627l29 174l159 55l156 975l-141 60l26 170l459 10h604l-67 -422h-185l-22 182h-367zM549 608l-57 -362h157q101 0 166 54t76 134q12 85 -43 129.5t-174 44.5h-125z" />
<glyph unicode="&#x412;" horiz-adv-x="1337" d="M682 1444h197q170 0 285.5 -81t115.5 -230q0 -147 -86 -243.5t-217 -135.5q250 -72 250 -273q0 -156 -79.5 -266.5t-209.5 -162.5t-297 -52h-647l29 178l159 49l154 977l-141 60l26 170zM588 854h112q117 0 189 59t72 158q0 65 -43.5 98t-114.5 33h-160zM489 240h146 q129 0 199.5 63.5t70.5 161.5q0 92 -56.5 133t-176.5 41h-119z" />
<glyph unicode="&#x413;" horiz-adv-x="1144" d="M1217 1004h-187l-18 200h-371l-147 -968l182 -62l-29 -174h-647l29 174l157 62l148 962l-137 62l24 174l459 10h604z" />
<glyph unicode="&#x414;" horiz-adv-x="1486" d="M1323 1198l-154 -962l234 -31l-88 -604h-185l-55 399h-848l-166 -399h-188l94 608q64 21 108.5 44t91.5 64.5t82.5 108.5t61.5 162q50 182 142 610l-244 62l31 184h1269l-28 -184zM1016 1198h-326q-63 -310 -143 -608q-38 -147 -67 -220t-81 -124h463z" />
<glyph unicode="&#x415;" horiz-adv-x="1251" d="M608 860h404l-35 -225h-406l-61 -389h358l74 166h184l-67 -412h-1045l29 178l160 49l153 977l-141 60l27 170l460 10h560l-64 -395h-164l-26 149h-344z" />
<glyph unicode="&#x416;" horiz-adv-x="2007" d="M1925 1206l-338 -446l297 -524l146 -62l-29 -174h-617l29 174l131 62l-219 389h-158l-61 -389l119 -62l-29 -174h-541l29 174l135 62l76 471l-14 -82h-156l-342 -389l115 -62l-29 -174h-619l29 174l162 62l465 524l-199 446l-184 58l29 180l362 -10l250 -584h154l55 352 l-144 62l27 170l596 10l-29 -180l-163 -62l-56 -350h150l434 584l371 8l-29 -180z" />
<glyph unicode="&#x417;" horiz-adv-x="1191" d="M158 1026l45 360q26 9 72 22.5t169 36.5t226 23q233 0 361 -81t128 -234q0 -145 -79 -249.5t-232 -149.5q109 -32 170 -109t61 -184q0 -146 -82 -257.5t-226.5 -171t-330.5 -59.5q-260 0 -477 111l109 223q198 -82 379 -82q139 0 225 66t86 174q0 86 -64.5 128t-199.5 42 h-193l35 215h186q161 0 239.5 64t78.5 161q0 69 -58 106.5t-174 37.5q-49 0 -100 -6.5t-78 -13.5l-26 -7l-39 -166h-211z" />
<glyph unicode="&#x418;" horiz-adv-x="1646" d="M1694 1444l-29 -180l-160 -62l-155 -975l145 -49l-29 -178h-612l29 178l159 49l101 627l-643 -553l-13 -74l144 -49l-29 -178h-608l29 178l157 49l156 977l-141 60l26 170l610 10l-28 -180l-160 -62l-100 -627l643 558l12 71l-145 60l26 170z" />
<glyph unicode="&#x419;" horiz-adv-x="1646" d="M1331 1946l99 -68q-61 -115 -187 -201t-270 -86q-150 0 -237.5 79t-106.5 218l227 58q17 -174 197 -174q82 0 154 47t124 127zM1694 1444l-29 -180l-160 -62l-155 -975l145 -49l-29 -178h-612l29 178l159 49l101 627l-643 -553l-13 -74l144 -49l-29 -178h-608l29 178 l157 49l156 977l-141 60l26 170l610 10l-28 -180l-160 -62l-100 -627l643 558l12 71l-145 60l26 170z" />
<glyph unicode="&#x41a;" horiz-adv-x="1372" d="M1356 0h-586l29 178l116 43l-210 404h-148l-63 -398l139 -49l-29 -178h-600l29 178l160 49l153 977l-141 60l26 170l603 10l-29 -180l-158 -60l-55 -354h133l426 584l338 10l-29 -180l-155 -62l-347 -450l291 -527l135 -47z" />
<glyph unicode="&#x41b;" horiz-adv-x="1456" d="M1524 1444l-29 -184l-160 -62l-151 -962l143 -62l-29 -174h-624l28 174l175 62l151 962h-317q-60 -273 -148 -594q-32 -115 -61.5 -199.5t-73 -170t-92.5 -139t-117.5 -87t-150.5 -33.5q-89 0 -185 35l99 318q37 -11 73 -11q96 0 164 68t113 213q77 252 147 600l-258 62 l31 184h1272z" />
<glyph unicode="&#x41c;" horiz-adv-x="1746" d="M553 0h-569l28 178l158 49l156 977l-142 60l27 170l508 10l196 -692l416 682l486 10l-31 -180l-158 -62l-153 -973l141 -51l-29 -178h-579l28 178l152 51l115 729l-359 -583l-221 -15l-170 590l-115 -723l144 -49z" />
<glyph unicode="&#x41d;" horiz-adv-x="1603" d="M1434 0h-613l29 178l160 49l63 398h-522l-64 -398l144 -49l-29 -178h-608l29 178l157 49l156 977l-141 60l26 170l610 10l-28 -180l-160 -62l-55 -338h522l55 340l-145 60l27 170l614 10l-29 -180l-159 -62l-156 -975l145 -49z" />
<glyph unicode="&#x41e;" horiz-adv-x="1499" d="M627 -27q-247 0 -381.5 137.5t-134.5 393.5q0 156 35 300.5t103.5 264.5t164 209.5t222.5 139.5t273 50q251 0 392 -142.5t141 -393.5q0 -196 -59 -371.5t-163.5 -305.5t-258.5 -206t-334 -76zM1114 920q0 292 -246 292q-104 0 -189.5 -66.5t-136 -171t-77.5 -220.5 t-27 -226q0 -144 60.5 -221.5t179.5 -77.5q103 0 188.5 66t138 169.5t81 222.5t28.5 233z" />
<glyph unicode="&#x41f;" horiz-adv-x="1574" d="M1630 1444l-26 -184l-160 -62l-154 -967l142 -57l-29 -174h-606l28 174l158 57l154 967h-496l-149 -967l141 -57l-29 -174h-606l27 174l157 57l152 971l-139 62l26 170l459 10h950z" />
<glyph unicode="&#x420;" horiz-adv-x="1239" d="M-6 0l29 178l159 49l154 977l-141 60l26 170l461 10h192q87 0 161 -20.5t133 -61t92.5 -109.5t33.5 -159q0 -122 -34.5 -221.5t-94.5 -167.5t-143 -114.5t-178.5 -67.5t-202.5 -21h-109l-43 -275l148 -49l-29 -178h-614zM569 741h109q153 0 227 80t74 209 q0 89 -50.5 130.5t-127.5 41.5h-158z" />
<glyph unicode="&#x421;" horiz-adv-x="1320" d="M1130 983l-26 193q-111 36 -221 36q-104 0 -189.5 -56t-139 -148.5t-82 -206.5t-28.5 -234q0 -151 75.5 -240t195.5 -89q196 0 401 143l109 -172q-41 -35 -89 -68t-124.5 -75t-172 -67.5t-192.5 -25.5q-243 0 -388.5 145.5t-145.5 391.5q0 278 102.5 496.5t286 340 t416.5 121.5q108 0 219 -24t168 -48l57 -24l-62 -389h-170z" />
<glyph unicode="&#x422;" horiz-adv-x="1181" d="M385 227l154 975h-191l-82 -198h-184l74 440h1157l-70 -440h-184l-21 198h-192l-154 -975l158 -49l-29 -178h-637l29 178z" />
<glyph unicode="&#x423;" horiz-adv-x="1284" d="M1493 1444l-29 -184l-149 -62l-428 -747q-272 -476 -553 -476q-126 0 -275 66l91 229q96 -39 202 -39q112 0 207 105l-336 862l-141 62l27 174l622 10l-29 -184l-170 -62l209 -573l326 573l-160 62l27 174z" />
<glyph unicode="&#x424;" horiz-adv-x="1837" d="M1180 1352l-13 -76q318 -14 475.5 -112t157.5 -292q0 -569 -788 -620l-11 -68l144 -51l-29 -174h-579l28 174l154 51l10 66q-319 13 -469.5 111t-150.5 292q0 286 193.5 439.5t580.5 179.5l12 80l-143 51l26 184h584l-29 -184zM1139 1087l-97 -634q136 7 224.5 30t142 70 t75 113.5t21.5 167.5q0 127 -85.5 184.5t-280.5 68.5zM760 453l94 632q-234 -19 -343.5 -112t-109.5 -295q0 -113 81.5 -164.5t277.5 -60.5z" />
<glyph unicode="&#x425;" horiz-adv-x="1361" d="M500 0h-588l29 178l155 47l422 492l-278 508l-127 39l26 170l604 10l-28 -180l-101 -31l144 -285l231 279l-86 37l27 170l577 10l-28 -180l-156 -43l-424 -478l285 -524l139 -41l-29 -178h-612l29 178l98 25l-143 297l-236 -287l98 -35z" />
<glyph unicode="&#x426;" horiz-adv-x="1587" d="M1270 236l233 -31l-88 -604h-184l-55 399h-1178l25 176l161 60l154 964l-141 62l26 172l617 10l-27 -182l-168 -62l-153 -954h469l153 954l-151 66l26 168l619 10l-29 -182l-158 -62z" />
<glyph unicode="&#x427;" horiz-adv-x="1458" d="M1516 1444l-31 -182l-158 -58l-153 -975l143 -53l-29 -176h-653l27 176l204 53l47 301q-169 -69 -358 -69q-91 0 -162.5 27.5t-120 82t-67 141.5t-2.5 199l43 293l-131 56l28 184h584l-27 -184l-147 -56l-43 -246q-24 -132 18 -186.5t146 -54.5q138 0 274 37l72 450 l-131 56l26 174z" />
<glyph unicode="&#x428;" horiz-adv-x="2191" d="M2243 1444l-29 -184l-160 -56l-151 -975l145 -53l-27 -176h-2025l29 176l159 55l152 973l-139 56l24 174l598 10l-26 -184l-150 -56l-151 -958h399l149 958l-129 56l27 174l588 10l-29 -184l-147 -56l-152 -958h397l152 958l-139 56l26 174z" />
<glyph unicode="&#x429;" horiz-adv-x="2220" d="M2054 1204l-151 -968l235 -31l-90 -604h-184l-56 399h-1812l29 174l161 62l150 968l-139 56l24 174l598 10l-26 -184l-150 -56l-151 -958h399l149 958l-129 56l27 174l588 10l-29 -184l-147 -56l-152 -958h397l152 958l-139 56l26 174l609 10l-29 -184z" />
<glyph unicode="&#x42a;" horiz-adv-x="1406" d="M778 885h191q198 0 313 -83t115 -255q0 -138 -46 -244t-127.5 -171.5t-189 -98.5t-235.5 -33h-621l29 178l160 51l153 969h-168l-80 -194h-184l68 440h907l-27 -182l-209 -62zM676 246h149q114 0 183 72.5t69 189.5q0 85 -53.5 123.5t-161.5 38.5h-119z" />
<glyph unicode="&#x42b;" horiz-adv-x="1951" d="M594 885h192q198 0 313 -83t115 -255q0 -138 -46 -244t-127.5 -171.5t-189 -98.5t-235.5 -33h-620l29 178l157 49l156 977l-143 60l26 170l635 10l-27 -180l-184 -60zM2011 1444l-29 -180l-159 -62l-156 -975l143 -49l-28 -178h-608l28 178l158 49l156 977l-142 60 l27 170zM494 246h149q114 0 183 72.5t69 189.5q0 85 -53.5 123.5t-161.5 38.5h-119z" />
<glyph unicode="&#x42c;" horiz-adv-x="1245" d="M594 885h192q198 0 313 -83t115 -255q0 -138 -46 -244t-127.5 -171.5t-189 -98.5t-235.5 -33h-620l29 178l157 49l156 977l-143 60l26 170l635 10l-27 -180l-184 -60zM494 246h149q114 0 183 72.5t69 189.5q0 85 -53.5 123.5t-161.5 38.5h-119z" />
<glyph unicode="&#x42d;" horiz-adv-x="1323" d="M184 991l47 375q241 102 494 102q262 0 400.5 -138t138.5 -404q0 -210 -60.5 -388t-167 -301.5t-254.5 -192.5t-319 -69q-224 0 -449 201l144 186q173 -120 346 -120q76 0 141.5 29.5t113.5 82t83 119t57 145.5h-510l33 226h514v39q0 168 -69.5 244.5t-209.5 76.5 q-56 0 -110 -5.5t-81 -10.5l-26 -6l-61 -191h-195z" />
<glyph unicode="&#x42e;" horiz-adv-x="2117" d="M594 864h246q82 272 273.5 438t453.5 166q251 0 391.5 -142.5t140.5 -393.5q0 -199 -53 -372t-151.5 -304.5t-250.5 -207t-339 -75.5q-247 0 -382 137.5t-135 393.5q0 53 7 121h-238l-63 -398l143 -49l-29 -178h-608l29 178l157 49l156 977l-141 60l26 170l611 10 l-29 -180l-160 -62zM1356 229q88 0 160.5 44t119 114t78 162.5t45 185t13.5 185.5q0 292 -246 292q-78 0 -146.5 -44t-115.5 -115.5t-81.5 -162t-50.5 -183.5t-16 -179q0 -144 60.5 -221.5t179.5 -77.5z" />
<glyph unicode="&#x42f;" horiz-adv-x="1353" d="M608 176l156 53l47 297h-90q-55 0 -99.5 -40t-123.5 -148l-246 -338h-369l27 174l174 51l178 209q67 78 112 120t87 60q-45 17 -87 46t-80 70.5t-60.5 99.5t-22.5 124q0 223 163 356.5t427 133.5h610l-27 -182l-161 -62l-152 -971l141 -53l-28 -176h-604zM915 1198h-163 q-102 0 -168 -72.5t-66 -179.5q0 -106 60 -155.5t184 -49.5h82z" />
<glyph unicode="&#x430;" horiz-adv-x="1259" d="M1153 20l-440 -20l71 303q-7 -14 -24.5 -42t-60 -79.5t-90.5 -94t-119.5 -75t-143.5 -32.5q-132 0 -212.5 105.5t-80.5 264.5q0 149 35 276.5t94.5 218t139.5 155t171 95.5t187 31q63 0 123 -19t89 -37l28 -19l59 55h186l-143 -893l158 -31zM803 711l31 170 q-60 24 -150 24q-141 0 -232.5 -146.5t-91.5 -369.5q0 -81 27.5 -125.5t73.5 -44.5q57 0 113.5 50.5t96 123t70.5 145t47 122.5z" />
<glyph unicode="&#x431;" horiz-adv-x="1273" d="M1251 1640l49 -225q-58 -15 -147.5 -34t-159 -36t-131.5 -38q-48 -16 -89 -33.5t-91.5 -49t-89 -69t-72.5 -94.5t-51 -125q66 78 166.5 119t210.5 41q171 0 261.5 -105.5t90.5 -316.5q0 -157 -50 -289t-136 -220t-202 -136.5t-247 -48.5q-199 0 -304 117t-105 333 q0 124 19 249.5t66.5 261t118 247t183.5 202t254 132.5q268 78 456 118zM592 215q84 0 147.5 44t97 113.5t49 141t15.5 141.5q0 110 -39.5 157.5t-124.5 47.5q-62 0 -115 -23.5t-97 -73t-69.5 -137.5t-25.5 -206q0 -106 39.5 -155.5t122.5 -49.5z" />
<glyph unicode="&#x432;" horiz-adv-x="1089" d="M848 551q129 -57 129 -203q0 -85 -45 -156.5t-117 -116.5t-158 -70t-172 -25q-201 0 -311.5 105.5t-110.5 303.5q0 203 84.5 372.5t231 267t321.5 97.5q161 0 249.5 -76t88.5 -196q0 -201 -190 -303zM635 899q-101 0 -172.5 -85t-100.5 -220q157 10 245.5 35.5 t119.5 62.5t31 96q0 48 -32 79.5t-91 31.5zM506 184q82 0 141.5 49t59.5 136q0 76 -54 96q-34 13 -131 6l-67 -6q-70 -4 -109 -6v-29q0 -125 38 -185.5t122 -60.5z" />
<glyph unicode="&#x433;" horiz-adv-x="1024" d="M825 299l82 -152q-252 -167 -487 -167q-100 0 -180 31t-130.5 98t-50.5 161q0 83 32.5 151.5t84 112.5t114 80t125 63t114 51.5t84 54.5t32.5 65q0 74 -92 74q-55 0 -126.5 -20.5t-116.5 -41.5l-44 -20l-76 143q39 24 97.5 52t161.5 59.5t186 31.5q142 0 226.5 -72.5 t84.5 -207.5q0 -83 -33 -151.5t-85.5 -113t-116.5 -80.5t-128 -63t-116.5 -52t-85.5 -55t-33 -65q0 -71 103 -71q65 0 152.5 23.5t137.5 43.5t84 37z" />
<glyph unicode="&#x434;" horiz-adv-x="1175" d="M385 1358l-12 192q133 49 266 49q97 0 177 -30.5t146 -96t103 -182.5t37 -276q0 -77 -5 -155t-22 -183.5t-44.5 -198t-77 -186.5t-114.5 -160.5t-162.5 -108.5t-215.5 -42q-194 0 -297 116t-103 344q0 184 62 333t175.5 236t258.5 87q67 0 123 -19t91.5 -49t56.5 -59 t32 -58q15 127 -0.5 222.5t-56 149.5t-93 80t-116.5 26q-82 0 -209 -31zM520 225q61 0 110.5 26.5t80.5 68t52 93.5t29.5 100.5t8.5 92.5q0 71 -16.5 128t-58.5 96.5t-105 39.5q-82 0 -144 -65t-90.5 -156t-28.5 -188q0 -122 40 -179t122 -57z" />
<glyph unicode="&#x435;" horiz-adv-x="1069" d="M856 289l86 -152q-41 -28 -102.5 -60t-170.5 -64.5t-208 -32.5q-187 0 -297.5 100t-110.5 278q0 166 49.5 310.5t133 244t196.5 156.5t238 57q181 0 285 -79t104 -213q0 -177 -187.5 -286t-519.5 -112q0 -126 47.5 -173.5t145.5 -47.5q42 0 95 10.5t87.5 21t79.5 26 t49 16.5zM762 797q0 98 -117 98q-91 0 -164 -77.5t-104 -201.5q186 4 285.5 55.5t99.5 125.5z" />
<glyph unicode="&#x436;" horiz-adv-x="1957" d="M1772 768l-17 133q-2 1 -14 6t-17 7t-17 4t-24 2q-60 0 -114 -80t-85.5 -210.5t-31.5 -271.5q0 -92 34 -143t95 -51q32 0 68.5 8.5t60 17.5t53 22t35.5 15l57 -133q-60 -39 -158.5 -76.5t-199.5 -37.5q-135 0 -202.5 91.5t-67.5 256.5q0 76 10 164h-143l-78 -492h-246 l78 492h-148q-54 -234 -185 -373t-298 -139q-123 0 -242 53l58 305h153l17 -133q30 -12 76 -12q60 0 113 78.5t83.5 206.5t30.5 270q0 92 -34 143t-95 51q-32 0 -68.5 -8.5t-60 -17.5t-53 -22t-35.5 -15l-58 133q59 38 158.5 76t200.5 38q135 0 202.5 -91.5t67.5 -256.5 q0 -36 -4 -102h150l67 424l246 10l-68 -434h152q60 208 185.5 329t281.5 121q122 0 241 -53l-57 -305h-153z" />
<glyph unicode="&#x437;" horiz-adv-x="995" d="M-27 100l78 181q176 -86 324 -86q85 0 135.5 35.5t50.5 109.5q0 65 -46 97t-155 32h-98l27 184h88q127 0 181 34.5t54 105.5q0 118 -145 118q-89 0 -162 -30l-26 -121h-187l41 276q68 42 167.5 66t201.5 24q81 0 149 -15.5t121.5 -47t84 -84t30.5 -121.5q0 -109 -72 -180 t-194 -100q46 -5 85.5 -20.5t74.5 -44t55 -77t20 -112.5q0 -95 -65 -175t-175.5 -126t-238.5 -46q-131 0 -222 30.5t-182 92.5z" />
<glyph unicode="&#x438;" d="M741 0l70 326q-9 -18 -24.5 -44.5t-59.5 -84.5t-92 -102t-121.5 -79.5t-148.5 -35.5q-226 0 -226 247q0 62 11 121l88 537l-158 41l26 164l455 16l-112 -703q-7 -47 -7 -71q0 -103 78 -103q51 0 101.5 41t86 97.5t68 128t48.5 119t26 85.5l68 406h288l-141 -893l156 -31 l-27 -162z" />
<glyph unicode="&#x439;" d="M406 1546l227 58q17 -174 196 -174q82 0 155 47t124 127l98 -68q-61 -115 -186.5 -201t-269.5 -86q-150 0 -237.5 79t-106.5 218zM741 0l70 326q-9 -18 -24.5 -44.5t-59.5 -84.5t-92 -102t-121.5 -79.5t-148.5 -35.5q-226 0 -226 247q0 62 11 121l88 537l-158 41l26 164 l455 16l-112 -703q-7 -47 -7 -71q0 -103 78 -103q51 0 101.5 41t86 97.5t68 128t48.5 119t26 85.5l68 406h288l-141 -893l156 -31l-27 -162z" />
<glyph unicode="&#x43a;" horiz-adv-x="1146" d="M516 694h133l168 209l-82 29l25 164l487 10l-26 -174l-134 -25l-241 -280l170 -416l147 -47l-22 -164h-355l-180 500h-121l-82 -500h-294l141 887l-160 39l29 166l465 18z" />
<glyph unicode="&#x43b;" horiz-adv-x="1253" d="M1163 184l-26 -164l-459 -20l133 860h-223q-28 -132 -51.5 -228t-53.5 -193.5t-60.5 -164t-70 -126t-85 -94t-102 -54.5t-124.5 -20q-79 0 -147 28l69 236q39 -13 80 -13q55 0 99 26.5t77.5 74t63 131t52.5 180t50 238.5l-233 45l28 180h967l-139 -891z" />
<glyph unicode="&#x43c;" horiz-adv-x="1826" d="M1714 164l-26 -164h-437l129 750l-499 -750l-140 -10l-192 694q-34 -147 -65.5 -250t-73 -194t-90 -145t-113.5 -84.5t-146 -30.5q-79 0 -147 28l70 236q39 -13 79 -13q44 0 79 16.5t64 55t52 87t45.5 127.5t40.5 161.5t41 202.5l-231 45l30 180h512l211 -748l479 738 l324 10l-151 -891z" />
<glyph unicode="&#x43d;" horiz-adv-x="1384" d="M1294 184l-26 -164l-459 -20l72 465h-400l-71 -465h-299l135 881l-154 51l25 164l463 10l-66 -426h401l64 414l301 12l-139 -891z" />
<glyph unicode="&#x43e;" horiz-adv-x="1185" d="M500 -20q-208 0 -323.5 112.5t-115.5 317.5q0 325 170 520.5t449 195.5q210 0 326 -115.5t116 -316.5q0 -324 -171 -519t-451 -195zM815 707q-3 86 -47.5 130t-122.5 44q-125 0 -200.5 -131.5t-75.5 -323.5q0 -201 166 -201q79 0 136.5 46t87 121t43 153.5t13.5 161.5z " />
<glyph unicode="&#x43f;" horiz-adv-x="1327" d="M578 1106l-70 -328q9 18 25 45t60 85t92.5 102.5t122 80t148.5 35.5q117 0 176.5 -67t59.5 -182q0 -51 -10 -119l-95 -543l160 -31l-26 -164l-463 -20l112 696q9 61 9 74q0 100 -78 100q-63 0 -126.5 -65.5t-107.5 -155.5t-72.5 -172t-33.5 -127l-60 -350h-295l142 885 l-158 41l27 164z" />
<glyph unicode="&#x440;" horiz-adv-x="1261" d="M563 1106l-82 -311q10 21 23.5 45.5t55 80.5t87 97t117 74.5t147.5 33.5q139 0 217 -108t78 -270q0 -175 -53.5 -322.5t-142.5 -242.5t-201.5 -148t-233.5 -53q-103 0 -180 36l-45 -274l158 -51l-27 -164h-452l211 1356l-150 41l27 164zM461 395l-31 -168q69 -22 145 -22 q83 0 157.5 64.5t120.5 179.5t46 251q0 77 -28.5 129t-84.5 52q-42 0 -83 -27t-72.5 -69.5t-59.5 -94.5t-47.5 -104t-34 -94.5t-21.5 -69.5z" />
<glyph unicode="&#x441;" horiz-adv-x="993" d="M819 309l88 -162q-242 -167 -467 -167q-179 0 -281 102.5t-102 292.5q0 339 176 545t459 206q32 0 63.5 -3.5t60.5 -10t52 -12.5t49 -16t38.5 -15.5t33 -14.5t21.5 -10l-52 -323h-180l-10 143q-41 19 -109 19q-74 0 -133.5 -41.5t-94.5 -109.5t-53 -149t-18 -167 q0 -89 45 -140t123 -51q24 0 50 3.5t52.5 10t47 12.5t46.5 16.5t38 15.5t34 15t23 11z" />
<glyph unicode="&#x442;" horiz-adv-x="1921" d="M569 1106l-67 -330q96 193 234 285q96 65 198 65q112 0 166.5 -67.5t54.5 -179.5q0 -35 -6 -76q18 36 40.5 72t62 83.5t83 82.5t103.5 60t123 25q116 0 170.5 -66t54.5 -183q0 -51 -10 -119l-88 -543l153 -31l-26 -164l-453 -20l115 700q6 40 6 74q0 100 -78 100 q-54 0 -106 -48.5t-92 -126t-68.5 -153t-48.5 -151.5l-64 -395h-289l113 700q6 40 6 74q0 100 -78 100q-52 0 -102.5 -48t-91.5 -128t-72.5 -167t-56.5 -183l-58 -348h-288l139 885l-158 41l27 164z" />
<glyph unicode="&#x443;" horiz-adv-x="1153" d="M18 926l25 164l393 16l139 -668l13 -127l241 586l-127 29l25 164l514 16l-29 -174l-100 -33l-391 -866q-47 -104 -82 -174t-75 -133.5t-76 -101t-81.5 -65.5t-95.5 -39.5t-114 -11.5q-55 0 -120 10t-103 20l-37 11l57 205q79 -10 151 -10q102 0 152 40.5t104 158.5 l-241 948z" />
<glyph unicode="&#x444;" horiz-adv-x="1560" d="M1069 1587l-72 -450q248 -21 376 -138.5t128 -312.5q0 -289 -183.5 -468t-500.5 -212l-43 -262l158 -51l-29 -164h-403l75 475q-253 20 -383.5 135.5t-130.5 304.5q0 287 189 472t508 219l37 231l-158 41l27 180h405zM967 944l-119 -741q182 31 275.5 149.5t93.5 315.5 q0 238 -250 276zM608 201l117 737q-181 -34 -281 -154t-100 -303q0 -111 65 -184t199 -96z" />
<glyph unicode="&#x445;" horiz-adv-x="1122" d="M1165 932l-145 -33l-283 -344l178 -354l156 -29l-27 -162l-350 -20l-172 377l-260 -367h-315l26 164l138 47l278 352l-174 332l-145 31l26 164l340 16l162 -363l262 353l334 10z" />
<glyph unicode="&#x446;" horiz-adv-x="1384" d="M1204 -358h-260l221 436l-12 12q-63 -52 -106 -74t-103 -22q-98 0 -138.5 82t-17.5 239q-15 -28 -35 -59t-63.5 -84t-90 -92.5t-114.5 -69.5t-137 -30q-225 0 -225 247q0 49 15 148.5t83 509.5l-158 41l27 164l455 16q-114 -707 -118 -752q-1 -12 -1 -22q0 -103 78 -103 q51 0 101.5 41t86 97.5t68 128t48.5 119t26 85.5l67 406h283l-144 -897l263 16l24 -28z" />
<glyph unicode="&#x447;" horiz-adv-x="1220" d="M1130 184l-26 -164l-459 -20l92 520q-32 -45 -84 -90.5t-133.5 -84t-161.5 -38.5q-169 0 -222 109.5t-19 324.5l22 142l-131 49l27 164l440 10l-59 -340q-22 -116 -3.5 -164.5t93.5 -48.5q68 0 142.5 52.5t119.5 117.5l53 371l295 12l-139 -891z" />
<glyph unicode="&#x448;" horiz-adv-x="1916" d="M1827 182l-27 -162l-452 -20l69 326q-7 -13 -13.5 -26t-30 -50.5t-47 -68.5t-61.5 -70.5t-76.5 -66t-88.5 -45.5t-101 -19q-57 0 -99 23t-65 57.5t-36 82.5t-16 90t-1 89q-16 -33 -37 -68t-61.5 -87t-83 -91t-102.5 -67.5t-121 -28.5q-225 0 -225 247q0 46 12 126.5 t62 386.5q15 92 24 145l-158 41l27 164l454 16q-113 -713 -116 -746q-2 -16 -2 -28q0 -103 77 -103q47 0 100 54.5t94.5 130.5t71.5 149.5t40 120.5l61 406l297 16q-18 -111 -46 -286q-72 -451 -73 -488q0 -103 78 -103q46 0 98.5 59t93.5 143t69 155t40 114l68 406h288 l-141 -893z" />
<glyph unicode="&#x449;" horiz-adv-x="2011" d="M1792 78l-12 12q-63 -52 -106 -74t-103 -22q-99 0 -139.5 85.5t-14.5 246.5q-7 -13 -13.5 -26t-30 -50.5t-47 -68.5t-61.5 -70.5t-76.5 -66t-88.5 -45.5t-101 -19q-53 0 -93.5 23t-63.5 58.5t-37 84t-18 91.5t-3 89q-16 -33 -36 -67t-61 -87.5t-83.5 -93t-103.5 -69 t-123 -29.5q-225 0 -225 247q0 41 8.5 102t47.5 298q25 156 42 258l-158 41l27 164l454 16q-85 -521 -101.5 -630.5t-16.5 -143.5q0 -103 77 -103q47 0 100 54.5t94.5 130.5t71.5 149.5t40 120.5l61 406l297 16q-115 -719 -118 -746q-1 -15 -1 -28q0 -103 78 -103 q47 0 99 56t92.5 135t70 154.5t39.5 125.5l68 406h288l-145 -897l262 16l25 -28l-123 -555h-260z" />
<glyph unicode="&#x44a;" horiz-adv-x="1212" d="M809 1106l-31 -174q-162 -247 -221 -406q32 39 67 73t83.5 70t106.5 57.5t116 21.5q115 0 181.5 -70t66.5 -186q0 -105 -41 -200.5t-109 -163.5t-160 -108t-190 -40q-367 0 -367 317q0 207 207 584h-213l-57 -187h-193l33 412h721zM676 205q79 0 135.5 57.5t56.5 151.5 q0 41 -27 64.5t-73 23.5q-51 0 -109.5 -38t-89.5 -91q-6 -24 -6 -54q0 -114 113 -114z" />
<glyph unicode="&#x44b;" horiz-adv-x="1656" d="M518 737l-45 -137q47 42 128 85.5t161 43.5q116 0 187 -73t71 -195q0 -218 -147 -349.5t-375 -131.5q-185 0 -278 111t-52 317l96 473l-151 51l24 164l461 10zM1411 215l156 -31l-27 -164l-459 -20l174 1106h297zM547 205q79 0 121.5 61.5t42.5 145.5q0 44 -23.5 69 t-62.5 25q-86 0 -174 -88q-16 -109 3.5 -161t92.5 -52z" />
<glyph unicode="&#x44c;" horiz-adv-x="1083" d="M518 737l-45 -137q47 42 128 85.5t161 43.5q116 0 187 -73t71 -195q0 -218 -147 -349.5t-375 -131.5q-185 0 -278 111t-52 317l96 473l-151 51l24 164l461 10zM547 205q79 0 121.5 61.5t42.5 145.5q0 44 -23.5 69t-62.5 25q-86 0 -174 -88q-16 -109 3.5 -161t92.5 -52z " />
<glyph unicode="&#x44d;" horiz-adv-x="1050" d="M119 729l39 313q22 9 60 23t138.5 37.5t180.5 23.5q217 0 334.5 -109.5t117.5 -318.5q0 -206 -80.5 -370.5t-222 -256t-317.5 -91.5q-243 0 -404 161l129 189q43 -29 71.5 -46t90.5 -38t121 -21q87 0 158.5 57.5t107.5 159.5h-360l43 205h348q-2 114 -45.5 174t-147.5 60 q-31 0 -65 -4.5t-52 -8.5l-18 -4l-47 -135h-180z" />
<glyph unicode="&#x44e;" horiz-adv-x="1798" d="M561 680h131q62 209 215 327.5t367 118.5q210 0 326 -115.5t116 -316.5q0 -324 -171 -519t-451 -195q-208 0 -323.5 112.5t-115.5 317.5l2 55h-131l-71 -465h-297l135 881l-150 51l25 164l459 10zM1128 225q79 0 136.5 46t87.5 121t43.5 153.5t13.5 161.5 q-3 86 -47.5 130t-122.5 44q-125 0 -200.5 -131.5t-75.5 -323.5q0 -201 165 -201z" />
<glyph unicode="&#x44f;" horiz-adv-x="1185" d="M1106 184l-27 -164l-452 -20l65 391q-52 -10 -106 -10h-19q-60 -114 -144 -221t-157 -160h-344l27 164l133 41q68 40 138.5 106t113.5 127q-75 42 -112.5 109t-37.5 149q0 61 20.5 121t63.5 115.5t103 98t145.5 68t185.5 25.5q174 0 390 -51l-136 -858zM723 580l53 317 q-47 14 -94 14q-93 0 -155 -59t-62 -150q0 -135 168 -135q40 0 90 13z" />
<glyph unicode="&#x450;" horiz-adv-x="1069" d="M477 1722l533 -346l-78 -153l-555 270zM856 289l86 -152q-41 -28 -102.5 -60t-170.5 -64.5t-208 -32.5q-187 0 -297.5 100t-110.5 278q0 166 49.5 310.5t133 244t196.5 156.5t238 57q181 0 285 -79t104 -213q0 -177 -187.5 -286t-519.5 -112q0 -126 47.5 -173.5 t145.5 -47.5q42 0 95 10.5t87.5 21t79.5 26t49 16.5zM762 797q0 98 -117 98q-91 0 -164 -77.5t-104 -201.5q186 4 285.5 55.5t99.5 125.5z" />
<glyph unicode="&#x451;" horiz-adv-x="1069" d="M856 289l86 -152q-41 -28 -102.5 -60t-170.5 -64.5t-208 -32.5q-187 0 -297.5 100t-110.5 278q0 166 49.5 310.5t133 244t196.5 156.5t238 57q181 0 285 -79t104 -213q0 -177 -187.5 -286t-519.5 -112q0 -126 47.5 -173.5t145.5 -47.5q42 0 95 10.5t87.5 21t79.5 26 t49 16.5zM762 797q0 98 -117 98q-91 0 -164 -77.5t-104 -201.5q186 4 285.5 55.5t99.5 125.5zM209 1421q0 83 45 140t125 57q59 0 93 -33.5t34 -91.5q0 -81 -47.5 -138t-126.5 -57q-57 0 -90 33t-33 90zM645 1421q0 82 45 139.5t123 57.5q59 0 93 -33.5t34 -91.5 q0 -82 -46.5 -138.5t-125.5 -56.5q-57 0 -90 33t-33 90z" />
<glyph unicode="&#x452;" horiz-adv-x="1277" d="M565 1137l-73 -426q5 13 22.5 44t59 85t90 100t121 80.5t147.5 34.5q229 0 229 -244q0 -125 -51 -401q-27 -146 -49.5 -252t-48 -200t-49 -157t-54.5 -115t-62.5 -81.5t-74.5 -50t-89.5 -28t-107.5 -7.5q-53 0 -104 9.5t-75 18.5l-25 9l55 188q70 -12 119 -12 q34 0 53 4.5t42 27t38.5 61t37.5 114t44 179.5t53 263q44 224 41 326q-4 100 -78 100q-51 0 -101 -40t-86 -96.5t-65.5 -121t-45 -110t-19.5 -66.5l-68 -373h-297l182 1137h-159l24 153h160l12 76l-157 41l26 164l463 16l-51 -297h385l-25 -153h-389z" />
<glyph unicode="&#x453;" horiz-adv-x="1024" d="M979 1518l-107 213l-510 -353l95 -149zM825 299l82 -152q-252 -167 -487 -167q-100 0 -180 31t-130.5 98t-50.5 161q0 83 32.5 151.5t84 112.5t114 80t125 63t114 51.5t84 54.5t32.5 65q0 74 -92 74q-55 0 -126.5 -20.5t-116.5 -41.5l-44 -20l-76 143q39 24 97.5 52 t161.5 59.5t186 31.5q142 0 226.5 -72.5t84.5 -207.5q0 -83 -33 -151.5t-85.5 -113t-116.5 -80.5t-128 -63t-116.5 -52t-85.5 -55t-33 -65q0 -71 103 -71q65 0 152.5 23.5t137.5 43.5t84 37z" />
<glyph unicode="&#x454;" horiz-adv-x="1044" d="M799 721l-11 143q-61 19 -129 19q-95 0 -161.5 -64.5t-102.5 -171.5h355l-35 -205h-355v-26q0 -87 54.5 -139t134.5 -52q25 0 52 3t48.5 7t47.5 11.5t42.5 13t39.5 14.5t32.5 13t28.5 12.5t20 9.5l88 -162q-242 -167 -467 -167q-189 0 -306.5 102.5t-117.5 292.5 q0 339 176 545t459 206q31 0 63 -3t57 -7t52.5 -11t46 -13t41 -14.5t32.5 -13t27 -12t19 -8.5l-51 -323h-180z" />
<glyph unicode="&#x455;" horiz-adv-x="997" d="M252 358v-143q59 -22 141 -22q83 0 128.5 30t45.5 88q0 34 -24 62.5t-62 51t-84.5 45t-93 50.5t-84.5 61.5t-62 84t-24 112.5q0 116 62 196t162.5 116t232.5 36q81 0 168 -14t134 -28l46 -15l-55 -307h-176l-11 133q-42 18 -118 18q-68 0 -106 -28.5t-38 -79.5 q0 -34 24.5 -62.5t64 -51t86.5 -45t94.5 -50t87 -60.5t64 -81.5t24.5 -108.5q0 -173 -138 -269.5t-362 -96.5q-82 0 -171 12.5t-137 25.5l-48 13l53 327h176z" />
<glyph unicode="&#x456;" horiz-adv-x="684" d="M301 1403q0 94 54 159.5t141 65.5q63 0 102 -37t39 -106q0 -96 -53.5 -163t-137.5 -67q-66 0 -105.5 38t-39.5 110zM438 215l156 -31l-27 -164l-458 -20l139 885l-158 41l29 164l461 16z" />
<glyph unicode="&#x457;" horiz-adv-x="675" d="M86 1421q0 83 45 140t125 57q59 0 93 -33.5t34 -91.5q0 -81 -47.5 -138t-126.5 -57q-57 0 -90 33t-33 90zM483 1421q0 82 45 139.5t123 57.5q59 0 93 -33.5t34 -91.5q0 -82 -46.5 -138.5t-125.5 -56.5q-57 0 -90 33t-33 90zM430 215l156 -31l-27 -164l-450 -20l139 885 l-158 41l29 164l452 16z" />
<glyph unicode="&#x458;" horiz-adv-x="673" d="M295 1403q0 94 53.5 159.5t140.5 65.5q65 0 104.5 -37t39.5 -106q0 -96 -53.5 -163t-139.5 -67q-65 0 -105 38.5t-40 109.5zM121 1090l454 16l-192 -1194q-31 -195 -148 -304.5t-305 -109.5q-39 0 -90 8t-82 16l-32 7l41 180q7 0 51.5 -3t77.5 -3q54 0 89 14t58 49.5 t35.5 80t25.5 120.5l148 918l-160 41z" />
<glyph unicode="&#x459;" horiz-adv-x="1662" d="M1098 737l-45 -137q47 43 127.5 86t160.5 43q116 0 187 -73t71 -195q0 -218 -147 -349.5t-375 -131.5q-185 0 -277.5 110.5t-51.5 317.5l92 452h-252q-28 -132 -51.5 -228t-53.5 -193.5t-60.5 -164t-70 -126t-85 -94t-102 -54.5t-124.5 -20q-79 0 -147 28l69 236 q39 -13 80 -13q55 0 99 26.5t77.5 74t63 131t52.5 180t50 238.5l-233 45l28 180h998zM1126 205q79 0 121.5 61.5t42.5 145.5q0 44 -23.5 69t-62.5 25q-86 0 -174 -88q-16 -109 3.5 -161t92.5 -52z" />
<glyph unicode="&#x45a;" horiz-adv-x="1777" d="M1204 737l-45 -137q47 42 128 85.5t161 43.5q116 0 187 -73t71 -195q0 -218 -147 -349.5t-375 -131.5q-184 0 -277 110.5t-53 317.5l10 57h-389l-72 -465h-297l136 881l-150 51l25 164l458 10l-65 -426h397l80 416l297 10zM1233 205q79 0 121.5 61.5t42.5 145.5 q0 44 -23.5 69t-62.5 25q-86 0 -174 -88q-16 -109 3.5 -161t92.5 -52z" />
<glyph unicode="&#x45b;" horiz-adv-x="1308" d="M1229 184l-27 -164l-459 -20l103 633q6 41 6 74q0 100 -78 100q-63 0 -121 -49.5t-96.5 -123t-63 -141t-34.5 -120.5l-68 -373h-297l182 1137h-159l24 153h160l12 76l-157 41l26 164l463 16l-53 -297h387l-25 -153h-389l-63 -359q4 10 21.5 36.5t56 69.5t86 80t118.5 64 t146 27q229 0 229 -244q0 -49 -10 -121l-74 -475z" />
<glyph unicode="&#x45c;" horiz-adv-x="1146" d="M1106 1518l-107 213l-510 -353l95 -149zM516 694h133l168 209l-82 29l25 164l487 10l-26 -174l-134 -25l-241 -280l170 -416l147 -47l-22 -164h-355l-180 500h-121l-82 -500h-294l141 887l-160 39l29 166l465 18z" />
<glyph unicode="&#x45d;" d="M471 1722l533 -346l-78 -153l-555 270zM741 0l70 326q-9 -18 -24.5 -44.5t-59.5 -84.5t-92 -102t-121.5 -79.5t-148.5 -35.5q-226 0 -226 247q0 62 11 121l88 537l-158 41l26 164l455 16l-112 -703q-7 -47 -7 -71q0 -103 78 -103q51 0 101.5 41t86 97.5t68 128t48.5 119 t26 85.5l68 406h288l-141 -893l156 -31l-27 -162z" />
<glyph unicode="&#x45e;" horiz-adv-x="1153" d="M279 1546l227 58q17 -174 196 -174q82 0 155 47t124 127l98 -68q-61 -115 -186.5 -201t-269.5 -86q-150 0 -237.5 79t-106.5 218zM18 926l25 164l393 16l139 -668l13 -127l241 586l-127 29l25 164l514 16l-29 -174l-100 -33l-391 -866q-47 -104 -82 -174t-75 -133.5 t-76 -101t-81.5 -65.5t-95.5 -39.5t-114 -11.5q-55 0 -120 10t-103 20l-37 11l57 205q79 -10 151 -10q102 0 152 40.5t104 158.5l-241 948z" />
<glyph unicode="&#x45f;" d="M741 0l70 326q-9 -18 -24.5 -44.5t-59.5 -84.5t-92 -102t-121.5 -79.5t-148.5 -35.5q-226 0 -226 247q0 43 12.5 129t57.5 355q18 109 29 174l-158 41l26 164l455 16q-114 -707 -118 -752q-1 -12 -1 -22q0 -103 78 -103q51 0 101.5 41t86 97.5t68 128t48.5 119t26 85.5 l68 406h288l-141 -893l156 -31l-27 -162zM500 -92h172l-70 -359h-248z" />
<glyph unicode="&#x490;" horiz-adv-x="1114" d="M1227 1204h-586l-147 -968l223 -62l-29 -174h-688l29 174l157 62l148 962l-137 62l24 174l459 10h291l170 399h188z" />
<glyph unicode="&#x491;" horiz-adv-x="995" d="M1034 860l-4 4l2 -4h-463l-102 -645l192 -51l-24 -164h-662l27 164l170 51l102 666l-149 51l24 164l461 10h226l84 287h188z" />
<glyph unicode="&#x4b0;" horiz-adv-x="1269" d="M1415 1444l-29 -180l-151 -58l-406 -637h271l-31 -215h-321l-21 -125l143 -51l-28 -178h-606l28 178l160 51l20 125h-280l31 215h251l-198 650l-156 45l27 170l385 10l184 -674l260 449l-139 45l27 170z" />
<glyph unicode="&#x4b1;" horiz-adv-x="1179" d="M1284 1106l-24 -174l-130 -27l-389 -721h246l-29 -184h-299l-41 -256l193 -51l-27 -164h-696l27 164l204 51l43 256h-303l31 184h252l-156 715l-112 33l22 164l348 10l136 -815l278 614l-121 27l25 164z" />
<glyph unicode="&#x1e80;" horiz-adv-x="2002" d="M838 1960l495 -268l-78 -164l-514 211zM92 1264l27 170l395 10l127 -965l397 948l238 17l129 -971l303 731l-141 60l30 170l570 10l-31 -180l-147 -60l-547 -1204h-240l-133 901l-403 -901h-240l-190 1208z" />
<glyph unicode="&#x1e81;" horiz-adv-x="1683" d="M731 1722l533 -346l-78 -153l-555 270zM1370 895l-131 31l27 164l495 16l-28 -174l-86 -27l-414 -905h-305l-86 614l-248 -614h-303l-141 899l-132 27l27 164l389 16l84 -768l289 739l237 33l101 -772z" />
<glyph unicode="&#x1e82;" horiz-adv-x="2002" d="M895 1511l-78 164l502 267l108 -213zM92 1264l27 170l395 10l127 -965l397 948l238 17l129 -971l303 731l-141 60l30 170l570 10l-31 -180l-147 -60l-547 -1204h-240l-133 901l-403 -901h-240l-190 1208z" />
<glyph unicode="&#x1e83;" horiz-adv-x="1683" d="M1311 1518l-107 213l-510 -353l94 -149zM1370 895l-131 31l27 164l495 16l-28 -174l-86 -27l-414 -905h-305l-86 614l-248 -614h-303l-141 899l-132 27l27 164l389 16l84 -768l289 739l237 33l101 -772z" />
<glyph unicode="&#x1e84;" horiz-adv-x="1992" d="M807 1700q0 82 45 139t125 57q59 0 93 -33t34 -91q0 -81 -47.5 -138t-126.5 -57q-57 0 -90 33t-33 90zM1243 1700q0 82 45 139t123 57q59 0 93 -33t34 -91q0 -82 -46.5 -138.5t-125.5 -56.5q-57 0 -90 33t-33 90zM72 1264l26 170l396 10l127 -965l397 948l237 17 l129 -971l304 731l-142 60l31 170l569 10l-30 -180l-148 -60l-547 -1204h-239l-133 901l-404 -901h-239l-191 1208z" />
<glyph unicode="&#x1e85;" horiz-adv-x="1683" d="M614 1393q0 82 45 139t125 57q59 0 93 -33.5t34 -91.5q0 -81 -47.5 -137.5t-126.5 -56.5q-57 0 -90 33t-33 90zM1051 1393q0 82 45 139t123 57q59 0 93 -33.5t34 -91.5q0 -81 -46.5 -137.5t-125.5 -56.5q-57 0 -90 33t-33 90zM1370 895l-131 31l27 164l495 16l-28 -174 l-86 -27l-414 -905h-305l-86 614l-248 -614h-303l-141 899l-132 27l27 164l389 16l84 -768l289 739l237 33l101 -772z" />
<glyph unicode="&#x1ef2;" horiz-adv-x="1263" d="M381 1960l496 -268l-78 -164l-514 211zM842 0h-606l28 178l160 51l43 275l-219 715l-156 45l27 170l385 10l184 -674l260 449l-139 45l27 170l579 10l-29 -180l-151 -58l-469 -735l-39 -242l143 -51z" />
<glyph unicode="&#x1ef3;" horiz-adv-x="1153" d="M246 1722l532 -346l-78 -153l-555 270zM18 926l25 164l393 16l139 -668l13 -127l241 586l-127 29l25 164l514 16l-29 -174l-100 -33l-391 -866q-47 -104 -82 -174t-75 -133.5t-76 -101t-81.5 -65.5t-95.5 -39.5t-114 -11.5q-55 0 -120 10t-103 20l-37 11l57 205 q79 -10 151 -10q102 0 152 40.5t104 158.5l-241 948z" />
<glyph unicode="&#x2000;" horiz-adv-x="1145" />
<glyph unicode="&#x2001;" horiz-adv-x="2290" />
<glyph unicode="&#x2002;" horiz-adv-x="1145" />
<glyph unicode="&#x2003;" horiz-adv-x="2290" />
<glyph unicode="&#x2004;" horiz-adv-x="763" />
<glyph unicode="&#x2005;" horiz-adv-x="572" />
<glyph unicode="&#x2006;" horiz-adv-x="381" />
<glyph unicode="&#x2007;" horiz-adv-x="381" />
<glyph unicode="&#x2008;" horiz-adv-x="286" />
<glyph unicode="&#x2009;" horiz-adv-x="458" />
<glyph unicode="&#x200a;" horiz-adv-x="127" />
<glyph unicode="&#x2010;" horiz-adv-x="788" d="M707 686l-41 -256h-564l41 256h564z" />
<glyph unicode="&#x2011;" horiz-adv-x="788" d="M707 686l-41 -256h-564l41 256h564z" />
<glyph unicode="&#x2012;" horiz-adv-x="788" d="M707 686l-41 -256h-564l41 256h564z" />
<glyph unicode="&#x2013;" horiz-adv-x="1009" d="M1020 788l-39 -241h-991l37 241h993z" />
<glyph unicode="&#x2014;" horiz-adv-x="1900" d="M1931 788l-37 -241h-1925l37 241h1925z" />
<glyph unicode="&#x2015;" horiz-adv-x="1900" d="M1939 788l-38 -241h-1905l39 241h1904z" />
<glyph unicode="&#x2017;" horiz-adv-x="1060" d="M887 -164v-205h-1032v205h1032zM887 -532v-205h-1032v205h1032z" />
<glyph unicode="&#x2018;" horiz-adv-x="591" d="M545 1612l108 -107q-7 -7 -17.5 -18.5t-38.5 -45t-49 -63t-38.5 -64.5t-17.5 -57q0 -23 18 -73.5t18 -87.5q0 -90 -55 -148.5t-139 -58.5q-71 0 -110.5 39.5t-39.5 111.5q0 69 36 151.5t96 162t115 141t114 117.5z" />
<glyph unicode="&#x2019;" horiz-adv-x="585" d="M252 889l-109 108q18 19 45 49t72 96.5t45 102.5q0 23 -18.5 73t-18.5 87q0 91 55 149t140 58q70 0 109.5 -39.5t39.5 -110.5q0 -70 -36 -152.5t-96 -162t-114 -139.5t-114 -119z" />
<glyph unicode="&#x201a;" horiz-adv-x="589" d="M66 -428l-107 106q18 19 44.5 49t71 96.5t44.5 102.5q0 23 -18.5 73t-18.5 87q0 91 54.5 149t139.5 58q70 0 110 -39.5t40 -110.5q0 -69 -36 -151.5t-95.5 -161.5t-114.5 -140.5t-114 -117.5z" />
<glyph unicode="&#x201b;" horiz-adv-x="618" d="M621 997l-125 -108q-51 59 -95.5 119t-92.5 139.5t-71 162t-12 152.5q11 71 56.5 110.5t115.5 39.5q85 0 131 -58.5t31 -148.5q-5 -38 -31 -87.5t-30 -72.5q-5 -36 25.5 -98t64.5 -106z" />
<glyph unicode="&#x201c;" horiz-adv-x="1052" d="M545 1612l108 -107q-7 -7 -17.5 -18.5t-38.5 -45t-49 -63t-38.5 -64.5t-17.5 -57q0 -23 18 -73.5t18 -87.5q0 -90 -55 -148.5t-139 -58.5q-71 0 -110.5 39.5t-39.5 111.5q0 69 36 151.5t96 162t115 141t114 117.5zM1006 1612l108 -107q-18 -19 -45 -49t-72 -96.5 t-45 -102.5q0 -23 18.5 -73.5t18.5 -87.5q0 -90 -55 -148.5t-139 -58.5q-71 0 -110.5 39.5t-39.5 111.5q0 69 36 151.5t96 162t115 141t114 117.5z" />
<glyph unicode="&#x201d;" horiz-adv-x="1134" d="M252 889l-109 108q18 19 45 49t72 96.5t45 102.5q0 23 -18.5 73t-18.5 87q0 91 55 149t140 58q70 0 109.5 -39.5t39.5 -110.5q0 -70 -36 -152.5t-96 -162t-114 -139.5t-114 -119zM713 889l-109 108q18 19 45 49t72 96.5t45 102.5q0 23 -18.5 73t-18.5 87q0 91 55 149 t140 58q70 0 109.5 -39.5t39.5 -110.5q0 -70 -36 -152.5t-96 -162t-114 -139.5t-114 -119z" />
<glyph unicode="&#x201e;" horiz-adv-x="948" d="M45 -428l-106 106q18 19 44.5 49t70.5 96.5t44 102.5q0 23 -18.5 73t-18.5 87q0 91 55 149t140 58q70 0 110 -39.5t40 -110.5q0 -69 -36 -151.5t-96 -161.5t-115 -140t-114 -118zM506 -428l-109 106q18 19 45 49t72 96.5t45 102.5q0 23 -18.5 73t-18.5 87q0 91 55 149 t140 58q70 0 109.5 -39.5t39.5 -110.5q0 -69 -36 -151.5t-95.5 -161.5t-114.5 -140.5t-114 -117.5z" />
<glyph unicode="&#x2020;" horiz-adv-x="999" d="M504 1249l35 291l249 16l-61 -307h330l-29 -194l-457 -70l-428 70l31 194h330zM555 872l162 35l-154 -803l-141 -104l-107 104l91 803z" />
<glyph unicode="&#x2021;" horiz-adv-x="999" d="M504 1249l35 291l249 16l-61 -307h330l-29 -194l-457 -70l-428 70l31 194h330zM557 883l356 59l-30 -203l-363 -86l-338 86l29 203zM506 553l147 33l-90 -482l-141 -104l-107 104l56 482z" />
<glyph unicode="&#x2022;" horiz-adv-x="1040" d="M174 645q0 160 113.5 273.5t273.5 113.5t273.5 -113.5t113.5 -273.5t-113.5 -273.5t-273.5 -113.5t-273.5 113.5t-113.5 273.5z" />
<glyph unicode="&#x2026;" horiz-adv-x="1576" d="M61 121q0 95 51 159t146 64q68 0 110 -39t42 -106q0 -95 -53 -160.5t-148 -65.5q-67 0 -107.5 40.5t-40.5 107.5zM565 121q0 95 51 159t146 64q68 0 108.5 -39t40.5 -106q0 -96 -52 -161t-148 -65q-67 0 -106.5 40t-39.5 108zM1067 121q0 95 51 159t146 64 q68 0 108.5 -39t40.5 -106q0 -95 -52.5 -160.5t-148.5 -65.5q-67 0 -106 40t-39 108z" />
<glyph unicode="&#x202f;" horiz-adv-x="458" />
<glyph unicode="&#x2030;" horiz-adv-x="2406" d="M594 1468q137 0 212 -70.5t75 -199.5q0 -207 -114 -344t-304 -137q-144 0 -221.5 69.5t-77.5 204.5q0 209 120.5 343t309.5 134zM494 893q65 0 110 77.5t45 180.5q0 72 -21 106.5t-75 34.5q-68 0 -113 -77.5t-45 -184.5q0 -137 99 -137zM1399 723q137 0 212 -70.5 t75 -199.5q0 -207 -114 -343.5t-304 -136.5q-144 0 -221.5 69t-77.5 204q0 209 120.5 343t309.5 134zM1298 147q65 0 110.5 78t45.5 181q0 72 -21 106.5t-75 34.5q-68 0 -113 -77.5t-45 -184.5q0 -138 98 -138zM2173 723q137 0 212 -70.5t75 -199.5q0 -207 -113 -343.5 t-303 -136.5q-144 0 -221.5 69t-77.5 204q0 209 120 343t308 134zM2073 147q69 0 112 83t43 194q0 123 -96 123q-70 0 -113 -82t-43 -195q0 -60 25.5 -91.5t71.5 -31.5zM1595 1458l-1063 -1472h-286l1063 1472h286z" />
<glyph unicode="&#x2032;" horiz-adv-x="485" d="M190 1040l140 574l248 -29l-181 -569z" />
<glyph unicode="&#x2033;" horiz-adv-x="886" d="M190 1040l140 574l248 -29l-181 -569zM592 1040l139 574l248 -29l-180 -569z" />
<glyph unicode="&#x2039;" horiz-adv-x="765" d="M389 106l-272 365l24 158l381 348l146 -119l-289 -311l184 -328z" />
<glyph unicode="&#x203a;" horiz-adv-x="749" d="M385 977l268 -367l-24 -157l-377 -347l-146 117l285 314l-180 325z" />
<glyph unicode="&#x203c;" horiz-adv-x="1193" d="M231 524l136 1043h303l-201 -1032zM743 524l136 1043h303l-201 -1032zM119 119q0 95 52 160t148 65q68 0 108 -40t40 -107q0 -95 -52 -159.5t-147 -64.5q-68 0 -108.5 39.5t-40.5 106.5zM631 119q0 95 52 160t148 65q68 0 108 -40t40 -107q0 -95 -52 -159.5t-147 -64.5 q-68 0 -108.5 39.5t-40.5 106.5z" />
<glyph unicode="&#x203e;" horiz-adv-x="1105" d="M1075 1456l-33 -194h-933l32 194h934z" />
<glyph unicode="&#x2044;" horiz-adv-x="1110" d="M1376 1444l-1335 -1596q-156 123 -174 138l1331 1595q141 -108 178 -137z" />
<glyph unicode="&#x205f;" horiz-adv-x="572" />
<glyph unicode="&#x2074;" horiz-adv-x="927" d="M784 922h119l-33 -191h-116l-25 -158h-254l25 158h-398l4 172l478 551l280 -31zM532 922l41 260l-229 -260h188z" />
<glyph unicode="&#x207f;" horiz-adv-x="1052" d="M512 1456l-51 -244q5 10 15 27.5t42.5 62t68.5 78.5t91.5 62t112.5 28q172 0 172 -184q0 -34 -7 -88l-67 -377l110 -22l-20 -129l-336 -15l84 502q6 27 6 53q0 74 -57 74q-46 0 -92.5 -46.5t-79 -110.5t-54 -122.5t-26.5 -91.5l-43 -258h-219l106 637l-116 31l20 121z " />
<glyph unicode="&#x20a3;" horiz-adv-x="1136" d="M246 502l112 702l-141 60l27 170l454 10h559l-63 -395h-164l-26 153h-342l-60 -362h414l-37 -226h-412l-18 -112h248l-27 -174h-250l-16 -105l160 -45l-29 -178h-619l29 178l158 45l16 105h-151l26 174h152z" />
<glyph unicode="&#x20a4;" horiz-adv-x="1241" d="M334 969l10 75q26 198 149.5 311t340.5 113q108 0 211 -17t151 -33l49 -17l-59 -369h-170l-27 185q-108 12 -160 12q-86 0 -133.5 -48t-58.5 -132l-10 -80h288l-28 -185h-756l29 185h174zM80 481h203q-14 -129 -41.5 -186t-94.5 -80l-106 -37l-27 -178h1014l68 416h-187 l-71 -176h-371q3 2 11.5 9t24.5 25t30 41t25.5 60t14.5 78l2 28h263l28 185h-755z" />
<glyph unicode="&#x20a7;" horiz-adv-x="1433" d="M1405 891h-143q-41 -132 -136 -221t-218 -128.5t-271 -39.5h-109l-43 -275l148 -49l-29 -178h-610l29 178l159 49l105 664h-152l27 174h151l23 139l-141 60l26 170l457 10h192q87 0 161 -20.5t133 -61t92.5 -109.5t33.5 -159q0 -5 -1 -15t-1 -14h144zM616 1065h357 q-10 70 -59 103.5t-117 33.5h-158zM565 741h109q207 0 272 150h-358z" />
<glyph unicode="&#x20ac;" horiz-adv-x="1345" d="M1098 1022l-23 168q-80 22 -172 22q-214 0 -295 -262h400l-29 -184h-852l29 184h137q86 249 253.5 383.5t399.5 134.5q89 0 186.5 -22.5t149.5 -45.5l53 -22l-67 -356h-170zM958 637l-28 -184h-389q11 -99 64 -157t151 -58q46 0 98.5 12.5t94 30.5t76.5 36t54 31l19 12 l90 -159q-9 -9 -26.5 -24.5t-73 -54.5t-112.5 -68.5t-139.5 -54t-160.5 -24.5q-214 0 -332 129t-127 349h-141l30 184h852z" />
<glyph unicode="&#x2105;" horiz-adv-x="2177" d="M1716 877q162 0 251 -83.5t89 -232.5q0 -161 -59 -290t-172 -205t-262 -76q-168 0 -260.5 81t-92.5 236q0 256 141.5 413t364.5 157zM1673 678q-99 0 -154 -101t-55 -247q0 -142 142 -142q62 0 108 53t67 129.5t21 161.5q0 146 -129 146zM756 1122l-15 119 q-55 19 -114 19q-98 0 -156.5 -95t-58.5 -245q0 -73 36 -112.5t95 -39.5q47 0 95 12.5t72.5 24t63.5 31.5l80 -127q-46 -31 -73 -47t-79.5 -42.5t-107.5 -39.5t-113 -13q-145 0 -231 87t-86 233q0 250 133.5 408.5t343.5 158.5q76 0 150.5 -19t111.5 -38l37 -19l-35 -256 h-149zM1712 1444l-1026 -1444h-291l1026 1444h291z" />
<glyph unicode="&#x2113;" horiz-adv-x="1050" d="M543 483l20 133q512 356 512 717q0 130 -77.5 202.5t-215.5 72.5q-91 0 -162.5 -32t-116 -80t-78 -121.5t-50 -139t-29.5 -150.5l-63 -395q-65 -43 -132 -84t-101 -60l-34 -20l84 -178q87 43 140 72l-2 -21q-31 -195 55 -310.5t274 -115.5q39 0 95.5 7.5t93.5 15.5l37 8 l16 215q-87 -10 -135 -10q-97 0 -125.5 65t-5.5 209zM616 934l29 192q17 116 41.5 181t71.5 65q53 0 53 -72q0 -83 -54.5 -180.5t-140.5 -185.5z" />
<glyph unicode="&#x2116;" horiz-adv-x="2564" d="M2157 1470q154 0 237.5 -78.5t83.5 -220.5q0 -151 -55 -270t-162 -188.5t-248 -69.5q-160 0 -247 76.5t-87 224.5q0 233 133.5 379.5t344.5 146.5zM2116 1284q-62 0 -107.5 -46.5t-66.5 -117.5t-21 -155q0 -68 34 -102t97 -34q59 0 102 48t62.5 118.5t19.5 149.5 q0 139 -120 139zM-16 0l28 178l160 49l154 977l-142 60l27 170l475 10l391 -955l113 715l-133 60l26 170l568 10l-29 -180l-158 -60l-190 -1204h-318l-395 950l-117 -723l138 -49l-29 -178h-569zM2359 481l-32 -205h-746l33 205h745z" />
<glyph unicode="&#x2122;" horiz-adv-x="1957" d="M414 784l86 531h-117l-47 -150h-113l43 279h697l-43 -279h-115l-4 150h-115l-86 -531l98 -30l-18 -99h-389l18 99zM901 655l14 99l97 30l84 516l-84 29l16 109l297 6l111 -350l227 344l283 6l-17 -111l-94 -33l-86 -516l82 -30l-19 -99h-344l19 99l94 30l61 375 l-192 -287l-127 -14l-96 289l-60 -363l90 -30l-16 -99h-340z" />
<glyph unicode="&#x2126;" horiz-adv-x="1593" d="M1372 0h-543l35 205q72 50 110 88q210 211 210 606q0 139 -67 226t-199 87q-85 0 -156.5 -33t-120.5 -87.5t-83 -127t-50 -150t-16 -157.5q0 -270 129 -439q3 -4 4 -5l-52 -213h-542l41 246l250 -6q-52 59 -99 168t-47 241t33 254t98.5 224.5t158 178.5t218 119t270.5 43 q254 0 405.5 -143.5t151.5 -392.5q0 -98 -25.5 -195.5t-62 -170.5t-84 -140.5t-85 -107.5t-72.5 -70l233 8z" />
<glyph unicode="&#x212e;" horiz-adv-x="1361" d="M371 737v-403q64 -61 152 -94t184 -33q131 0 255.5 47.5t202.5 126.5l54 -53q-87 -92 -229.5 -148.5t-282.5 -56.5q-263 0 -423.5 158.5t-160.5 425.5q0 166 80 305t219 219t305 80q162 0 293 -74.5t205.5 -206t74.5 -293.5h-929zM1055 809v287q-143 133 -328 133 q-204 0 -356 -152v-268h684z" />
<glyph unicode="&#x215b;" horiz-adv-x="2072" d="M1991 676q0 -73 -40 -128.5t-104 -88.5q35 -27 53.5 -43t39 -52.5t20.5 -78.5q0 -95 -56.5 -167.5t-148 -108.5t-201.5 -36q-141 0 -227 60t-86 155q0 151 186 240q-30 23 -46 38.5t-32 48t-16 71.5q0 98 56 167.5t140 100.5t183 31q129 0 204 -57.5t75 -151.5zM1669 700 q-45 0 -73.5 -23t-28.5 -59q0 -11 3.5 -21t12 -18.5t15.5 -14.5t20.5 -13t20.5 -10t22.5 -9t19.5 -8q31 13 53.5 41.5t22.5 65.5q0 28 -23.5 48.5t-64.5 20.5zM1585 158q58 0 93.5 27t35.5 67q0 34 -26.5 63t-65.5 45q-2 -1 -16 -6t-19 -7t-19 -8t-20.5 -10.5t-18 -12 t-17.5 -15.5t-12.5 -18t-9.5 -22t-3 -25q0 -30 28 -54t70 -24zM102 573l29 183h188l68 428l-197 -113l-71 170l346 203h217l-109 -688h152l-29 -183h-594zM1665 1444l-1026 -1444h-291l1026 1444h291z" />
<glyph unicode="&#x215c;" horiz-adv-x="2072" d="M1991 676q0 -73 -40 -128.5t-104 -88.5q35 -27 53.5 -43t39 -52.5t20.5 -78.5q0 -95 -56.5 -167.5t-148 -108.5t-201.5 -36q-141 0 -227 60t-86 155q0 151 186 240q-30 23 -46 38.5t-32 48t-16 71.5q0 98 56 167.5t140 100.5t183 31q129 0 204 -57.5t75 -151.5zM1669 700 q-45 0 -73.5 -23t-28.5 -59q0 -11 3.5 -21t12 -18.5t15.5 -14.5t20.5 -13t20.5 -10t22.5 -9t19.5 -8q31 13 53.5 41.5t22.5 65.5q0 28 -23.5 48.5t-64.5 20.5zM1585 158q58 0 93.5 27t35.5 67q0 34 -26.5 63t-65.5 45q-2 -1 -16 -6t-19 -7t-19 -8t-20.5 -10.5t-18 -12 t-17.5 -15.5t-12.5 -18t-9.5 -22t-3 -25q0 -30 28 -54t70 -24zM174 1176l31 233q178 47 315 47q147 0 223 -52t76 -151q0 -89 -53 -147t-143 -82q65 -11 108 -56t43 -108q0 -80 -34.5 -142t-93.5 -97.5t-130 -53.5t-151 -18q-73 0 -149 21.5t-116 43.5l-39 21l78 164 q12 -6 33 -15.5t80 -25t110 -15.5q72 0 114 29.5t42 79.5q0 80 -123 80h-116l22 153h111q155 0 155 113q0 68 -98 68q-26 0 -54.5 -3t-43.5 -7l-15 -3l-20 -77h-162zM1659 1444l-1026 -1444h-291l1026 1444h291z" />
<glyph unicode="&#x215d;" horiz-adv-x="2072" d="M1991 676q0 -73 -40 -128.5t-104 -88.5q35 -27 53.5 -43t39 -52.5t20.5 -78.5q0 -95 -56.5 -167.5t-148 -108.5t-201.5 -36q-141 0 -227 60t-86 155q0 151 186 240q-30 23 -46 38.5t-32 48t-16 71.5q0 98 56 167.5t140 100.5t183 31q129 0 204 -57.5t75 -151.5zM1669 700 q-45 0 -73.5 -23t-28.5 -59q0 -11 3.5 -21t12 -18.5t15.5 -14.5t20.5 -13t20.5 -10t22.5 -9t19.5 -8q31 13 53.5 41.5t22.5 65.5q0 28 -23.5 48.5t-64.5 20.5zM1585 158q58 0 93.5 27t35.5 67q0 34 -26.5 63t-65.5 45q-2 -1 -16 -6t-19 -7t-19 -8t-20.5 -10.5t-18 -12 t-17.5 -15.5t-12.5 -18t-9.5 -22t-3 -25q0 -30 28 -54t70 -24zM61 625l93 168q106 -50 206 -50q61 0 102.5 27.5t41.5 77.5q0 38 -37 62t-119 24h-186l96 510h547l-35 -189h-334l-26 -149h55q131 -5 211 -64t80 -157q0 -144 -111.5 -240t-267.5 -96q-73 0 -152 19t-121 38z M1657 1444l-1026 -1444h-291l1026 1444h291z" />
<glyph unicode="&#x215e;" horiz-adv-x="2031" d="M1950 676q0 -73 -40 -128.5t-104 -88.5q35 -27 53.5 -43t39 -52.5t20.5 -78.5q0 -95 -56.5 -167.5t-148 -108.5t-201.5 -36q-141 0 -227 60t-86 155q0 151 186 240q-30 23 -46 38.5t-32 48t-16 71.5q0 98 56 167.5t140 100.5t183 31q129 0 204 -57.5t75 -151.5zM1628 700 q-45 0 -73.5 -23t-28.5 -59q0 -11 3.5 -21t12 -18.5t15.5 -14.5t20.5 -13t20.5 -10t22.5 -9t19.5 -8q31 13 53.5 41.5t22.5 65.5q0 28 -23.5 48.5t-64.5 20.5zM1544 158q58 0 93.5 27t35.5 67q0 34 -26.5 63t-65.5 45q-2 -1 -16 -6t-19 -7t-19 -8t-20.5 -10.5t-18 -12 t-17.5 -15.5t-12.5 -18t-9.5 -22t-3 -25q0 -30 28 -54t70 -24zM860 1272l-442 -701h-275l422 680h-243l-41 -106h-168l47 299h729zM1610 1444l-1026 -1444h-291l1026 1444h291z" />
<glyph unicode="&#x2190;" horiz-adv-x="1386" d="M492 528l213 -307l-191 -139l-401 506l18 123l551 506l141 -154l-293 -289h897l-38 -246h-897z" />
<glyph unicode="&#x2191;" horiz-adv-x="1300" d="M541 809l-346 -260l-113 170l584 479h114l439 -473l-181 -166l-252 250l-127 -809h-245z" />
<glyph unicode="&#x2192;" horiz-adv-x="1386" d="M895 774l-203 289l191 154l391 -506l-19 -123l-561 -506l-149 139l311 307h-897l39 246h897z" />
<glyph unicode="&#x2193;" horiz-adv-x="1280" d="M760 362l346 261l113 -170l-584 -480h-115l-438 473l180 166l252 -250l127 809h246z" />
<glyph unicode="&#x2194;" horiz-adv-x="1611" d="M1178 735l-172 246l161 129l332 -438l-16 -97l-477 -428l-127 117l266 262h-711l182 -262l-161 -117l-342 437l16 96l467 430l121 -129l-250 -246h711z" />
<glyph unicode="&#x2195;" horiz-adv-x="1214" d="M655 272l297 226l95 -144l-502 -409h-94l-369 397l151 141l213 -211l113 713l-297 -225l-94 143l502 410h94l369 -398l-152 -141l-213 211z" />
<glyph unicode="&#x21a8;" horiz-adv-x="1286" d="M748 272l299 226l94 -144l-502 -409h-96l-367 397l152 141l211 -211l112 713l-297 -225l-94 143l502 410h96l367 -398l-152 -141l-213 211zM1059 -174l-33 -205h-965l33 205h965z" />
<glyph unicode="&#x2202;" horiz-adv-x="1245" d="M438 1327l-8 221q18 7 49.5 17t115.5 26.5t153 16.5q215 0 340.5 -134.5t125.5 -408.5q0 -119 -20 -243.5t-58 -248t-99 -232t-138.5 -192t-182 -132t-222.5 -48.5q-192 0 -307 110t-115 294q0 261 149 422t400 161q48 0 96 -11.5t82.5 -27.5t62.5 -32t42 -27l14 -12 q20 110 20 186q0 160 -80.5 240t-202.5 80q-28 0 -60 -2.5t-58.5 -6t-48.5 -7.5t-35.5 -6.5t-14.5 -2.5zM864 590q-2 5 -7 13t-24 29t-43 37t-65.5 29t-89.5 13q-118 0 -189 -80.5t-71 -206.5q0 -78 49.5 -128t118.5 -50q49 0 93.5 19t76 49.5t58 67t43.5 73t28.5 67 t16.5 49.5z" />
<glyph unicode="&#x2206;" d="M950 1481l299 -1276l-32 -205h-1278l34 205l715 1276h262zM954 229l-213 918l-499 -918h712z" />
<glyph unicode="&#x220f;" horiz-adv-x="1474" d="M373 1219l-146 45l23 159l434 21h899l-27 -180l-165 -45l-271 -1700h-280l268 1693h-453l-270 -1693h-283z" />
<glyph unicode="&#x2211;" horiz-adv-x="1251" d="M608 487l-418 748l35 209h1057l-61 -395h-183l-24 163h-494l402 -706l-646 -756h527l63 178h197l-66 -409h-1079l35 211z" />
<glyph unicode="&#x2212;" horiz-adv-x="1214" d="M1102 711l-37 -240h-952l37 240h952z" />
<glyph unicode="&#x2215;" horiz-adv-x="1163" d="M1376 1444l-1335 -1596q-156 123 -174 138l1331 1595q141 -108 178 -137z" />
<glyph unicode="&#x2219;" horiz-adv-x="843" d="M205 645q0 82 57 139.5t139 57.5t139.5 -57.5t57.5 -139.5t-57.5 -139t-139.5 -57t-139 57t-57 139z" />
<glyph unicode="&#x221a;" horiz-adv-x="1351" d="M100 1075l365 10l110 -782l555 1274l431 10l-27 -172l-217 -37l-643 -1378h-324l-162 877l-116 32z" />
<glyph unicode="&#x221e;" horiz-adv-x="1853" d="M1284 221q-113 0 -206 51.5t-179 141.5q-55 -43 -115 -81t-155 -75t-176 -37q-170 0 -260.5 81.5t-90.5 221.5q0 195 138.5 323t337.5 128q111 0 203 -51t182 -140q243 191 448 191q172 0 261 -78.5t89 -224.5q0 -120 -63.5 -224t-174 -165.5t-239.5 -61.5zM487 475 q94 0 248 125q-68 71 -110.5 100t-79.5 29q-73 0 -112.5 -49t-39.5 -125q0 -38 24 -59t70 -21zM1376 729q-44 0 -111 -34.5t-137 -94.5q60 -69 105 -100t86 -31q69 0 110 48t41 120q0 44 -24 68t-70 24z" />
<glyph unicode="&#x221f;" horiz-adv-x="1224" d="M1133 266l-41 -266h-1041l174 1106h307l-133 -840h734z" />
<glyph unicode="&#x2229;" horiz-adv-x="1478" d="M872 0l134 842q25 140 17 222.5t-47.5 115t-125.5 32.5q-128 0 -187.5 -81.5t-93.5 -299.5l-131 -831h-305l127 823q38 240 110.5 379t197 202.5t323.5 63.5q286 0 382 -140.5t42 -475.5l-135 -852h-308z" />
<glyph unicode="&#x222b;" horiz-adv-x="804" d="M-199 -594l52 221q98 -10 149 -10q174 0 193 209q13 132 33 383t44.5 570t34.5 442q20 248 121.5 373.5t312.5 125.5q46 0 101.5 -9t87.5 -19l33 -9l-56 -223q-68 15 -129 15q-80 0 -122.5 -51.5t-51.5 -163.5q-3 -38 -45 -577.5t-59 -768.5q-38 -543 -461 -543 q-57 0 -116.5 8.5t-90.5 17.5z" />
<glyph unicode="&#x2248;" horiz-adv-x="1273" d="M266 588l-110 90q6 10 16 26t45 58t73.5 74t97.5 58t120 26q58 0 115 -22t95.5 -48t90 -48t100.5 -22q32 0 64.5 11.5t56.5 28t44 33.5t30 29l10 11l115 -90q-6 -10 -16.5 -27t-45.5 -59.5t-72 -75t-94 -59.5t-114 -27t-117 21.5t-103.5 48t-99.5 48t-106 21.5 q-30 0 -61 -11t-54 -26.5t-41.5 -31t-28.5 -26.5zM203 186l-111 90q6 10 16 26.5t45 58.5t73.5 74t97.5 58.5t120 26.5q49 0 94.5 -14.5t81.5 -35t70.5 -40.5t75 -34.5t80.5 -14.5q32 0 64.5 11.5t56.5 27.5t44 32.5t30 27.5l10 12l114 -91q-6 -10 -16 -26.5t-45 -58.5 t-72.5 -74.5t-94.5 -59t-114 -26.5q-56 0 -116 21.5t-103.5 48t-100 48t-106.5 21.5q-30 0 -60.5 -11t-53.5 -27.5t-42 -32.5t-29 -27z" />
<glyph unicode="&#x2260;" horiz-adv-x="1306" d="M735 905l139 225h267l-140 -225h230l-37 -235h-338l-127 -201h432l-37 -236h-540l-144 -233h-266l143 233h-215l37 236h324l127 201h-418l37 235h526z" />
<glyph unicode="&#x2261;" horiz-adv-x="1386" d="M1229 895l-37 -236h-993l37 236h993zM1167 506l-37 -236h-993l37 236h993zM1106 117l-37 -236h-993l37 236h993z" />
<glyph unicode="&#x2264;" horiz-adv-x="1257" d="M1061 276l-922 349l39 245l1032 338l-39 -252l-722 -211l653 -219zM1049 193l-39 -244h-979l37 244h981z" />
<glyph unicode="&#x2265;" horiz-adv-x="1267" d="M193 956l38 252l922 -338l-39 -245l-1032 -349l41 250l723 219zM31 -51l39 244h977l-39 -244h-977z" />
<glyph unicode="&#x2302;" horiz-adv-x="1284" d="M1130 647v-647h-976v647l421 463h134zM844 248v299q-36 39 -98 109t-105 116l-201 -223v-301h404z" />
<glyph unicode="&#x2310;" horiz-adv-x="1368" d="M414 532l-60 -368h-252l97 604h1046l-35 -236h-796z" />
<glyph unicode="&#x2320;" horiz-adv-x="765" d="M991 1657l-69 -230q-111 27 -158 27q-64 0 -100 -43.5t-48 -136.5l-284 -1888h-291l281 1865q34 222 147.5 336.5t300.5 114.5q26 0 81.5 -11t97.5 -23z" />
<glyph unicode="&#x2321;" horiz-adv-x="749" d="M709 1700l-277 -1823q-32 -220 -145.5 -335t-296.5 -115q-30 0 -84 10.5t-92 21.5l-39 11l61 223q129 -19 162 -19q59 0 92.5 43t46.5 136l279 1847h293z" />
<glyph unicode="&#x25ca;" horiz-adv-x="1040" d="M563 1587h258l260 -839l-522 -840h-256l-262 842zM475 207l324 538l-154 545l-326 -536z" />
<glyph unicode="&#x25fc;" horiz-adv-x="1105" d="M0 1106h1106v-1106h-1106v1106z" />
<glyph unicode="&#xf6d4;" horiz-adv-x="780" d="M145 1546l228 58q17 -174 196 -174q82 0 155 47t124 127l98 -68q-61 -115 -187 -201t-270 -86q-150 0 -237.5 79t-106.5 218z" />
<glyph horiz-adv-x="600" d="M285 1960l495 -268l-78 -164l-514 211z" />
<glyph horiz-adv-x="1228" d="M573 1597l-77 84q5 9 14.5 24t39.5 52.5t62 66.5t79 53t93 24q58 0 115.5 -23.5t110.5 -46.5t102 -23q35 0 72.5 21.5t57.5 42.5l20 22l92 -79q-5 -9 -14 -24t-38.5 -54t-61 -68.5t-78 -53.5t-91.5 -24q-58 0 -118 22.5t-115.5 45t-104.5 22.5q-37 0 -77 -21t-62 -42z " />
<glyph horiz-adv-x="616" d="M748 1518l-107 213l-510 -353l94 -149z" />
<glyph horiz-adv-x="329" d="M227 1044l-141 58q55 112 93.5 246.5t49.5 238.5l265 10q-19 -115 -97.5 -271.5t-169.5 -281.5z" />
<glyph horiz-adv-x="796" d="M135 1407l352 281l179 14l266 -295l-115 -133l-260 205l-336 -205z" />
<glyph horiz-adv-x="632" d="M100 1704l533 -346l-78 -154l-555 271z" />
<glyph horiz-adv-x="1646" d="M1130 1528l-514 211l97 221l495 -268zM1694 1444l-29 -180l-160 -62l-155 -975l145 -49l-29 -178h-612l29 178l159 49l101 627l-643 -553l-13 -74l144 -49l-29 -178h-608l29 178l157 49l156 977l-141 60l26 170l610 10l-28 -180l-160 -62l-100 -627l643 558l12 71 l-145 60l26 170z" />
<glyph horiz-adv-x="1228" />
<glyph horiz-adv-x="1646" d="M1333 1921l99 -68q-61 -114 -187 -200t-270 -86q-150 0 -237.5 79t-106.5 218l227 57q17 -174 197 -174q82 0 154 47t124 127zM1694 1444l-29 -180l-160 -62l-155 -975l145 -49l-29 -178h-612l29 178l159 49l101 627l-643 -553l-13 -74l144 -49l-29 -178h-608l29 178 l157 49l156 977l-141 60l26 170l610 10l-28 -180l-160 -62l-100 -627l643 558l12 71l-145 60l26 170z" />
<glyph horiz-adv-x="1550" d="M1298 0h-1005q-92 0 -140.5 48t-48.5 140v1006q0 94 48 142t141 48h1005q94 0 142.5 -48t48.5 -142v-1006q0 -92 -48.5 -140t-142.5 -48zM649 926l-114 -68q-18 -6 -23 -6q-12 0 -12 18v279h-176v-819h176v428q0 15 11.5 21.5t43.5 6.5q102 0 102 -133v-323h177v424 q0 74 -53 123t-132 49zM903 825h60q26 0 26 -22v-314q0 -74 53 -124t132 -50l149 88v60q-38 -10 -63 -10q-49 0 -72 33t-23 104v213q0 22 23 22h137v86h-137q-10 0 -16.5 7t-6.5 18v65h-51l-211 -133v-43z" />
<glyph horiz-adv-x="827" d="M514 1214l-63 82v228h208l-71 -228zM473 1192l-111 -12l-206 86l129 184l166 -154zM541 1194l47 102l215 154l76 -178l-234 -94zM465 1161l-49 -100l-215 -156l-76 180l237 95zM645 1178l205 -95l-127 -180l-172 158l-14 96zM500 1141l53 -80v-225h-209l72 225z" />
<glyph horiz-adv-x="602" d="M258 1511l-78 164l502 267l109 -213z" />
<glyph horiz-adv-x="757" d="M956 1812l-325 -260l-178 -16l-256 274l133 123l233 -190l309 190z" />
<glyph horiz-adv-x="825" d="M170 1634l369 295l178 15l278 -312l-114 -133l-273 221l-352 -219z" />
</font>
</defs>
</svg>
