<?xml version="1.0" standalone="no"?>
<!DOCTYPE svg PUBLIC "-//W3C//DTD SVG 1.1//EN" "http://www.w3.org/Graphics/SVG/1.1/DTD/svg11.dtd" >
<svg xmlns="http://www.w3.org/2000/svg">
<metadata></metadata>
<defs>
<font id="bitterbold" horiz-adv-x="1230" >
<font-face units-per-em="2048" ascent="1638" descent="-410" />
<missing-glyph horiz-adv-x="481" />
<glyph unicode="fi" horiz-adv-x="1546" d="M266 1090v81q0 217 125 329t412 112q121 0 245 -19t188 -38l64 -19l-4 -289h-225l-27 123q-121 16 -221 16q-138 0 -194 -46.5t-56 -131.5v-118l768 16v-891l144 -51v-164h-594v164l143 51v670h-461v-670l144 -51v-164h-615v164l164 51v670h-184v170z" />
<glyph unicode="fl" horiz-adv-x="1531" d="M266 1085v97q0 430 522 430q126 0 263 -13t211 -25l75 -13v-1346l185 -51v-164h-635v164l143 51v1153q-117 18 -217 18q-122 0 -181 -44.5t-59 -122.5v-134h267l-6 -204h-261v-666l144 -51v-164h-615v164l164 51v666h-184v174z" />
<glyph unicode="&#xd;" horiz-adv-x="1228" />
<glyph unicode=" "  horiz-adv-x="481" />
<glyph unicode="&#x09;" horiz-adv-x="481" />
<glyph unicode="&#xa0;" horiz-adv-x="481" />
<glyph unicode="!" horiz-adv-x="696" d="M223 524l-37 1043h320l-37 -1032zM174 160q0 84 51.5 134t124.5 50q84 0 128 -48t44 -136q0 -85 -52.5 -136t-125.5 -51q-84 0 -127 48.5t-43 138.5z" />
<glyph unicode="&#x22;" horiz-adv-x="903" d="M117 1024v578h276l-45 -578h-231zM528 1024v578h279l-47 -578h-232z" />
<glyph unicode="#" horiz-adv-x="1495" d="M401 963l37 266h260l-36 -266h258l34 266h260l-34 -266h192v-211h-221l-33 -252h203v-211h-231l-37 -289h-260l36 289h-256l-38 -289h-261l39 289h-190v211h217l35 252h-201v211h227zM858 500l33 252h-256l-35 -252h258z" />
<glyph unicode="$" horiz-adv-x="1130" d="M461 -299v276q-84 4 -171 20.5t-132 30.5l-45 15v363h188l31 -154q69 -37 178 -37q98 0 163.5 37.5t65.5 107.5q0 35 -21.5 62t-57.5 46t-83 36t-99 35.5t-104 39.5t-99 53.5t-83 73t-57.5 101t-21.5 135.5q0 155 94.5 254t253.5 129v242h219v-234q78 -6 158 -24.5 t120 -33.5l41 -15l-8 -336h-176l-39 151q-86 31 -164 31q-95 0 -146.5 -35.5t-51.5 -93.5q0 -44 34.5 -76.5t89.5 -54.5t121.5 -44.5t133 -53.5t121.5 -72t89.5 -110.5t34.5 -159.5q0 -167 -97 -274t-261 -142v-289h-219z" />
<glyph unicode="%" horiz-adv-x="1914" d="M113 1083q0 178 104 281.5t264 103.5q156 0 251 -93.5t95 -268.5q0 -177 -104.5 -283t-265.5 -106q-157 0 -250.5 91t-93.5 275zM348 1092q0 -97 27 -147t92 -50q67 0 96 50.5t29 152.5q0 96 -27.5 145t-93.5 49t-94.5 -51t-28.5 -149zM1063 338q0 178 104.5 281.5 t264.5 103.5q156 0 251 -94t95 -269q0 -177 -105 -283t-266 -106q-157 0 -250.5 91.5t-93.5 275.5zM1298 346q0 -97 27 -146.5t92 -49.5q67 0 96 50t29 152q0 96 -27.5 145.5t-93.5 49.5t-94.5 -51.5t-28.5 -149.5zM1520 1458l-856 -1474h-297l856 1474h297z" />
<glyph unicode="&#x26;" horiz-adv-x="1386" d="M1065 1059h-193q-15 55 -32 133q-70 27 -185 27q-93 0 -143.5 -47t-50.5 -115q0 -88 68.5 -137.5t166.5 -49.5h629v-174l-143 -47v-217q0 -214 -148 -335.5t-403 -121.5q-260 0 -389 110.5t-129 299.5q0 62 22.5 120t53 97t70.5 73.5t66 51t48 27.5q-1 1 -19 12t-25 16 t-26.5 19t-30 23.5t-28.5 27.5t-28 34t-23 38.5t-20 44.5t-12 50t-5 58q0 191 138 291t378 100q107 0 230 -30.5t173 -55.5zM885 649h-154q-133 0 -217 -55.5t-84 -165.5q0 -97 59 -150t162 -53q108 0 171 61.5t63 174.5v188z" />
<glyph unicode="'" horiz-adv-x="491" d="M113 1024v578h276l-45 -578h-231z" />
<glyph unicode="(" horiz-adv-x="722" d="M451 1577h266q-148 -225 -234 -491t-86 -508q0 -266 85.5 -551t232.5 -498h-264q-178 252 -259 494.5t-81 549.5q0 283 82 515t258 489z" />
<glyph unicode=")" horiz-adv-x="716" d="M-2 1577h266q176 -257 258 -489t82 -515q0 -308 -81 -550.5t-259 -493.5h-264q147 212 232 497.5t85 551.5q0 242 -85.5 508t-233.5 491z" />
<glyph unicode="*" horiz-adv-x="854" d="M397 1137l21 -90l-123 -228l-158 111l168 200zM532 1126l168 -194l-149 -113l-133 228l22 90zM418 1202l-70 62l-29 243l191 4l-18 -249zM457 1180l35 82l227 100l63 -184l-250 -52zM385 1176l-80 -46l-254 44l62 182l235 -92z" />
<glyph unicode="+" horiz-adv-x="1269" d="M500 674v418h272v-418h410v-242h-410v-432h-272v432h-414v242h414z" />
<glyph unicode="," horiz-adv-x="620" d="M211 -379l-129 107q14 18 34.5 47.5t54.5 95.5t34 102q0 24 -30 80t-30 109q0 82 50.5 132t126.5 50q78 0 125 -49t47 -139q0 -230 -283 -535z" />
<glyph unicode="-" horiz-adv-x="808" d="M696 686v-256h-583v256h583z" />
<glyph unicode="." horiz-adv-x="614" d="M133 160q0 84 51.5 134t124.5 50q84 0 128 -48t44 -136q0 -86 -51.5 -136.5t-124.5 -50.5q-84 0 -128 48.5t-44 138.5z" />
<glyph unicode="/" horiz-adv-x="1056" d="M1036 1444l-684 -1444h-311l682 1444h313z" />
<glyph unicode="0" horiz-adv-x="1320" d="M680 1468q150 0 253.5 -47t163 -142.5t85.5 -225.5t26 -312q0 -378 -133 -573t-416 -195q-280 0 -408 186t-128 552q0 183 30.5 320t96.5 236.5t173.5 150t256.5 50.5zM668 1212q-118 0 -165.5 -108t-47.5 -383q0 -267 49 -379.5t164 -112.5q114 0 160 112.5t46 389.5 q0 271 -44 376t-162 105z" />
<glyph unicode="1" horiz-adv-x="1101" d="M176 0v236h287v880l-313 -201l-119 218l487 311h262v-1208h277v-236h-881z" />
<glyph unicode="2" horiz-adv-x="1243" d="M82 0v250q114 92 178 144.5t148.5 125t130.5 117.5t98 102t76.5 99t41.5 87.5t17 88.5q0 94 -65.5 149.5t-174.5 55.5q-48 0 -95.5 -9.5t-70.5 -18.5l-24 -9l-20 -174h-216l-10 378q26 9 70.5 22.5t164 36.5t216.5 23q128 0 226.5 -20.5t175 -65.5t117 -125t40.5 -192 q0 -85 -27 -166.5t-70.5 -153t-122 -157.5t-158 -159.5t-202.5 -178.5h615v-250h-1059z" />
<glyph unicode="3" horiz-adv-x="1212" d="M86 1024l-10 358q28 10 75.5 24t168.5 38t212 24q527 0 527 -368q0 -132 -65.5 -222.5t-190.5 -123.5q130 -29 208.5 -118.5t78.5 -205.5q0 -97 -33.5 -175t-89.5 -129.5t-132.5 -86t-159.5 -49.5t-173 -15q-73 0 -146.5 11.5t-126 27.5t-94.5 32.5t-63 27.5l-21 12 l86 225q21 -10 56.5 -24t132 -38t176.5 -24q124 0 192 53.5t68 155.5q0 94 -76 147.5t-215 53.5h-160v215h170q128 0 197.5 50.5t69.5 148.5q0 78 -60 124t-166 46q-45 0 -95 -7.5t-77 -15.5l-28 -8l-21 -164h-215z" />
<glyph unicode="4" horiz-adv-x="1284" d="M1014 291v-291h-316v291h-637l-30 241q44 65 279.5 412t361.5 531l342 -31v-901h205v-252h-205zM702 1083l-364 -540h364v540z" />
<glyph unicode="5" horiz-adv-x="1146" d="M35 86l88 225q21 -10 56.5 -24t131 -38t174.5 -24q102 0 168 55t66 150q0 115 -94.5 167t-286.5 52h-221l35 795h839l-6 -252h-543l-14 -307q297 0 464 -111.5t167 -312.5q0 -151 -77 -263.5t-198.5 -167.5t-265.5 -55q-78 0 -156.5 11.5t-135 27.5t-101.5 32.5t-67 27.5 z" />
<glyph unicode="6" horiz-adv-x="1275" d="M1065 1448l-14 -240q-62 11 -160 11q-90 0 -163.5 -22.5t-119.5 -58t-81 -79t-52 -87t-27 -79t-12 -57.5l-2 -23q16 10 45 24.5t113.5 39t161.5 24.5q95 0 176 -27.5t142.5 -79.5t96.5 -135t35 -188q0 -141 -70 -255.5t-193 -178.5t-275 -64q-133 0 -239 48t-174 133.5 t-104 200t-36 249.5q0 187 47.5 343t140 273t241 182.5t339.5 65.5q54 0 100 -5t65 -10zM426 588v-49q0 -159 67 -236.5t171 -77.5q98 0 157.5 58t59.5 157q0 105 -56.5 162t-165.5 57q-58 0 -116.5 -17.5t-87.5 -35.5z" />
<glyph unicode="7" horiz-adv-x="1087" d="M1055 1223l-537 -1223h-338l531 1188h-453l-41 -191h-207v447h1045v-221z" />
<glyph unicode="8" horiz-adv-x="1265" d="M1139 1081q0 -63 -22 -116.5t-59.5 -90.5t-71 -59.5t-71.5 -40.5q120 -57 189.5 -139.5t69.5 -212.5q0 -200 -155.5 -324.5t-408.5 -124.5q-249 0 -383.5 116t-134.5 304q0 215 262 346q-102 57 -158.5 134t-56.5 194q0 190 139 295.5t379 105.5q231 0 356.5 -106.5 t125.5 -280.5zM444 1067q0 -38 16.5 -68.5t51 -54.5t68 -40t86.5 -36q28 12 53 27.5t52.5 39.5t43.5 58.5t16 73.5q0 68 -52.5 110t-141.5 42q-90 0 -141.5 -42t-51.5 -110zM850 414q0 41 -18 74t-56.5 59.5t-75 43.5t-96.5 40q-190 -87 -190 -223q0 -89 56.5 -136 t160.5 -47t161.5 50t57.5 139z" />
<glyph unicode="9" horiz-adv-x="1263" d="M205 -6l14 239q62 -8 160 -8q92 0 166.5 22t120.5 57.5t81 78.5t51 86t25.5 78.5t10.5 57.5l2 22q-16 -9 -45 -23t-113.5 -37.5t-161.5 -23.5q-95 0 -176 27t-142.5 79t-96.5 134.5t-35 187.5q0 218 153 357.5t385 139.5q133 0 239 -47.5t174 -132.5t104 -199t36 -249 q0 -149 -29 -279t-90 -238.5t-150.5 -186t-216.5 -120.5t-282 -43q-54 0 -100 5t-65 10zM844 856v55q0 155 -67.5 231.5t-170.5 76.5q-98 0 -157.5 -59t-59.5 -159q0 -104 56 -161.5t165 -57.5q58 0 116.5 18.5t87.5 37.5z" />
<glyph unicode=":" horiz-adv-x="624" d="M137 774q0 85 52.5 136t125.5 51q84 0 127 -48.5t43 -138.5q0 -84 -51.5 -134t-124.5 -50q-84 0 -128 48t-44 136zM137 160q0 84 52.5 134t125.5 50q84 0 127 -47.5t43 -136.5q0 -86 -51.5 -136.5t-124.5 -50.5q-84 0 -128 48.5t-44 138.5z" />
<glyph unicode=";" horiz-adv-x="636" d="M150 774q0 86 51.5 136.5t124.5 50.5q84 0 128 -48.5t44 -138.5q0 -84 -51.5 -134t-124.5 -50q-84 0 -128 48t-44 136zM217 -379l-131 107q14 18 34.5 47.5t54.5 95.5t34 102q0 24 -29.5 80t-29.5 109q0 82 50 132t128 50t124 -49t46 -139q0 -229 -281 -535z" />
<glyph unicode="&#x3c;" horiz-adv-x="1222" d="M1141 -20l-1059 446v246l1059 448v-266l-727 -307l727 -297v-270z" />
<glyph unicode="=" horiz-adv-x="1228" d="M1126 895v-236h-1024v236h1024zM1126 455v-236h-1024v236h1024z" />
<glyph unicode="&#x3e;" horiz-adv-x="1222" d="M82 854v266l1059 -448v-246l-1059 -446v270l727 297z" />
<glyph unicode="?" horiz-adv-x="950" d="M483 518l-272 -12q-18 133 -18 201q0 46 25.5 92.5t64 82t83.5 76t83.5 75.5t64 79t25.5 88q0 135 -185 135q-39 0 -84.5 -5.5t-71.5 -11.5l-26 -5l-39 213q170 49 305 49q82 0 151.5 -16.5t129.5 -51.5t94.5 -99t34.5 -151q0 -64 -20.5 -123t-53 -105t-71.5 -88 t-78.5 -79.5t-72 -73t-53 -74.5t-20.5 -77zM193 160q0 84 51.5 134t124.5 50q84 0 128 -48t44 -136q0 -85 -53 -136t-126 -51q-84 0 -126.5 48.5t-42.5 138.5z" />
<glyph unicode="@" horiz-adv-x="1679" d="M1061 219l84 -168q-6 -3 -16.5 -8.5t-45.5 -20t-73.5 -25t-98 -19.5t-120.5 -9q-335 0 -515 190t-180 548q0 352 208 556.5t558 204.5q343 0 539 -186.5t196 -531.5q0 -211 -107.5 -330t-275.5 -119q-171 0 -245 127q-4 -5 -12 -13t-33.5 -28.5t-52 -36t-66.5 -28.5 t-78 -13q-108 0 -169.5 63.5t-61.5 172.5q0 243 344 243h94v70q0 50 -29 73t-90 23q-41 0 -96 -8.5t-90 -17.5l-35 -8l-39 151q18 7 49.5 17.5t113.5 27.5t146 17q157 0 229 -62t72 -197v-339q0 -34 19 -53t53 -19q64 0 99.5 70.5t35.5 205.5q0 251 -134 391t-386 140 q-254 0 -392 -145t-138 -408q0 -266 120 -407.5t363 -141.5q62 0 126 13t97 25zM934 653h-80q-76 0 -109.5 -22t-33.5 -68q0 -35 23 -55.5t61 -20.5q69 0 139 70v96z" />
<glyph unicode="A" horiz-adv-x="1531" d="M1522 174v-174h-652v174l154 55l-49 150h-455l-51 -148l160 -57v-174h-619v174l150 57l450 1207l328 6l440 -1213zM907 598l-153 485l-162 -485h315z" />
<glyph unicode="B" horiz-adv-x="1347" d="M543 1444h215q207 0 328.5 -89t121.5 -265q0 -261 -245 -338q144 -41 218 -125t74 -203q0 -424 -532 -424h-651v174l153 62v962l-153 62v174zM543 854h119q229 0 229 190q0 76 -48 115t-126 39h-174v-344zM543 246h170q107 0 163 46.5t56 131.5q0 112 -65.5 163.5 t-204.5 51.5h-119v-393z" />
<glyph unicode="C" horiz-adv-x="1366" d="M1069 983l-47 197q-96 32 -229 32q-164 0 -251 -124.5t-87 -376.5q0 -471 348 -471q57 0 118.5 14.5t107.5 35.5t84.5 42.5t58.5 35.5l20 15l113 -184q-9 -9 -25.5 -24t-71 -54t-113 -68.5t-148 -53.5t-179.5 -24q-314 0 -484.5 185.5t-170.5 539.5q0 358 186.5 563 t503.5 205q110 0 229.5 -24t183.5 -48l64 -24l-10 -389h-201z" />
<glyph unicode="D" horiz-adv-x="1501" d="M236 236v962l-154 62v174l471 10h195q311 0 481 -180.5t170 -522.5q0 -344 -184 -542.5t-498 -198.5h-635v174zM553 246h170q78 0 136.5 24.5t103.5 79t68.5 150.5t23.5 231q0 249 -80.5 358t-237.5 109h-184v-952z" />
<glyph unicode="E" horiz-adv-x="1273" d="M977 860v-225h-414v-389h367l47 168h184v-414h-1069v174l154 62v962l-154 62v174l471 10h574v-395h-185l-51 149h-338v-338h414z" />
<glyph unicode="F" horiz-adv-x="1187" d="M92 0v174l154 62v962l-154 62v174l471 10h574v-389h-191l-51 143h-332v-358h424v-226h-424v-378l189 -62v-174h-660z" />
<glyph unicode="G" horiz-adv-x="1536" d="M1079 1004l-51 176q-96 32 -231 32q-167 0 -254.5 -124t-87.5 -377q0 -475 348 -475q47 0 103.5 9t89.5 18l32 9v258l-154 48v167l590 11v-178l-139 -48v-417q-9 -6 -25 -15t-71 -33t-115.5 -42t-154.5 -33t-191 -15q-314 0 -484.5 185.5t-170.5 539.5q0 358 186.5 563 t503.5 205q110 0 229.5 -24t183.5 -48l64 -24l-10 -368h-191z" />
<glyph unicode="H" horiz-adv-x="1622" d="M72 0v174l153 62v962l-153 62v174l635 10v-184l-164 -62v-328h536v328l-164 62v174l635 10v-184l-153 -62v-962l153 -62v-174h-635v174l164 62v389h-536v-389l164 -62v-174h-635z" />
<glyph unicode="I" horiz-adv-x="788" d="M82 0v174l154 62v962l-154 62v174l625 10v-184l-154 -62v-962l154 -62v-174h-625z" />
<glyph unicode="J" horiz-adv-x="786" d="M561 1198v-981q0 -139 -22.5 -236.5t-75.5 -169t-144.5 -105.5t-224.5 -34q-29 0 -68 4t-63 8l-24 3l26 211h98q181 0 181 196v1104l-154 62v174l625 10v-184z" />
<glyph unicode="K" horiz-adv-x="1474" d="M72 0v174l153 62v966l-153 62v170l624 10v-180l-153 -62v-352h139l342 584l379 10v-180l-195 -58l-268 -446l381 -524l154 -62v-174h-625v174l123 62l-281 389h-149v-389l153 -62v-174h-624z" />
<glyph unicode="L" horiz-adv-x="1105" d="M846 246l45 225h194v-471h-1024v174l154 62v962l-154 62v174l625 10v-184l-154 -62v-952h314z" />
<glyph unicode="M" horiz-adv-x="1798" d="M72 0v174l153 62v962l-153 62v174l528 10l307 -682l322 672l491 10v-184l-147 -62v-962l153 -62v-174h-610v174l160 62v770l-55 -136l-232 -481l-221 -10l-236 485l-34 107v-735l157 -62v-174h-583z" />
<glyph unicode="N" horiz-adv-x="1611" d="M72 0v174l153 62v962l-153 62v174l491 10l553 -946v700l-149 62v174l583 10v-184l-153 -62v-1198h-342l-549 928v-692l160 -62v-174h-594z" />
<glyph unicode="O" horiz-adv-x="1546" d="M788 1468q307 0 476.5 -191.5t169.5 -535.5q0 -345 -189 -556.5t-497 -211.5t-471.5 189t-163.5 549q0 352 181 554.5t494 202.5zM778 1212q-160 0 -238.5 -113t-78.5 -378q0 -254 71.5 -373t225.5 -119q161 0 244 117.5t83 384.5q0 250 -75.5 365.5t-231.5 115.5z" />
<glyph unicode="P" horiz-adv-x="1275" d="M72 0v174l153 62v962l-153 62v174l471 10h194q234 0 366 -115t132 -315q0 -255 -150.5 -383.5t-433.5 -128.5h-108v-266l153 -62v-174h-624zM543 741h108q128 0 197.5 59.5t69.5 172.5q0 103 -54.5 164t-156.5 61h-164v-457z" />
<glyph unicode="Q" horiz-adv-x="1519" d="M1110 -301l-414 278q-284 19 -433.5 206t-149.5 528q0 350 186 553.5t504 203.5q313 0 482 -191t169 -536q0 -263 -113 -452t-313 -266q24 -15 74.5 -49.5t83.5 -55t77.5 -44.5t84 -36t75.5 -12q29 0 76.5 18t80.5 36l32 18q21 -30 57 -86t51 -78q-9 -6 -24 -15.5 t-59.5 -34.5t-85 -44t-91.5 -34.5t-88 -15.5q-61 0 -122 28t-140 81zM793 1212q-174 0 -258 -118t-84 -373q0 -247 79 -369.5t242 -122.5q174 0 259 123t85 379q0 247 -77.5 364t-245.5 117z" />
<glyph unicode="R" horiz-adv-x="1382" d="M72 0v174l153 62v962l-153 62v174l471 10h155q256 0 394.5 -106t138.5 -312q0 -270 -232 -387q50 -59 86 -133l138 -281l139 -51v-174h-379l-172 379q-20 46 -31.5 69t-26.5 48.5t-26 35.5t-28.5 20t-37 12.5t-47.5 2.5h-71v-331l147 -62v-174h-618zM543 782h116 q122 0 189 56t67 159q0 89 -55 145t-149 56h-168v-416z" />
<glyph unicode="S" horiz-adv-x="1239" d="M336 444l31 -172q9 -5 26 -12t69 -19t105 -12q104 0 176 44t72 122q0 38 -23.5 68t-63.5 51.5t-92 40.5t-109.5 39t-115 44t-109.5 59t-92 79.5t-63.5 110.5t-23.5 147q0 138 68.5 237.5t185 148t266.5 48.5q103 0 215.5 -20.5t173.5 -41.5l62 -20l-11 -372h-188l-51 174 q-92 31 -180 31q-105 0 -161.5 -41t-56.5 -105q0 -38 23.5 -68t63.5 -51.5t92 -41t109.5 -39.5t114.5 -43.5t109 -58t92 -77t63.5 -105.5t23.5 -140q0 -150 -73 -259t-197 -163t-283 -54q-103 0 -217 19.5t-177 39.5l-63 19v393h209z" />
<glyph unicode="T" horiz-adv-x="1228" d="M455 236v962h-195l-51 -194h-189v440h1188v-440h-190l-51 194h-195v-962l195 -62v-174h-707v174z" />
<glyph unicode="U" horiz-adv-x="1615" d="M541 1198v-645q0 -179 59.5 -253.5t208.5 -74.5q81 0 133 21t80.5 68.5t39.5 110.5t11 159v614l-160 62v174l631 10v-184l-153 -62v-614q0 -152 -31 -262.5t-100 -189.5t-183.5 -118t-277.5 -39q-306 0 -441 139t-135 439v645l-151 62v174l628 10v-184z" />
<glyph unicode="V" horiz-adv-x="1482" d="M10 1260v174l635 10v-184l-151 -60l188 -588l66 -252l65 242l203 596l-156 62v174l613 10v-184l-150 -62l-432 -1198h-328l-413 1202z" />
<glyph unicode="W" horiz-adv-x="2119" d="M10 1260v174l608 10v-184l-149 -62l176 -737l287 966l276 17l275 -981l196 735l-153 62v174l583 10v-184l-147 -62l-350 -1198h-291l-268 973l-49 -195l-236 -778h-283l-331 1200z" />
<glyph unicode="X" horiz-adv-x="1515" d="M20 0v174l127 51l414 500l-381 496l-119 39v174l615 10v-184l-103 -35l211 -281l201 273l-111 43v174l590 10v-184l-135 -41l-377 -478l400 -518l143 -49v-174h-635v174l94 41l-225 303l-229 -295l129 -49v-174h-609z" />
<glyph unicode="Y" horiz-adv-x="1366" d="M369 0v174l153 62v264l-375 704l-133 56v174l580 10v-184l-105 -43l205 -441l217 438l-112 46v174l553 10v-184l-142 -56l-370 -702v-266l153 -62v-174h-624z" />
<glyph unicode="Z" horiz-adv-x="1259" d="M61 215l727 983h-430l-51 -184h-194v430h1085v-232l-713 -966h467l45 205h195v-451h-1131v215z" />
<glyph unicode="[" horiz-adv-x="720" d="M137 -471v2048l512 -10v-211l-243 -23v-1562l243 -23v-209z" />
<glyph unicode="\" horiz-adv-x="1036" d="M698 0l-684 1444h314l682 -1444h-312z" />
<glyph unicode="]" horiz-adv-x="720" d="M311 -227v1560l-245 23v211l512 10v-2048l-512 10v211z" />
<glyph unicode="^" horiz-adv-x="1218" d="M102 655l394 789h225l395 -789h-264l-248 502l-246 -502h-256z" />
<glyph unicode="_" horiz-adv-x="1015" d="M1020 -164v-205h-1024v205h1024z" />
<glyph unicode="`" horiz-adv-x="655" d="M188 1739l457 -365l-100 -149l-496 301z" />
<glyph unicode="a" d="M770 0l-37 133q-6 -6 -18 -16.5t-48.5 -37t-73.5 -46.5t-90 -36.5t-102 -16.5q-150 0 -234.5 84t-84.5 237q0 176 126 257t367 81h144v113q0 149 -158 149q-46 0 -91 -7.5t-67 -15.5l-22 -8l-31 -129h-184l-14 303q28 9 74.5 22.5t164 36.5t205.5 23q234 0 332 -91.5 t98 -313.5v-506l154 -37v-164zM719 465h-117q-119 0 -171 -31.5t-52 -101.5q0 -59 31.5 -91t89.5 -32q31 0 64.5 12.5t60 29.5t48.5 34.5t34 30.5l12 12v137z" />
<glyph unicode="b" horiz-adv-x="1265" d="M471 1587v-569q140 108 293 108q204 0 312 -141t108 -401q0 -292 -151 -450.5t-443 -158.5q-100 0 -206.5 11t-163.5 22l-56 12v1346l-154 41v164zM471 788v-550q48 -17 152 -17q243 0 243 342q0 158 -47.5 238t-152.5 80q-55 0 -103.5 -23.5t-70.5 -46.5z" />
<glyph unicode="c" horiz-adv-x="1075" d="M942 334l102 -180q-28 -24 -60.5 -47t-90 -55.5t-133.5 -52t-156 -19.5q-252 0 -392 147.5t-140 409.5q0 275 148 432t415 157q78 0 167.5 -18t139.5 -36l51 -17l-10 -336h-184l-29 145q-59 17 -141 17q-113 0 -176.5 -76.5t-63.5 -226.5q0 -169 65 -261t191 -92 q41 0 78 6.5t72.5 22t54 25t53 31t39.5 24.5z" />
<glyph unicode="d" horiz-adv-x="1306" d="M829 0l-18 109q-129 -129 -309 -129q-210 0 -315 143t-105 403q0 292 140.5 446t418.5 154q64 0 154 -20v260l-164 41v164l471 16v-1368l164 -41v-164zM795 342v508q-67 31 -160 31q-236 0 -236 -338q0 -159 47.5 -238.5t149.5 -79.5q37 0 71 12t56 29t39 34.5t25 29.5z " />
<glyph unicode="e" horiz-adv-x="1155" d="M1071 485h-680q9 -122 75.5 -191t172.5 -69q76 0 162 24.5t134 48.5l48 24l88 -170q-8 -7 -23.5 -18.5t-65 -41t-101 -52.5t-128 -41.5t-149.5 -18.5q-261 0 -396.5 144t-135.5 408q0 271 145.5 432.5t400.5 161.5q225 0 345 -128.5t120 -352.5q0 -35 -3 -73t-6 -62 t-3 -25zM395 676h371q0 93 -41.5 149t-126.5 56q-84 0 -137.5 -56t-65.5 -149z" />
<glyph unicode="f" horiz-adv-x="946" d="M266 1085v93q0 200 114 317t327 117q98 0 188.5 -19t132.5 -38l41 -19l-6 -301h-184l-31 143q-49 8 -117 8q-158 0 -158 -174v-127h267l-6 -204h-261v-666l205 -51v-164h-676v164l164 51v666h-184v174z" />
<glyph unicode="g" horiz-adv-x="1249" d="M471 184h303q196 0 303 -82t107 -235q0 -177 -145 -283t-429 -106q-125 0 -219 15t-165 49t-107.5 92t-36.5 141q0 49 22 92.5t54 70t63.5 46.5t53.5 28l22 8q-5 1 -13.5 3t-29.5 11.5t-37 23t-29.5 39.5t-13.5 59q0 64 107 231q-158 106 -158 320q0 137 65 233t174 141 t252 45q136 0 242 -49l352 8v-163l-168 -29q0 -2 10 -27.5t17.5 -60.5t7.5 -74q0 -109 -36.5 -190.5t-103.5 -131t-154.5 -74t-196.5 -24.5q-24 0 -48.5 2.5t-39.5 5.5t-17 3zM604 915q-91 0 -132.5 -48t-41.5 -146q0 -205 164 -205q94 0 134 49.5t40 155.5q0 98 -40 146 t-124 48zM692 -41h-215q-4 -2 -10.5 -5.5t-23.5 -16t-30 -26.5t-23.5 -37t-10.5 -48q0 -73 60.5 -98t195.5 -25q138 0 200 33t62 106q0 66 -48.5 91.5t-156.5 25.5z" />
<glyph unicode="h" horiz-adv-x="1372" d="M512 1587v-600q63 52 153.5 95.5t190.5 43.5q155 0 238.5 -97t83.5 -271v-543l143 -51v-164h-557v164l106 49v496q0 163 -135 163q-32 0 -67 -11t-61.5 -27t-48.5 -32t-34 -27l-12 -11v-549l109 -51v-164h-580v164l164 51v1151l-164 41v164z" />
<glyph unicode="i" horiz-adv-x="747" d="M199 1444q0 84 51.5 134t124.5 50q172 0 172 -184q0 -86 -52 -136.5t-120 -50.5q-84 0 -130 48.5t-46 138.5zM543 215l143 -51v-164h-614v164l164 51v666l-164 51v164l471 10v-891z" />
<glyph unicode="j" horiz-adv-x="690" d="M199 1444q0 82 50.5 133t125.5 51q172 0 172 -184q0 -83 -50.5 -135t-121.5 -52q-84 0 -130 48.5t-46 138.5zM543 1106v-1079q0 -137 -22 -232.5t-73.5 -164t-139 -100.5t-216.5 -32q-29 0 -68 4t-63 8l-24 3l24 200h107q90 0 129 50.5t39 152.5v965l-164 51v164z" />
<glyph unicode="k" horiz-adv-x="1296" d="M512 694h135l139 209l-90 29v164l529 10v-174l-144 -27l-190 -268l229 -424l156 -49v-164h-379l-254 500h-131v-285l113 -51v-164h-584v164l164 51v1151l-164 41v164l471 16v-893z" />
<glyph unicode="l" horiz-adv-x="708" d="M514 215l184 -51v-164h-657v164l164 51v1151l-164 41v164l473 16v-1372z" />
<glyph unicode="m" horiz-adv-x="2033" d="M1982 164v-164h-555v164l109 51v487q0 86 -28 127t-91 41q-37 0 -74 -11t-63.5 -26.5t-47.5 -31t-32 -26.5l-10 -11v-549l106 -51v-164h-520v164l107 51v487q0 87 -26.5 127.5t-90.5 40.5q-37 0 -74.5 -11t-64 -26.5t-48 -31t-31.5 -26.5l-11 -11v-549l108 -51v-164h-573 v164l157 51v666l-155 51v164l428 10l14 -145q7 7 20 18t53.5 39.5t81 50t97 39.5t106.5 18q207 0 283 -176q20 20 49 43t79.5 56.5t115 55t127.5 21.5q158 0 236.5 -96t78.5 -272v-543z" />
<glyph unicode="n" horiz-adv-x="1402" d="M506 1106l14 -141q8 6 22 17t57.5 38t86.5 47.5t101.5 37.5t109.5 17q148 0 229.5 -97.5t81.5 -266.5v-543l144 -51v-164h-564v164l113 51v487q0 72 -38 118t-101 46q-36 0 -71.5 -12t-61 -29t-46 -34t-30.5 -29l-10 -12v-535l112 -51v-164h-583v164l164 51v666l-164 51 v164z" />
<glyph unicode="o" horiz-adv-x="1212" d="M625 1126q248 0 382 -144t134 -409q0 -275 -148 -434t-399 -159q-522 0 -522 563q0 274 150 428.5t403 154.5zM614 881q-116 0 -170.5 -74.5t-54.5 -253.5q0 -169 51.5 -248.5t163.5 -79.5q113 0 166 78.5t53 259.5q0 160 -50.5 239t-158.5 79z" />
<glyph unicode="p" horiz-adv-x="1306" d="M41 1096l436 10l19 -115q6 5 16 14.5t43 32.5t66.5 41t82.5 32.5t95 14.5q209 0 317.5 -143.5t108.5 -398.5q0 -288 -137 -446t-402 -158q-86 0 -174 20v-260l195 -47v-164h-662v164l160 47v1141l-164 51v164zM512 768v-522q73 -31 160 -31q127 0 181 83.5t54 248.5 q0 163 -48.5 248.5t-156.5 85.5q-37 0 -70.5 -11.5t-54.5 -28t-36.5 -33.5t-22.5 -28z" />
<glyph unicode="q" horiz-adv-x="1224" d="M1245 -471h-655v164l194 51v346q-5 -4 -15 -11.5t-42 -26.5t-64.5 -33.5t-79.5 -26.5t-91 -12q-209 0 -314.5 144t-105.5 398q0 285 152 444.5t442 159.5q100 0 206.5 -12t163.5 -24l56 -13v-1333l153 -51v-164zM784 317v557q-57 17 -159 17q-122 0 -179 -92.5 t-57 -255.5q0 -158 48.5 -238t154.5 -80q56 0 104 23t68 46z" />
<glyph unicode="r" horiz-adv-x="1005" d="M502 1106l18 -141q6 7 17 17.5t43.5 38.5t65 49t77 38.5t82.5 17.5q50 0 97.5 -9t69.5 -18l23 -9l-16 -394h-184l-31 174q-53 0 -108 -28.5t-84 -57.5l-29 -28v-541l205 -51v-164h-676v164l164 51v666l-164 51v164z" />
<glyph unicode="s" horiz-adv-x="997" d="M262 358l17 -133q72 -20 172 -20q167 0 167 100q0 34 -30 59.5t-78.5 44t-106.5 37t-116 45t-106.5 61.5t-78.5 92.5t-30 131.5q0 92 35 162t95.5 109.5t133.5 59t158 19.5q82 0 177 -15t149 -31l54 -15l-8 -307h-174l-30 123q-60 20 -142 20q-67 0 -104 -27t-37 -77 q0 -33 30 -58t78.5 -42t107 -34.5t116.5 -42t106.5 -57.5t78.5 -88t30 -127q0 -174 -128 -271t-343 -97q-87 0 -181 11t-145 23l-51 11v333h184z" />
<glyph unicode="t" horiz-adv-x="892" d="M799 262l73 -156q-170 -126 -348 -126q-86 0 -146.5 28.5t-94 83.5t-48 124.5t-14.5 162.5v471h-190v199l190 26v283l307 55v-338h287v-225h-287v-451q0 -101 23 -142.5t86 -41.5q36 0 84.5 16t77.5 31z" />
<glyph unicode="u" horiz-adv-x="1370" d="M31 932v164l471 10v-707q0 -86 28.5 -124.5t96.5 -38.5q37 0 74.5 11.5t64.5 27.5t48.5 32t32.5 27l11 12v535l-164 51v164l471 10v-891l164 -41v-160l-432 -14l-20 143q-7 -7 -19 -18t-51 -39t-79 -49.5t-97.5 -39t-112.5 -17.5q-153 0 -238 97t-85 269v535z" />
<glyph unicode="v" horiz-adv-x="1226" d="M680 932v164l537 10v-174l-117 -27l-330 -905h-338l-323 899l-99 33v164l537 10v-174l-115 -21l186 -604l181 598z" />
<glyph unicode="w" horiz-adv-x="1794" d="M1384 901l-124 31v164l524 10v-174l-109 -25l-272 -907h-313l-162 522l-37 160l-51 -223l-150 -459h-311l-279 903l-90 29v164l537 10v-174l-129 -25l135 -575l217 739l270 45l224 -784z" />
<glyph unicode="x" horiz-adv-x="1191" d="M1161 932l-127 -27l-235 -352l231 -348l152 -41v-164h-557v164l63 22l-108 181l-222 -367h-348v164l154 41l225 338l-248 362l-110 27v164l530 10v-174l-61 -12l106 -181l213 357l342 10v-174z" />
<glyph unicode="y" d="M10 932v164l547 10v-174l-115 -21l183 -573l174 567l-119 27v164l551 10v-174l-127 -27l-301 -839q-24 -66 -44.5 -116.5t-51.5 -111.5t-62 -105.5t-73.5 -89t-89.5 -72.5t-107.5 -45.5t-128.5 -17.5q-31 0 -81 4t-84 8l-34 5l29 219h133q47 0 88.5 20t68 45t53.5 66.5 t37.5 63.5t26.5 59l-364 901z" />
<glyph unicode="z" horiz-adv-x="1034" d="M967 915l-512 -690h299l34 174h185v-399h-891v188l520 693h-280l-31 -150h-185v375h861v-191z" />
<glyph unicode="{" horiz-adv-x="827" d="M518 1167v-215q0 -142 -41.5 -225t-146.5 -123q188 -73 188 -291v-354q0 -123 51 -166t197 -43v-211h-137q-204 0 -288.5 100t-84.5 334v316q0 102 -43.5 157.5t-151.5 55.5v205q108 0 151.5 55.5t43.5 157.5v288q0 198 92.5 288.5t280.5 90.5h137v-211q-146 0 -197 -43 t-51 -166z" />
<glyph unicode="|" horiz-adv-x="569" d="M164 1546h242v-2017h-242v2017z" />
<glyph unicode="}" horiz-adv-x="837" d="M328 893v274q0 123 -50 166t-196 43v211h137q190 0 281.5 -91t91.5 -288v-288q0 -102 43 -157.5t151 -55.5v-205q-108 0 -151 -55.5t-43 -157.5v-316q0 -233 -86 -333.5t-289 -100.5h-135v211q146 0 196 43t50 166v354q0 217 190 291q-190 74 -190 289z" />
<glyph unicode="~" horiz-adv-x="1282" d="M215 428l-127 104q4 10 13 26t39.5 58t66 74t92.5 58t119 26q58 0 119 -21.5t103.5 -47t97.5 -47t104 -21.5q50 0 99 28.5t73 56.5l24 28l136 -103q-5 -10 -14 -26.5t-41 -59t-66.5 -75t-90 -59t-112.5 -26.5q-58 0 -121 21.5t-109.5 47.5t-105 47.5t-108.5 21.5 q-31 0 -61.5 -11.5t-53 -27.5t-40.5 -32.5t-27 -27.5z" />
<glyph unicode="&#xa1;" horiz-adv-x="690" d="M516 954q0 -84 -51.5 -134t-124.5 -50q-84 0 -128 48t-44 136q0 85 52.5 136t125.5 51q84 0 127 -48.5t43 -138.5zM471 590l39 -1043h-322l37 1033z" />
<glyph unicode="&#xa2;" horiz-adv-x="1044" d="M457 0v225q-183 33 -281 164t-98 334q0 209 97 346t282 176v199h221v-187q64 -5 132.5 -22.5t105.5 -32.5l36 -14l-10 -311h-174l-29 141q-59 16 -131 16q-229 0 -229 -272q0 -322 244 -322q31 0 61.5 5.5t52 11.5t49 18.5t40 19.5t37.5 22l30 18l100 -160 q-27 -24 -62.5 -49.5t-108 -59.5t-144.5 -45v-221h-221z" />
<glyph unicode="&#xa3;" horiz-adv-x="1280" d="M123 174l102 41q60 24 78.5 67t18.5 142l-11 231h-188v191l174 28q-6 85 -6 170q0 200 107 312t329 112q116 0 224.5 -18t158.5 -36l51 -17v-332h-184l-41 152q-76 12 -174 12q-168 0 -168 -180q0 -86 4 -168h295v-226h-279q11 -132 11 -200q0 -38 -6 -72.5t-15.5 -58.5 t-20 -42.5t-19.5 -27t-15 -8.5h381l47 205h190v-451h-1044v174z" />
<glyph unicode="&#xa4;" horiz-adv-x="1277" d="M104 240l156 153q-45 95 -45 213q0 121 53 213l-162 164l152 164l164 -164q109 61 227 61q116 0 213 -51l158 156l151 -164l-151 -151q51 -94 51 -216q0 -125 -57 -227l160 -158l-154 -161l-162 159q-97 -57 -219 -57q-136 0 -227 55l-154 -153zM465 610q0 -223 178 -223 q180 0 180 223q0 215 -180 215q-178 0 -178 -215z" />
<glyph unicode="&#xa5;" horiz-adv-x="1376" d="M365 825l-209 377l-136 58v174l578 10v-184l-104 -43l206 -429l218 426l-115 46v174l553 10v-184l-144 -56l-211 -379h195v-184h-1024v184h193zM526 225v109h-354v184h1024v-184h-352v-109l153 -51v-174h-624v174z" />
<glyph unicode="&#xa6;" horiz-adv-x="608" d="M178 1567h242v-819h-242v819zM178 297h242v-840h-242v840z" />
<glyph unicode="&#xa7;" horiz-adv-x="1093" d="M352 106l29 -180q43 -12 104 -12q73 0 115.5 37t42.5 100q0 48 -28.5 91.5t-74 79t-100.5 71.5t-110 77.5t-100.5 88.5t-74 113t-28.5 143q0 201 143 303q-61 97 -61 219q0 165 116 270t296 105q80 0 159.5 -16t118.5 -32l39 -16l-8 -338h-162l-35 176q-51 13 -96 13 q-75 0 -117.5 -38.5t-42.5 -100.5q0 -50 28.5 -94.5t73.5 -81t100 -73t110 -78.5t100 -89t73.5 -112.5t28.5 -141.5q0 -103 -41 -179t-102 -120q61 -94 61 -209q0 -173 -114.5 -279t-296.5 -106q-76 0 -155.5 14.5t-120.5 29.5l-42 15l4 350h168zM385 750q0 -36 18 -69 t53 -63t70 -54.5t86.5 -59.5t85.5 -62q37 46 37 115q0 36 -18 68.5t-53.5 62.5t-71 54.5t-87 58.5t-85.5 61q-35 -50 -35 -112z" />
<glyph unicode="&#xa8;" horiz-adv-x="1114" d="M184 1458q0 72 44.5 116t107.5 44q71 0 109 -42t38 -118q0 -74 -44 -117t-107 -43q-72 0 -110 41.5t-38 118.5zM631 1458q0 72 45 116t106 44q72 0 110 -42t38 -118q0 -73 -44.5 -116.5t-107.5 -43.5q-72 0 -109.5 41.5t-37.5 118.5z" />
<glyph unicode="&#xa9;" horiz-adv-x="1685" d="M76 707q0 163 58 305t159.5 243.5t243.5 159.5t305 58q218 0 392.5 -94t274 -265t99.5 -387t-104.5 -392t-284.5 -275t-398 -99t-387.5 94t-263.5 264t-94 388zM285 717q0 -252 149 -407.5t397 -155.5q250 0 409 156.5t159 406.5q0 248 -159 405.5t-409 157.5 q-247 0 -396.5 -156t-149.5 -407zM1071 559l76 -117q-156 -131 -311 -131q-175 0 -276 101.5t-101 287.5q0 198 105 315.5t294 117.5q56 0 122 -15.5t104 -31.5l38 -15l-6 -229h-141l-23 112q-51 13 -98 13q-170 0 -170 -240q0 -246 178 -246q57 0 117 26t92 52z" />
<glyph unicode="&#xaa;" horiz-adv-x="999" d="M592 659l-29 103q-4 -5 -12 -13t-33 -28t-51 -35.5t-65.5 -28t-77.5 -12.5q-111 0 -171.5 61.5t-60.5 176.5q0 125 88.5 183t261.5 58h95v74q0 44 -27.5 69t-75.5 25q-31 0 -63 -4.5t-48 -9.5l-16 -4l-18 -88h-146l-12 223q195 59 334 59q167 0 235 -68t68 -224v-345 l109 -24v-135zM537 991h-80q-75 0 -109.5 -21.5t-34.5 -70.5q0 -34 22.5 -54t59.5 -20q33 0 68.5 17.5t54.5 35.5l19 17v96zM877 481v-205h-764v205h764z" />
<glyph unicode="&#xab;" horiz-adv-x="1226" d="M424 100l-311 363v158l311 362l170 -113l-223 -327l223 -328zM944 100l-319 363v158l319 362l170 -113l-231 -327l231 -328z" />
<glyph unicode="&#xac;" horiz-adv-x="1314" d="M1202 768v-604h-260v368h-819v236h1079z" />
<glyph unicode="&#xad;" horiz-adv-x="808" d="M696 686v-256h-583v256h583z" />
<glyph unicode="&#xae;" horiz-adv-x="1480" d="M92 920q0 184 84 332.5t232.5 232.5t332.5 84q182 0 329.5 -78t233 -222t85.5 -327t-89.5 -332.5t-242.5 -233t-338 -83.5q-277 0 -452 174.5t-175 452.5zM293 932q0 -206 118 -332.5t320 -126.5q204 0 331.5 127.5t127.5 331.5t-127.5 330.5t-331.5 126.5 q-202 0 -320 -125.5t-118 -331.5zM455 618v93l69 24v406l-69 28v86l293 5q114 2 182.5 -47t68.5 -140q0 -120 -108 -172q17 -10 35 -45l63 -121l68 -24v-93h-185l-84 187q-17 38 -28.5 49.5t-30.5 11.5h-47v-131l68 -24v-93h-295zM682 975h53q42 0 73.5 22.5t31.5 59.5 q0 38 -23.5 60t-66.5 22h-68v-164z" />
<glyph unicode="&#xaf;" horiz-adv-x="634" d="M625 1530v-215h-615v215h615z" />
<glyph unicode="&#xb0;" horiz-adv-x="872" d="M92 1188q0 147 96 238.5t248 91.5q153 0 248.5 -87t95.5 -233q0 -155 -95.5 -247.5t-248.5 -92.5q-154 0 -249 88t-95 242zM297 1196q0 -74 36 -115t103 -41t103 41t36 115q0 66 -38 102.5t-101 36.5t-101 -36.5t-38 -102.5z" />
<glyph unicode="&#xb1;" horiz-adv-x="1273" d="M502 829v301h272v-301h393v-239h-393v-309h-272v309h-396v239h396zM1167 160v-234h-1061v234h1061z" />
<glyph unicode="&#xb2;" horiz-adv-x="827" d="M68 573v205q16 12 47 36q198 151 256 208q90 89 90 164q0 80 -105 80q-22 0 -44 -4t-33 -8l-11 -3l-14 -108h-174l-6 270q158 51 303 51q168 0 265 -60t97 -185q0 -61 -17.5 -111t-61 -102.5t-97 -99.5t-145.5 -118h330v-215h-680z" />
<glyph unicode="&#xb3;" horiz-adv-x="808" d="M66 1176l-7 241q177 47 318 47q166 0 255 -58.5t89 -168.5q0 -80 -45 -132t-121 -73q77 -14 131.5 -68t54.5 -130q0 -95 -54.5 -159t-139.5 -91t-195 -27q-71 0 -150.5 19.5t-123.5 39.5l-43 19l55 172q14 -6 38.5 -15t89 -24.5t116.5 -15.5q64 0 101.5 30t37.5 66 q0 92 -149 92h-111v154h113q139 0 139 98q0 82 -113 82q-26 0 -53 -3t-41 -6l-14 -3l-11 -86h-167z" />
<glyph unicode="&#xb4;" horiz-adv-x="595" d="M596 1530l-139 213l-457 -365l100 -149z" />
<glyph unicode="&#xb5;" horiz-adv-x="1349" d="M186 885l-151 41v164l452 16v-715q0 -151 119 -151q59 0 120 28t92 56l32 28v533l-152 41v164l453 16v-891l156 -41v-160l-416 -14l-21 145q-7 -7 -19 -18t-48.5 -39.5t-71.5 -50t-82 -39.5t-86 -18q-41 0 -76 12v-473h-301v1366z" />
<glyph unicode="&#xb6;" horiz-adv-x="1476" d="M483 -133v692q-163 17 -272 142.5t-109 304.5q0 190 123.5 314t337.5 124h379l422 -17v-163l-164 -41v-1571h-258v1571h-215v-1571h-412v170z" />
<glyph unicode="&#xb7;" horiz-adv-x="612" d="M125 627q0 91 51.5 141.5t132.5 50.5q176 0 176 -192q0 -91 -50.5 -141t-131.5 -50q-178 0 -178 191z" />
<glyph unicode="&#xb8;" horiz-adv-x="882" d="M195 -412l63 113q82 -43 160 -43q48 0 75 21.5t27 56.5q0 43 -45.5 65.5t-122.5 22.5v176h174v-88q81 -15 128.5 -63t47.5 -119q0 -92 -71.5 -149.5t-186.5 -57.5q-61 0 -123 16.5t-94 32.5z" />
<glyph unicode="&#xb9;" horiz-adv-x="804" d="M121 573v183h196v428l-186 -113l-100 170l323 203h224v-688h186v-183h-643z" />
<glyph unicode="&#xba;" horiz-adv-x="1032" d="M510 1468q182 0 285.5 -104t103.5 -291q0 -189 -115.5 -308.5t-298.5 -119.5q-184 0 -288.5 101t-104.5 298q0 193 117.5 308.5t300.5 115.5zM500 1280q-152 0 -152 -227q0 -107 37.5 -163t110.5 -56q147 0 147 231q0 215 -143 215zM883 481v-205h-774v205h774z" />
<glyph unicode="&#xbb;" horiz-adv-x="1226" d="M113 870l170 113l319 -362v-158l-319 -363l-170 115l231 328zM633 870l170 113l311 -362v-158l-311 -363l-170 115l223 328z" />
<glyph unicode="&#xbc;" horiz-adv-x="2195" d="M1964 348h119v-190h-119v-158h-260v158h-410l-28 172l403 551l295 -35v-498zM1655 1444l-836 -1444h-297l836 1444h297zM1704 348v260l-195 -260h195zM182 573v183h197v428l-186 -113l-101 170l324 203h223v-688h164v-183h-621z" />
<glyph unicode="&#xbd;" horiz-adv-x="2201" d="M182 573v183h197v428l-186 -113l-101 170l324 203h223v-688h164v-183h-621zM1657 1444l-836 -1444h-297l836 1444h297zM1399 0v205q217 168 257 202q109 95 130 163q6 22 6 44q0 78 -106 78q-22 0 -44 -3.5t-34 -6.5l-11 -4l-12 -109h-174l-6 271q156 51 301 51 q170 0 267.5 -60.5t97.5 -185.5q0 -61 -17.5 -111t-61.5 -102.5t-97 -98.5t-146 -118h330v-215h-680z" />
<glyph unicode="&#xbe;" horiz-adv-x="2158" d="M1632 881l295 -35v-498h119v-190h-119v-158h-260v158h-407l-29 172zM1620 1444l-836 -1444h-297l836 1444h297zM1667 348v270l-199 -270h199zM113 1159l-9 240q179 47 320 47q166 0 254 -58t88 -167q0 -81 -45 -133.5t-121 -73.5q76 -13 132 -68t56 -131q0 -94 -55 -157 t-140 -90t-194 -27q-72 0 -151.5 18.5t-122.5 37.5l-43 19l55 172q14 -6 38 -15t88 -23.5t116 -14.5q54 0 97.5 25t43.5 71q0 93 -151 93h-109v151h113q137 0 137 103q0 37 -28 58t-83 21q-26 0 -53.5 -3.5t-41.5 -7.5l-15 -3l-10 -84h-166z" />
<glyph unicode="&#xbf;" horiz-adv-x="944" d="M758 954q0 -84 -51.5 -134t-124.5 -50q-84 0 -128 48t-44 136q0 86 51.5 136.5t124.5 50.5q84 0 128 -48.5t44 -138.5zM467 596l270 12q19 -132 19 -200q0 -55 -35.5 -108.5t-86 -98t-101 -88.5t-86 -95.5t-35.5 -103.5q0 -135 184 -135q38 0 83.5 5.5t72.5 11.5l26 5 l39 -213q-172 -49 -305 -49q-82 0 -151.5 16.5t-129.5 51.5t-94.5 99t-34.5 151q0 64 20.5 123t53 105t71.5 88t78.5 79.5t72 73t53 74.5t20.5 77z" />
<glyph unicode="&#xc0;" horiz-adv-x="1531" d="M621 1958l440 -289l-94 -164l-465 230zM1522 174v-174h-652v174l154 55l-49 150h-455l-51 -148l160 -57v-174h-619v174l150 57l450 1207l328 6l440 -1213zM907 598l-153 485l-162 -485h315z" />
<glyph unicode="&#xc1;" horiz-adv-x="1531" d="M721 1505l-94 164l440 289l119 -223zM1522 174v-174h-652v174l154 55l-49 150h-455l-51 -148l160 -57v-174h-619v174l150 57l450 1207l328 6l440 -1213zM907 598l-153 485l-162 -485h315z" />
<glyph unicode="&#xc2;" horiz-adv-x="1552" d="M369 1655l313 268l182 16l332 -284l-98 -135l-310 200l-321 -200zM1522 174v-174h-652v174l154 55l-49 150h-455l-51 -148l160 -57v-174h-619v174l150 57l450 1207l328 6l440 -1213zM907 598l-153 485l-162 -485h315z" />
<glyph unicode="&#xc3;" horiz-adv-x="1552" d="M467 1591l-98 80q4 9 10.5 24t30.5 54t51.5 68.5t71.5 54t92 24.5q60 0 123.5 -23.5t122.5 -47t110 -23.5q36 0 71 21.5t52 42.5l18 22l113 -86q-4 -9 -12.5 -23t-36 -51t-57.5 -65t-76.5 -51t-94.5 -23q-74 0 -179.5 40t-164.5 40q-38 0 -75 -19.5t-55 -39.5zM1522 174 v-174h-652v174l154 55l-49 150h-455l-51 -148l160 -57v-174h-619v174l150 57l450 1207l328 6l440 -1213zM907 598l-153 485l-162 -485h315z" />
<glyph unicode="&#xc4;" horiz-adv-x="1531" d="M1522 174v-174h-652v174l154 55l-49 150h-455l-51 -148l160 -57v-174h-619v174l150 57l450 1207l328 6l440 -1213zM907 598l-153 485l-162 -485h315zM463 1735q0 72 44 115.5t107 43.5q71 0 109.5 -41.5t38.5 -117.5q0 -73 -44.5 -116.5t-107.5 -43.5q-72 0 -109.5 41.5 t-37.5 118.5zM909 1735q0 72 45 115.5t107 43.5q72 0 109.5 -41.5t37.5 -117.5q0 -74 -44 -117t-107 -43q-72 0 -110 41.5t-38 118.5z" />
<glyph unicode="&#xc5;" horiz-adv-x="1531" d="M1522 174v-174h-652v174l154 55l-49 150h-455l-51 -148l160 -57v-174h-619v174l150 57l450 1207h2q-100 73 -100 204q0 123 83 198t191 75t190.5 -70t82.5 -190q0 -72 -32 -130t-85 -93l436 -1201zM786 1767q-44 0 -72 -30.5t-28 -87.5q0 -58 26 -87.5t74 -29.5 q43 0 71 31.5t28 87.5q0 57 -26 86.5t-73 29.5zM907 598l-153 485l-162 -485h315z" />
<glyph unicode="&#xc6;" horiz-adv-x="1988" d="M1702 860v-225h-414v-389h363l47 168h188v-414h-1067v174l152 62v157h-396l-79 -166l125 -53v-174h-611v174l172 62l469 962l-174 62v174l391 10h994v-400h-191l-51 154h-332v-338h414zM942 1198l-270 -584h299v584h-29z" />
<glyph unicode="&#xc7;" horiz-adv-x="1366" d="M1192 383l113 -184q-7 -7 -20 -19t-56 -44t-89.5 -59t-118 -54.5t-144.5 -38.5v-74q81 -16 127.5 -63t46.5 -121q0 -90 -73.5 -147.5t-184.5 -57.5q-62 0 -126 17.5t-97 34.5l-33 17l65 115q86 -47 168 -47q43 0 68.5 21t25.5 55q0 43 -45.5 65.5t-122.5 22.5v158 q-281 19 -432 202.5t-151 517.5q0 358 186.5 563t503.5 205q110 0 229.5 -24t183.5 -48l64 -24l-10 -389h-201l-47 197q-96 32 -229 32q-164 0 -251 -124.5t-87 -376.5q0 -471 348 -471q57 0 118.5 14.5t107.5 35.5t84.5 42.5t58.5 35.5z" />
<glyph unicode="&#xc8;" horiz-adv-x="1273" d="M444 1958l441 -289l-94 -164l-465 230zM977 860v-225h-414v-389h367l47 168h184v-414h-1069v174l154 62v962l-154 62v174l471 10h574v-395h-185l-51 149h-338v-338h414z" />
<glyph unicode="&#xc9;" horiz-adv-x="1273" d="M545 1505l-94 164l440 289l119 -223zM977 860v-225h-414v-389h367l47 168h184v-414h-1069v174l154 62v962l-154 62v174l471 10h574v-395h-185l-51 149h-338v-338h414z" />
<glyph unicode="&#xca;" horiz-adv-x="1273" d="M260 1655l313 268l183 16l331 -284l-98 -135l-309 200l-322 -200zM977 860v-225h-414v-389h367l47 168h184v-414h-1069v174l154 62v962l-154 62v174l471 10h574v-395h-185l-51 149h-338v-338h414z" />
<glyph unicode="&#xcb;" horiz-adv-x="1273" d="M287 1737q0 72 44 115.5t107 43.5q71 0 109.5 -41.5t38.5 -117.5q0 -73 -44.5 -116.5t-107.5 -43.5q-72 0 -109.5 41.5t-37.5 118.5zM733 1737q0 72 45 115.5t107 43.5q72 0 109.5 -41.5t37.5 -117.5q0 -74 -44 -117t-107 -43q-72 0 -110 41.5t-38 118.5zM977 860v-225 h-414v-389h367l47 168h184v-414h-1069v174l154 62v962l-154 62v174l471 10h574v-395h-185l-51 149h-338v-338h414z" />
<glyph unicode="&#xcc;" horiz-adv-x="788" d="M158 1958l440 -289l-94 -164l-465 230zM82 0v174l154 62v962l-154 62v174l625 10v-184l-154 -62v-962l154 -62v-174h-625z" />
<glyph unicode="&#xcd;" horiz-adv-x="788" d="M272 1505l-94 164l440 289l119 -223zM82 0v174l154 62v962l-154 62v174l625 10v-184l-154 -62v-962l154 -62v-174h-625z" />
<glyph unicode="&#xce;" horiz-adv-x="788" d="M-31 1655l314 268l182 16l332 -284l-99 -135l-309 200l-321 -200zM82 0v174l154 62v962l-154 62v174l625 10v-184l-154 -62v-962l154 -62v-174h-625z" />
<glyph unicode="&#xcf;" horiz-adv-x="827" d="M53 1735q0 72 44.5 115.5t107.5 43.5q71 0 109 -41.5t38 -117.5q0 -74 -44 -117t-107 -43q-72 0 -110 41.5t-38 118.5zM479 1735q0 72 45 115.5t107 43.5q72 0 109.5 -41.5t37.5 -117.5q0 -74 -44 -117t-107 -43q-72 0 -110 41.5t-38 118.5zM111 0v174l153 62v962 l-153 62v174l624 10v-184l-153 -62v-962l153 -62v-174h-624z" />
<glyph unicode="&#xd0;" horiz-adv-x="1517" d="M236 864v334l-154 62v174l471 10h203q310 0 479.5 -180t169.5 -523q0 -344 -184 -542.5t-496 -198.5h-643v174l154 62v403h-140v225h140zM799 864v-225h-248v-393h178q79 0 138 24.5t104 79t68.5 150.5t23.5 231q0 249 -81 358t-237 109h-194v-334h248z" />
<glyph unicode="&#xd1;" horiz-adv-x="1607" d="M471 1591l-98 80q4 9 10.5 24t30.5 54t51.5 68.5t71.5 54t92 24.5q60 0 123.5 -23.5t122.5 -47t110 -23.5q36 0 71 21.5t52 42.5l18 22l113 -86q-4 -9 -12.5 -23t-36 -51t-57 -65t-76 -51t-94.5 -23q-74 0 -180 40t-165 40q-38 0 -75 -19.5t-55 -39.5zM72 0v174l153 62 v962l-153 62v174l491 10l553 -946v700l-149 62v174l583 10v-184l-153 -62v-1198h-342l-549 928v-692l160 -62v-174h-594z" />
<glyph unicode="&#xd2;" horiz-adv-x="1546" d="M547 1958l440 -289l-94 -164l-465 230zM788 1468q307 0 476.5 -191.5t169.5 -535.5q0 -345 -189 -556.5t-497 -211.5t-471.5 189t-163.5 549q0 352 181 554.5t494 202.5zM778 1212q-160 0 -238.5 -113t-78.5 -378q0 -254 71.5 -373t225.5 -119q161 0 244 117.5t83 384.5 q0 250 -75.5 365.5t-231.5 115.5z" />
<glyph unicode="&#xd3;" horiz-adv-x="1546" d="M637 1505l-94 164l440 289l119 -223zM788 1468q307 0 476.5 -191.5t169.5 -535.5q0 -345 -189 -556.5t-497 -211.5t-471.5 189t-163.5 549q0 352 181 554.5t494 202.5zM778 1212q-160 0 -238.5 -113t-78.5 -378q0 -254 71.5 -373t225.5 -119q161 0 244 117.5t83 384.5 q0 250 -75.5 365.5t-231.5 115.5z" />
<glyph unicode="&#xd4;" horiz-adv-x="1546" d="M367 1655l313 268l182 16l332 -284l-98 -135l-310 200l-321 -200zM788 1468q307 0 476.5 -191.5t169.5 -535.5q0 -345 -189 -556.5t-497 -211.5t-471.5 189t-163.5 549q0 352 181 554.5t494 202.5zM778 1212q-160 0 -238.5 -113t-78.5 -378q0 -254 71.5 -373t225.5 -119 q161 0 244 117.5t83 384.5q0 250 -75.5 365.5t-231.5 115.5z" />
<glyph unicode="&#xd5;" horiz-adv-x="1546" d="M434 1591l-98 80q4 9 10.5 24t30.5 54t51.5 68.5t71.5 54t92 24.5q60 0 123.5 -23.5t122.5 -47t110 -23.5q22 0 45 9t39.5 21.5t30 25t20.5 21.5l7 9l112 -86q-4 -9 -12.5 -23t-36 -51t-57 -65t-76 -51t-94.5 -23q-74 0 -179.5 40t-164.5 40q-38 0 -75 -19.5t-55 -39.5z M788 1468q307 0 476.5 -191.5t169.5 -535.5q0 -345 -189 -556.5t-497 -211.5t-471.5 189t-163.5 549q0 352 181 554.5t494 202.5zM778 1212q-160 0 -238.5 -113t-78.5 -378q0 -254 71.5 -373t225.5 -119q161 0 244 117.5t83 384.5q0 250 -75.5 365.5t-231.5 115.5z" />
<glyph unicode="&#xd6;" horiz-adv-x="1546" d="M788 1468q307 0 476.5 -191.5t169.5 -535.5q0 -345 -189 -556.5t-497 -211.5t-471.5 189t-163.5 549q0 352 181 554.5t494 202.5zM778 1212q-160 0 -238.5 -113t-78.5 -378q0 -254 71.5 -373t225.5 -119q161 0 244 117.5t83 384.5q0 250 -75.5 365.5t-231.5 115.5z M397 1735q0 72 44.5 115.5t107.5 43.5q71 0 109 -41.5t38 -117.5q0 -74 -44 -117t-107 -43q-72 0 -110 41.5t-38 118.5zM844 1735q0 72 44.5 115.5t106.5 43.5q73 0 110.5 -41.5t37.5 -117.5q0 -73 -44.5 -116.5t-107.5 -43.5q-72 0 -109.5 41.5t-37.5 118.5z" />
<glyph unicode="&#xd7;" horiz-adv-x="1255" d="M627 725l348 348l172 -174l-346 -346l346 -346l-172 -174l-348 348l-346 -348l-172 174l346 346l-346 346l172 174z" />
<glyph unicode="&#xd8;" horiz-adv-x="1566" d="M147 -121l160 262q-184 187 -184 570q0 352 182 554.5t494 202.5q159 0 284 -55l127 211l183 -104l-138 -224q189 -192 189 -555q0 -345 -189 -555.5t-497 -210.5q-156 0 -277 50l-151 -250zM788 1212q-158 0 -239.5 -110.5t-81.5 -358.5q0 -176 43 -270 q83 138 239.5 395t188.5 310q-64 34 -150 34zM1057 969l-430 -705q59 -35 141 -35q334 0 334 502q0 146 -45 238z" />
<glyph unicode="&#xd9;" horiz-adv-x="1615" d="M567 1958l441 -289l-95 -164l-464 230zM541 1198v-645q0 -179 59.5 -253.5t208.5 -74.5q81 0 133 21t80.5 68.5t39.5 110.5t11 159v614l-160 62v174l631 10v-184l-153 -62v-614q0 -152 -31 -262.5t-100 -189.5t-183.5 -118t-277.5 -39q-306 0 -441 139t-135 439v645 l-151 62v174l628 10v-184z" />
<glyph unicode="&#xda;" horiz-adv-x="1615" d="M678 1505l-94 164l440 289l119 -223zM541 1198v-645q0 -179 59.5 -253.5t208.5 -74.5q81 0 133 21t80.5 68.5t39.5 110.5t11 159v614l-160 62v174l631 10v-184l-153 -62v-614q0 -152 -31 -262.5t-100 -189.5t-183.5 -118t-277.5 -39q-306 0 -441 139t-135 439v645 l-151 62v174l628 10v-184z" />
<glyph unicode="&#xdb;" horiz-adv-x="1615" d="M389 1655l313 268l183 16l332 -284l-99 -135l-309 200l-322 -200zM541 1198v-645q0 -179 59.5 -253.5t208.5 -74.5q81 0 133 21t80.5 68.5t39.5 110.5t11 159v614l-160 62v174l631 10v-184l-153 -62v-614q0 -152 -31 -262.5t-100 -189.5t-183.5 -118t-277.5 -39 q-306 0 -441 139t-135 439v645l-151 62v174l628 10v-184z" />
<glyph unicode="&#xdc;" horiz-adv-x="1615" d="M436 1735q0 72 44.5 115.5t107.5 43.5q71 0 109 -41.5t38 -117.5q0 -74 -44 -117t-107 -43q-72 0 -110 41.5t-38 118.5zM883 1735q0 72 44.5 115.5t106.5 43.5q73 0 110.5 -41.5t37.5 -117.5q0 -73 -44.5 -116.5t-107.5 -43.5q-72 0 -109.5 41.5t-37.5 118.5zM541 1198 v-645q0 -179 59.5 -253.5t208.5 -74.5q81 0 133 21t80.5 68.5t39.5 110.5t11 159v614l-160 62v174l631 10v-184l-153 -62v-614q0 -152 -31 -262.5t-100 -189.5t-183.5 -118t-277.5 -39q-306 0 -441 139t-135 439v645l-151 62v174l628 10v-184z" />
<glyph unicode="&#xdd;" horiz-adv-x="1366" d="M627 1505l-95 164l441 289l119 -223zM369 0v174l153 62v264l-375 704l-133 56v174l580 10v-184l-105 -43l205 -441l217 438l-112 46v174l553 10v-184l-142 -56l-370 -702v-266l153 -62v-174h-624z" />
<glyph unicode="&#xde;" horiz-adv-x="1288" d="M72 0v174l153 62v962l-153 62v174l645 10v-184l-174 -62v-61h202q233 0 362.5 -98t129.5 -281q0 -220 -154.5 -325t-429.5 -105h-110v-92l174 -62v-174h-645zM543 547h131q118 0 184 47.5t66 142.5q0 83 -58 128.5t-157 45.5h-166v-364z" />
<glyph unicode="&#xdf;" horiz-adv-x="1542" d="M276 1069v98q0 201 137 323t361 122q247 0 381.5 -93t134.5 -253q0 -67 -24 -122.5t-58 -92.5t-67.5 -69t-57.5 -68t-24 -74t26 -68t68 -51.5t92.5 -42.5t100.5 -48t92 -61.5t68 -90t26 -126.5q0 -167 -125.5 -269.5t-323.5 -102.5q-73 0 -160.5 11t-138.5 23l-51 11v329 h185l20 -137q55 -22 135 -22q72 0 110 29t38 81q0 36 -26 64.5t-68 49.5t-92.5 42.5t-100.5 49.5t-92 64t-68 94t-26 132q0 66 25 118.5t60 86.5t70.5 64t60.5 68.5t25 84.5q0 77 -63 120t-148 43q-93 0 -145.5 -54t-52.5 -150v-1182h-467v164l163 51v645h-204v178z" />
<glyph unicode="&#xe0;" d="M367 1739l456 -365l-100 -149l-496 301zM770 0l-37 133q-6 -6 -18 -16.5t-48.5 -37t-73.5 -46.5t-90 -36.5t-102 -16.5q-150 0 -234.5 84t-84.5 237q0 176 126 257t367 81h144v113q0 149 -158 149q-46 0 -91 -7.5t-67 -15.5l-22 -8l-31 -129h-184l-14 303q28 9 74.5 22.5 t164 36.5t205.5 23q234 0 332 -91.5t98 -313.5v-506l154 -37v-164zM719 465h-117q-119 0 -171 -31.5t-52 -101.5q0 -59 31.5 -91t89.5 -32q31 0 64.5 12.5t60 29.5t48.5 34.5t34 30.5l12 12v137z" />
<glyph unicode="&#xe1;" d="M893 1530l-139 213l-457 -365l100 -149zM770 0l-37 133q-6 -6 -18 -16.5t-48.5 -37t-73.5 -46.5t-90 -36.5t-102 -16.5q-150 0 -234.5 84t-84.5 237q0 176 126 257t367 81h144v113q0 149 -158 149q-46 0 -91 -7.5t-67 -15.5l-22 -8l-31 -129h-184l-14 303q28 9 74.5 22.5 t164 36.5t205.5 23q234 0 332 -91.5t98 -313.5v-506l154 -37v-164zM719 465h-117q-119 0 -171 -31.5t-52 -101.5q0 -59 31.5 -91t89.5 -32q31 0 64.5 12.5t60 29.5t48.5 34.5t34 30.5l12 12v137z" />
<glyph unicode="&#xe2;" d="M137 1360l336 313l182 17l359 -330l-99 -135l-335 245l-344 -245zM770 0l-37 133q-6 -6 -18 -16.5t-48.5 -37t-73.5 -46.5t-90 -36.5t-102 -16.5q-150 0 -234.5 84t-84.5 237q0 176 126 257t367 81h144v113q0 149 -158 149q-46 0 -91 -7.5t-67 -15.5l-22 -8l-31 -129 h-184l-14 303q28 9 74.5 22.5t164 36.5t205.5 23q234 0 332 -91.5t98 -313.5v-506l154 -37v-164zM719 465h-117q-119 0 -171 -31.5t-52 -101.5q0 -59 31.5 -91t89.5 -32q31 0 64.5 12.5t60 29.5t48.5 34.5t34 30.5l12 12v137z" />
<glyph unicode="&#xe3;" d="M238 1290l-97 94q4 9 10.5 24.5t30.5 54.5t51.5 68.5t71.5 54t92 24.5q60 0 119.5 -23.5t114.5 -47t106 -23.5q22 0 45 9t39.5 21.5t30 25t20.5 21.5l7 9l108 -95q-4 -9 -10.5 -24t-31 -53.5t-52 -68t-71.5 -53.5t-91 -24q-60 0 -120.5 22.5t-116.5 45t-107 22.5 q-38 0 -75.5 -21t-55.5 -42zM770 0l-37 133q-6 -6 -18 -16.5t-48.5 -37t-73.5 -46.5t-90 -36.5t-102 -16.5q-150 0 -234.5 84t-84.5 237q0 176 126 257t367 81h144v113q0 149 -158 149q-46 0 -91 -7.5t-67 -15.5l-22 -8l-31 -129h-184l-14 303q28 9 74.5 22.5t164 36.5 t205.5 23q234 0 332 -91.5t98 -313.5v-506l154 -37v-164zM719 465h-117q-119 0 -171 -31.5t-52 -101.5q0 -59 31.5 -91t89.5 -32q31 0 64.5 12.5t60 29.5t48.5 34.5t34 30.5l12 12v137z" />
<glyph unicode="&#xe4;" d="M770 0l-37 133q-6 -6 -18 -16.5t-48.5 -37t-73.5 -46.5t-90 -36.5t-102 -16.5q-150 0 -234.5 84t-84.5 237q0 176 126 257t367 81h144v113q0 149 -158 149q-46 0 -91 -7.5t-67 -15.5l-22 -8l-31 -129h-184l-14 303q28 9 74.5 22.5t164 36.5t205.5 23q234 0 332 -91.5 t98 -313.5v-506l154 -37v-164zM719 465h-117q-119 0 -171 -31.5t-52 -101.5q0 -59 31.5 -91t89.5 -32q31 0 64.5 12.5t60 29.5t48.5 34.5t34 30.5l12 12v137zM213 1430q0 72 44.5 115.5t107.5 43.5q71 0 109 -41.5t38 -117.5q0 -73 -44.5 -116.5t-107.5 -43.5 q-72 0 -109.5 41.5t-37.5 118.5zM659 1430q0 72 45 115.5t107 43.5q72 0 109.5 -41.5t37.5 -117.5q0 -74 -44 -117t-107 -43q-72 0 -110 41.5t-38 118.5z" />
<glyph unicode="&#xe5;" d="M332 1483q0 123 83 197.5t191 74.5t190.5 -70t82.5 -190q0 -121 -83 -196.5t-190 -75.5q-109 0 -191.5 69.5t-82.5 190.5zM506 1489q0 -58 26 -87.5t74 -29.5q43 0 71 31.5t28 87.5q0 57 -26 87t-73 30q-44 0 -72 -31t-28 -88zM770 0l-37 133q-6 -6 -18 -16.5t-48.5 -37 t-73.5 -46.5t-90 -36.5t-102 -16.5q-150 0 -234.5 84t-84.5 237q0 176 126 257t367 81h144v113q0 149 -158 149q-46 0 -91 -7.5t-67 -15.5l-22 -8l-31 -129h-184l-14 303q28 9 74.5 22.5t164 36.5t205.5 23q234 0 332 -91.5t98 -313.5v-506l154 -37v-164zM719 465h-117 q-119 0 -171 -31.5t-52 -101.5q0 -59 31.5 -91t89.5 -32q31 0 64.5 12.5t60 29.5t48.5 34.5t34 30.5l12 12v137z" />
<glyph unicode="&#xe6;" horiz-adv-x="1773" d="M1700 481h-678q9 -121 75.5 -188.5t172.5 -67.5q76 0 161 24.5t132 48.5l47 24l90 -170q-9 -7 -25 -18.5t-67.5 -41t-104 -52.5t-128 -41.5t-146.5 -18.5q-300 0 -426 204q-174 -204 -404 -204q-147 0 -232 86t-85 235q0 176 125 257t366 81h144v113q0 147 -158 147 q-45 0 -90 -7.5t-67 -15.5l-23 -8l-31 -127h-184l-14 303q0 3 68 22t177.5 38.5t194.5 19.5q230 0 319 -118q135 120 340 120q221 0 342 -126.5t121 -352.5q0 -35 -3 -74.5t-6 -65t-3 -26.5zM1022 666h375q0 100 -41 157.5t-127 57.5t-140.5 -57.5t-66.5 -157.5zM717 465 h-117q-119 0 -172 -31.5t-53 -101.5q0 -58 32.5 -90.5t90.5 -32.5q30 0 63.5 12.5t60 30.5t48.5 36.5t34 31.5l13 12v133z" />
<glyph unicode="&#xe7;" horiz-adv-x="1075" d="M942 334l102 -180q-161 -140 -350 -166v-70q80 -15 128 -63.5t48 -120.5q0 -88 -74 -145.5t-182 -57.5q-62 0 -125.5 16.5t-96.5 32.5l-32 17l64 112q86 -43 168 -43q44 0 70 21t26 55q0 43 -46.5 66.5t-123.5 23.5v154q-213 23 -329.5 167.5t-116.5 383.5q0 275 148 432 t415 157q78 0 167.5 -18t139.5 -36l51 -17l-10 -334h-184l-29 143q-59 17 -141 17q-113 0 -176.5 -76t-63.5 -227q0 -169 65 -261t191 -92q41 0 78 6.5t72.5 22t54 25t53 31t39.5 24.5z" />
<glyph unicode="&#xe8;" horiz-adv-x="1155" d="M397 1739l457 -365l-100 -149l-496 301zM1071 485h-680q9 -122 75.5 -191t172.5 -69q76 0 162 24.5t134 48.5l48 24l88 -170q-8 -7 -23.5 -18.5t-65 -41t-101 -52.5t-128 -41.5t-149.5 -18.5q-261 0 -396.5 144t-135.5 408q0 271 145.5 432.5t400.5 161.5 q225 0 345 -128.5t120 -352.5q0 -35 -3 -73t-6 -62t-3 -25zM395 676h371q0 93 -41.5 149t-126.5 56q-84 0 -137.5 -56t-65.5 -149z" />
<glyph unicode="&#xe9;" horiz-adv-x="1155" d="M801 1739l-457 -365l100 -149l496 301zM1071 485h-680q9 -122 75.5 -191t172.5 -69q76 0 162 24.5t134 48.5l48 24l88 -170q-8 -7 -23.5 -18.5t-65 -41t-101 -52.5t-128 -41.5t-149.5 -18.5q-261 0 -396.5 144t-135.5 408q0 271 145.5 432.5t400.5 161.5 q225 0 345 -128.5t120 -352.5q0 -35 -3 -73t-6 -62t-3 -25zM395 676h371q0 93 -41.5 149t-126.5 56q-84 0 -137.5 -56t-65.5 -149z" />
<glyph unicode="&#xea;" horiz-adv-x="1155" d="M147 1360l336 313l183 17l358 -330l-98 -135l-336 245l-344 -245zM1071 485h-680q9 -122 75.5 -191t172.5 -69q76 0 162 24.5t134 48.5l48 24l88 -170q-8 -7 -23.5 -18.5t-65 -41t-101 -52.5t-128 -41.5t-149.5 -18.5q-261 0 -396.5 144t-135.5 408q0 271 145.5 432.5 t400.5 161.5q225 0 345 -128.5t120 -352.5q0 -35 -3 -73t-6 -62t-3 -25zM395 676h371q0 93 -41.5 149t-126.5 56q-84 0 -137.5 -56t-65.5 -149z" />
<glyph unicode="&#xeb;" horiz-adv-x="1155" d="M1071 485h-680q9 -122 75.5 -191t172.5 -69q76 0 162 24.5t134 48.5l48 24l88 -170q-8 -7 -23.5 -18.5t-65 -41t-101 -52.5t-128 -41.5t-149.5 -18.5q-261 0 -396.5 144t-135.5 408q0 271 145.5 432.5t400.5 161.5q225 0 345 -128.5t120 -352.5q0 -35 -3 -73t-6 -62 t-3 -25zM395 676h371q0 93 -41.5 149t-126.5 56q-84 0 -137.5 -56t-65.5 -149zM213 1430q0 72 44.5 115.5t107.5 43.5q71 0 109 -41.5t38 -117.5q0 -73 -44.5 -116.5t-107.5 -43.5q-72 0 -109.5 41.5t-37.5 118.5zM659 1430q0 72 45 115.5t107 43.5q72 0 109.5 -41.5 t37.5 -117.5q0 -74 -44 -117t-107 -43q-72 0 -110 41.5t-38 118.5z" />
<glyph unicode="&#xec;" horiz-adv-x="741" d="M190 1739l457 -365l-100 -149l-496 301zM537 215l143 -51v-164h-608v164l164 51v670l-164 41v164l465 16v-891z" />
<glyph unicode="&#xed;" horiz-adv-x="741" d="M567 1739l-456 -365l100 -149l496 301zM537 215l143 -51v-164h-608v164l164 51v670l-164 41v164l465 16v-891z" />
<glyph unicode="&#xee;" horiz-adv-x="743" d="M-57 1360l319 313l182 17l340 -330l-100 -135l-315 245l-326 -245zM537 215l143 -51v-164h-608v164l164 51v670l-164 41v164l465 16v-891z" />
<glyph unicode="&#xef;" horiz-adv-x="741" d="M-2 1430q0 72 44.5 115.5t107.5 43.5q71 0 109 -41.5t38 -117.5q0 -73 -44.5 -116.5t-107.5 -43.5q-72 0 -109.5 41.5t-37.5 118.5zM424 1430q0 72 44.5 115.5t106.5 43.5q73 0 110.5 -41.5t37.5 -117.5q0 -73 -44.5 -116.5t-107.5 -43.5q-72 0 -109.5 41.5t-37.5 118.5z M537 215l143 -51v-164h-608v164l164 51v670l-164 41v164l465 16v-891z" />
<glyph unicode="&#xf0;" horiz-adv-x="1183" d="M242 1438l94 178q160 -39 301 -125l215 125l119 -162l-166 -94q144 -143 220.5 -346t76.5 -457q0 -265 -143.5 -423.5t-385.5 -158.5q-234 0 -367.5 131.5t-133.5 385.5q0 251 144.5 396.5t377.5 145.5q83 0 160 -45q-56 148 -160 246l-240 -137l-118 162l180 102 q-76 40 -174 76zM594 799q-107 0 -156 -75t-49 -222q0 -291 195 -291q108 0 154 76t46 225q0 144 -41.5 215.5t-148.5 71.5z" />
<glyph unicode="&#xf1;" horiz-adv-x="1402" d="M369 1290l-97 94q4 9 10.5 24.5t30.5 54.5t51.5 68.5t71.5 54t92 24.5q60 0 119.5 -23.5t114.5 -47t106 -23.5q22 0 45 9t39.5 21.5t30 25t20.5 21.5l7 9l108 -95q-4 -9 -10.5 -24t-31 -53.5t-52 -68t-71.5 -53.5t-91 -24q-60 0 -120.5 22.5t-116.5 45t-107 22.5 q-38 0 -75.5 -21t-55.5 -42zM506 1106l14 -141q8 6 22 17t57.5 38t86.5 47.5t101.5 37.5t109.5 17q148 0 229.5 -97.5t81.5 -266.5v-543l144 -51v-164h-564v164l113 51v487q0 72 -38 118t-101 46q-36 0 -71.5 -12t-61 -29t-46 -34t-30.5 -29l-10 -12v-535l112 -51v-164h-583 v164l164 51v666l-164 51v164z" />
<glyph unicode="&#xf2;" horiz-adv-x="1212" d="M428 1739l457 -365l-101 -149l-495 301zM625 1126q248 0 382 -144t134 -409q0 -275 -148 -434t-399 -159q-522 0 -522 563q0 274 150 428.5t403 154.5zM614 881q-116 0 -170.5 -74.5t-54.5 -253.5q0 -169 51.5 -248.5t163.5 -79.5q113 0 166 78.5t53 259.5 q0 160 -50.5 239t-158.5 79z" />
<glyph unicode="&#xf3;" horiz-adv-x="1212" d="M803 1739l-457 -365l100 -149l496 301zM625 1126q248 0 382 -144t134 -409q0 -275 -148 -434t-399 -159q-522 0 -522 563q0 274 150 428.5t403 154.5zM614 881q-116 0 -170.5 -74.5t-54.5 -253.5q0 -169 51.5 -248.5t163.5 -79.5q113 0 166 78.5t53 259.5 q0 160 -50.5 239t-158.5 79z" />
<glyph unicode="&#xf4;" horiz-adv-x="1212" d="M164 1360l336 313l182 17l358 -330l-98 -135l-336 245l-344 -245zM625 1126q248 0 382 -144t134 -409q0 -275 -148 -434t-399 -159q-522 0 -522 563q0 274 150 428.5t403 154.5zM614 881q-116 0 -170.5 -74.5t-54.5 -253.5q0 -169 51.5 -248.5t163.5 -79.5 q113 0 166 78.5t53 259.5q0 160 -50.5 239t-158.5 79z" />
<glyph unicode="&#xf5;" horiz-adv-x="1212" d="M279 1290l-97 94q4 9 10.5 24.5t30.5 54.5t51.5 68.5t71.5 54t92 24.5q60 0 119.5 -23.5t114.5 -47t106 -23.5q22 0 45 9t39.5 21.5t30 25t20.5 21.5l7 9l108 -95q-4 -9 -10.5 -24t-31 -53.5t-52 -68t-71.5 -53.5t-91 -24q-60 0 -120.5 22.5t-116.5 45t-107 22.5 q-38 0 -75.5 -21t-55.5 -42zM625 1126q248 0 382 -144t134 -409q0 -275 -148 -434t-399 -159q-522 0 -522 563q0 274 150 428.5t403 154.5zM614 881q-116 0 -170.5 -74.5t-54.5 -253.5q0 -169 51.5 -248.5t163.5 -79.5q113 0 166 78.5t53 259.5q0 160 -50.5 239t-158.5 79z " />
<glyph unicode="&#xf6;" horiz-adv-x="1212" d="M625 1126q248 0 382 -144t134 -409q0 -275 -148 -434t-399 -159q-522 0 -522 563q0 274 150 428.5t403 154.5zM614 881q-116 0 -170.5 -74.5t-54.5 -253.5q0 -169 51.5 -248.5t163.5 -79.5q113 0 166 78.5t53 259.5q0 160 -50.5 239t-158.5 79zM233 1430q0 72 44.5 115.5 t107.5 43.5q71 0 109 -41.5t38 -117.5q0 -74 -44 -117t-107 -43q-72 0 -110 41.5t-38 118.5zM680 1430q0 72 44.5 115.5t106.5 43.5q73 0 110.5 -41.5t37.5 -117.5q0 -73 -44.5 -116.5t-107.5 -43.5q-72 0 -109.5 41.5t-37.5 118.5z" />
<glyph unicode="&#xf7;" horiz-adv-x="1290" d="M467 985q0 89 51 139t131 50q174 0 174 -189q0 -90 -50.5 -140t-129.5 -50q-87 0 -131.5 48.5t-44.5 141.5zM1182 662v-236h-1076v236h1076zM467 104q0 89 51 139t131 50q174 0 174 -189q0 -90 -50.5 -140t-129.5 -50q-87 0 -131.5 48.5t-44.5 141.5z" />
<glyph unicode="&#xf8;" horiz-adv-x="1232" d="M90 -154l148 248q-156 138 -156 449q0 274 150 428.5t403 154.5q105 0 203 -32l133 223l153 -86l-133 -223q160 -145 160 -435q0 -275 -148 -434t-399 -159q-104 0 -211 28l-149 -248zM422 401l283 473q-39 17 -80 17q-119 0 -172.5 -77.5t-53.5 -262.5q0 -83 23 -150z M811 707l-285 -476q33 -16 88 -16q115 0 167.5 81.5t52.5 266.5q0 88 -23 144z" />
<glyph unicode="&#xf9;" horiz-adv-x="1370" d="M451 1739l456 -365l-100 -149l-496 301zM31 932v164l471 10v-707q0 -86 28.5 -124.5t96.5 -38.5q37 0 74.5 11.5t64.5 27.5t48.5 32t32.5 27l11 12v535l-164 51v164l471 10v-891l164 -41v-160l-432 -14l-20 143q-7 -7 -19 -18t-51 -39t-79 -49.5t-97.5 -39t-112.5 -17.5 q-153 0 -238 97t-85 269v535z" />
<glyph unicode="&#xfa;" horiz-adv-x="1370" d="M844 1739l-457 -365l100 -149l496 301zM31 932v164l471 10v-707q0 -86 28.5 -124.5t96.5 -38.5q37 0 74.5 11.5t64.5 27.5t48.5 32t32.5 27l11 12v535l-164 51v164l471 10v-891l164 -41v-160l-432 -14l-20 143q-7 -7 -19 -18t-51 -39t-79 -49.5t-97.5 -39t-112.5 -17.5 q-153 0 -238 97t-85 269v535z" />
<glyph unicode="&#xfb;" horiz-adv-x="1370" d="M215 1360l336 313l182 17l359 -330l-99 -135l-336 245l-344 -245zM31 932v164l471 10v-707q0 -86 28.5 -124.5t96.5 -38.5q37 0 74.5 11.5t64.5 27.5t48.5 32t32.5 27l11 12v535l-164 51v164l471 10v-891l164 -41v-160l-432 -14l-20 143q-7 -7 -19 -18t-51 -39t-79 -49.5 t-97.5 -39t-112.5 -17.5q-153 0 -238 97t-85 269v535z" />
<glyph unicode="&#xfc;" horiz-adv-x="1370" d="M270 1430q0 72 44.5 115.5t107.5 43.5q71 0 109 -41.5t38 -117.5q0 -74 -44 -117t-107 -43q-72 0 -110 41.5t-38 118.5zM717 1430q0 72 44.5 115.5t106.5 43.5q73 0 110.5 -41.5t37.5 -117.5q0 -73 -44.5 -116.5t-107.5 -43.5q-72 0 -109.5 41.5t-37.5 118.5zM31 932v164 l471 10v-707q0 -86 28.5 -124.5t96.5 -38.5q37 0 74.5 11.5t64.5 27.5t48.5 32t32.5 27l11 12v535l-164 51v164l471 10v-891l164 -41v-160l-432 -14l-20 143q-7 -7 -19 -18t-51 -39t-79 -49.5t-97.5 -39t-112.5 -17.5q-153 0 -238 97t-85 269v535z" />
<glyph unicode="&#xfd;" d="M928 1739l-457 -365l100 -149l496 301zM10 932v164l547 10v-174l-115 -21l183 -573l174 567l-119 27v164l551 10v-174l-127 -27l-301 -839q-24 -66 -44.5 -116.5t-51.5 -111.5t-62 -105.5t-73.5 -89t-89.5 -72.5t-107.5 -45.5t-128.5 -17.5q-31 0 -81 4t-84 8l-34 5 l29 219h133q47 0 88.5 20t68 45t53.5 66.5t37.5 63.5t26.5 59l-364 901z" />
<glyph unicode="&#xfe;" horiz-adv-x="1290" d="M512 1587v-579q5 5 13.5 13t37.5 28t60.5 35.5t80.5 28.5t99 13q200 0 308 -145.5t108 -396.5q0 -289 -147 -446.5t-437 -157.5q-24 0 -54.5 4t-49.5 8l-19 4v-266l215 -47v-164h-682v164l160 47v1636l-164 41v164zM512 784v-542q52 -27 156 -27q233 0 233 348 q0 318 -201 318q-34 0 -66.5 -10t-53.5 -24.5t-37 -28.5t-23 -24z" />
<glyph unicode="&#xff;" d="M233 1430q0 72 44.5 115.5t107.5 43.5q71 0 109 -41.5t38 -117.5q0 -74 -44 -117t-107 -43q-72 0 -110 41.5t-38 118.5zM680 1430q0 72 44.5 115.5t106.5 43.5q73 0 110.5 -41.5t37.5 -117.5q0 -73 -44.5 -116.5t-107.5 -43.5q-72 0 -109.5 41.5t-37.5 118.5zM10 932v164 l547 10v-174l-115 -21l183 -573l174 567l-119 27v164l551 10v-174l-127 -27l-301 -839q-24 -66 -44.5 -116.5t-51.5 -111.5t-62 -105.5t-73.5 -89t-89.5 -72.5t-107.5 -45.5t-128.5 -17.5q-31 0 -81 4t-84 8l-34 5l29 219h133q47 0 88.5 20t68 45t53.5 66.5t37.5 63.5 t26.5 59l-364 901z" />
<glyph unicode="&#x100;" horiz-adv-x="1531" d="M1122 1858v-216h-614v216h614zM1522 174v-174h-652v174l154 55l-49 150h-455l-51 -148l160 -57v-174h-619v174l150 57l450 1207l328 6l440 -1213zM907 598l-153 485l-162 -485h315z" />
<glyph unicode="&#x101;" d="M891 1540v-215h-615v215h615zM770 0l-37 133q-6 -6 -18 -16.5t-48.5 -37t-73.5 -46.5t-90 -36.5t-102 -16.5q-150 0 -234.5 84t-84.5 237q0 176 126 257t367 81h144v113q0 149 -158 149q-46 0 -91 -7.5t-67 -15.5l-22 -8l-31 -129h-184l-14 303q28 9 74.5 22.5t164 36.5 t205.5 23q234 0 332 -91.5t98 -313.5v-506l154 -37v-164zM719 465h-117q-119 0 -171 -31.5t-52 -101.5q0 -59 31.5 -91t89.5 -32q31 0 64.5 12.5t60 29.5t48.5 34.5t34 30.5l12 12v137z" />
<glyph unicode="&#x102;" horiz-adv-x="1531" d="M461 1909l178 18q1 -6 3.5 -16.5t13.5 -36.5t27 -45.5t46 -36t68 -16.5q40 0 70.5 13.5t46 33t25 39.5t11.5 34l2 13l178 14q0 -170 -101 -265t-253 -95q-135 0 -225 93.5t-90 252.5zM1522 174v-174h-652v174l154 55l-49 150h-455l-51 -148l160 -57v-174h-619v174l150 57 l450 1207l328 6l440 -1213zM907 598l-153 485l-162 -485h315z" />
<glyph unicode="&#x103;" d="M258 1599l178 19q1 -6 3.5 -16.5t13.5 -36.5t27 -46t46 -36.5t68 -16.5q40 0 71 13.5t46 33t25 39.5t12 34l2 13l178 15q0 -170 -101.5 -265.5t-253.5 -95.5q-135 0 -225 93.5t-90 252.5zM770 0l-37 133q-6 -6 -18 -16.5t-48.5 -37t-73.5 -46.5t-90 -36.5t-102 -16.5 q-150 0 -234.5 84t-84.5 237q0 176 126 257t367 81h144v113q0 149 -158 149q-46 0 -91 -7.5t-67 -15.5l-22 -8l-31 -129h-184l-14 303q28 9 74.5 22.5t164 36.5t205.5 23q234 0 332 -91.5t98 -313.5v-506l154 -37v-164zM719 465h-117q-119 0 -171 -31.5t-52 -101.5 q0 -59 31.5 -91t89.5 -32q31 0 64.5 12.5t60 29.5t48.5 34.5t34 30.5l12 12v137z" />
<glyph unicode="&#x104;" horiz-adv-x="1552" d="M1522 174v-174q-13 -4 -34 -12t-75 -32.5t-95.5 -49.5t-75.5 -61t-34 -70q0 -36 21 -55t55 -19q16 0 38 3t36 6l14 3l35 -143q-11 -6 -30 -14.5t-74 -22.5t-105 -14q-98 0 -161.5 52.5t-63.5 152.5q0 44 22.5 86.5t52 71t71.5 55.5t66 39.5t50 23.5h-365v174l154 55 l-49 150h-455l-51 -148l160 -57v-174h-619v174l150 57l450 1207l328 6l440 -1213zM907 598l-153 485l-162 -485h315z" />
<glyph unicode="&#x105;" d="M1180 178v-164q-10 -5 -26.5 -15t-58.5 -38.5t-74 -56t-58.5 -63.5t-26.5 -66q0 -35 22 -54.5t56 -19.5q15 0 37 3t37 6l14 3l35 -143q-11 -6 -30.5 -14.5t-75 -22.5t-105.5 -14q-97 0 -161.5 53t-64.5 152q0 45 18 88t43.5 74t56.5 57t54 40t39 21l-141 -4l-37 133 q-6 -6 -18 -16.5t-48.5 -37t-73.5 -46.5t-90 -36.5t-102 -16.5q-150 0 -234.5 84t-84.5 237q0 176 126 257t367 81h144v113q0 149 -158 149q-46 0 -91 -7.5t-67 -15.5l-22 -8l-31 -129h-184l-14 303q28 9 74.5 22.5t164 36.5t205.5 23q234 0 332 -91.5t98 -313.5v-506z M719 465h-117q-119 0 -171 -31.5t-52 -101.5q0 -59 31.5 -91t89.5 -32q31 0 64.5 12.5t60 29.5t48.5 34.5t34 30.5l12 12v137z" />
<glyph unicode="&#x106;" horiz-adv-x="1366" d="M616 1505l-94 164l441 289l118 -223zM1069 983l-47 197q-96 32 -229 32q-164 0 -251 -124.5t-87 -376.5q0 -471 348 -471q57 0 118.5 14.5t107.5 35.5t84.5 42.5t58.5 35.5l20 15l113 -184q-9 -9 -25.5 -24t-71 -54t-113 -68.5t-148 -53.5t-179.5 -24 q-314 0 -484.5 185.5t-170.5 539.5q0 358 186.5 563t503.5 205q110 0 229.5 -24t183.5 -48l64 -24l-10 -389h-201z" />
<glyph unicode="&#x107;" horiz-adv-x="1075" d="M975 1530l-139 213l-457 -365l100 -149zM942 334l102 -180q-28 -24 -60.5 -47t-90 -55.5t-133.5 -52t-156 -19.5q-252 0 -392 147.5t-140 409.5q0 275 148 432t415 157q78 0 167.5 -18t139.5 -36l51 -17l-10 -336h-184l-29 145q-59 17 -141 17q-113 0 -176.5 -76.5 t-63.5 -226.5q0 -169 65 -261t191 -92q41 0 78 6.5t72.5 22t54 25t53 31t39.5 24.5z" />
<glyph unicode="&#x108;" horiz-adv-x="1366" d="M338 1655l313 268l183 16l331 -284l-98 -135l-309 200l-322 -200zM1069 983l-47 197q-96 32 -229 32q-164 0 -251 -124.5t-87 -376.5q0 -471 348 -471q57 0 118.5 14.5t107.5 35.5t84.5 42.5t58.5 35.5l20 15l113 -184q-9 -9 -25.5 -24t-71 -54t-113 -68.5t-148 -53.5 t-179.5 -24q-314 0 -484.5 185.5t-170.5 539.5q0 358 186.5 563t503.5 205q110 0 229.5 -24t183.5 -48l64 -24l-10 -389h-201z" />
<glyph unicode="&#x109;" horiz-adv-x="1075" d="M137 1360l336 313l182 17l359 -330l-99 -135l-335 245l-344 -245zM942 334l102 -180q-28 -24 -60.5 -47t-90 -55.5t-133.5 -52t-156 -19.5q-252 0 -392 147.5t-140 409.5q0 275 148 432t415 157q78 0 167.5 -18t139.5 -36l51 -17l-10 -336h-184l-29 145q-59 17 -141 17 q-113 0 -176.5 -76.5t-63.5 -226.5q0 -169 65 -261t191 -92q41 0 78 6.5t72.5 22t54 25t53 31t39.5 24.5z" />
<glyph unicode="&#x10a;" horiz-adv-x="1366" d="M594 1735q0 72 44.5 115.5t106.5 43.5q73 0 110.5 -41.5t37.5 -117.5q0 -73 -44.5 -116.5t-107.5 -43.5q-72 0 -109.5 41.5t-37.5 118.5zM1069 983l-47 197q-96 32 -229 32q-164 0 -251 -124.5t-87 -376.5q0 -471 348 -471q57 0 118.5 14.5t107.5 35.5t84.5 42.5 t58.5 35.5l20 15l113 -184q-9 -9 -25.5 -24t-71 -54t-113 -68.5t-148 -53.5t-179.5 -24q-314 0 -484.5 185.5t-170.5 539.5q0 358 186.5 563t503.5 205q110 0 229.5 -24t183.5 -48l64 -24l-10 -389h-201z" />
<glyph unicode="&#x10b;" horiz-adv-x="1075" d="M457 1430q0 72 44.5 115.5t106.5 43.5q73 0 110.5 -41.5t37.5 -117.5q0 -73 -44.5 -116.5t-107.5 -43.5q-72 0 -109.5 41.5t-37.5 118.5zM942 334l102 -180q-28 -24 -60.5 -47t-90 -55.5t-133.5 -52t-156 -19.5q-252 0 -392 147.5t-140 409.5q0 275 148 432t415 157 q78 0 167.5 -18t139.5 -36l51 -17l-10 -336h-184l-29 145q-59 17 -141 17q-113 0 -176.5 -76.5t-63.5 -226.5q0 -169 65 -261t191 -92q41 0 78 6.5t72.5 22t54 25t53 31t39.5 24.5z" />
<glyph unicode="&#x10c;" horiz-adv-x="1366" d="M1147 1837l-293 -287l-182 -14l-314 301l113 123l289 -217l284 217zM1069 983l-47 197q-96 32 -229 32q-164 0 -251 -124.5t-87 -376.5q0 -471 348 -471q57 0 118.5 14.5t107.5 35.5t84.5 42.5t58.5 35.5l20 15l113 -184q-9 -9 -25.5 -24t-71 -54t-113 -68.5t-148 -53.5 t-179.5 -24q-314 0 -484.5 185.5t-170.5 539.5q0 358 186.5 563t503.5 205q110 0 229.5 -24t183.5 -48l64 -24l-10 -389h-201z" />
<glyph unicode="&#x10d;" horiz-adv-x="1075" d="M881 1688l98 -119l-322 -320l-182 -10l-342 330l111 117l319 -240zM942 334l102 -180q-28 -24 -60.5 -47t-90 -55.5t-133.5 -52t-156 -19.5q-252 0 -392 147.5t-140 409.5q0 275 148 432t415 157q78 0 167.5 -18t139.5 -36l51 -17l-10 -336h-184l-29 145q-59 17 -141 17 q-113 0 -176.5 -76.5t-63.5 -226.5q0 -169 65 -261t191 -92q41 0 78 6.5t72.5 22t54 25t53 31t39.5 24.5z" />
<glyph unicode="&#x10e;" horiz-adv-x="1501" d="M1124 1837l-293 -287l-182 -14l-313 301l113 123l288 -217l285 217zM236 236v962l-154 62v174l471 10h195q311 0 481 -180.5t170 -522.5q0 -344 -184 -542.5t-498 -198.5h-635v174zM553 246h170q78 0 136.5 24.5t103.5 79t68.5 150.5t23.5 231q0 249 -80.5 358 t-237.5 109h-184v-952z" />
<glyph unicode="&#x10f;" horiz-adv-x="1517" d="M1348 1044l-160 58q41 146 55.5 256.5t9.5 228.5l275 10q-1 -109 -47.5 -244.5t-132.5 -308.5zM829 0l-18 109q-129 -129 -309 -129q-210 0 -315 143t-105 403q0 292 140.5 446t418.5 154q64 0 154 -20v260l-164 41v164l471 16v-1368l164 -41v-164zM795 342v508 q-67 31 -160 31q-236 0 -236 -338q0 -159 47.5 -238.5t149.5 -79.5q37 0 71 12t56 29t39 34.5t25 29.5z" />
<glyph unicode="&#x110;" horiz-adv-x="1517" d="M236 864v334l-154 62v174l471 10h203q310 0 479.5 -180t169.5 -523q0 -344 -184 -542.5t-496 -198.5h-643v174l154 62v403h-140v225h140zM799 864v-225h-248v-393h178q79 0 138 24.5t104 79t68.5 150.5t23.5 231q0 249 -81 358t-237 109h-194v-334h248z" />
<glyph unicode="&#x111;" horiz-adv-x="1306" d="M1266 178v-164l-437 -14l-18 109q-129 -129 -309 -129q-210 0 -315 143t-105 403q0 292 140.5 446t418.5 154q64 0 154 -20v76h-164v143h164v41l-164 41v164l471 16v-262h158v-143h-158v-963zM795 342v508q-67 31 -160 31q-236 0 -236 -338q0 -159 47.5 -238.5 t149.5 -79.5q37 0 71 12t56 29t39 34.5t25 29.5z" />
<glyph unicode="&#x112;" horiz-adv-x="1273" d="M979 1858v-216h-614v216h614zM977 860v-225h-414v-389h367l47 168h184v-414h-1069v174l154 62v962l-154 62v174l471 10h574v-395h-185l-51 149h-338v-338h414z" />
<glyph unicode="&#x113;" horiz-adv-x="1155" d="M891 1538v-215h-615v215h615zM1071 485h-680q9 -122 75.5 -191t172.5 -69q76 0 162 24.5t134 48.5l48 24l88 -170q-8 -7 -23.5 -18.5t-65 -41t-101 -52.5t-128 -41.5t-149.5 -18.5q-261 0 -396.5 144t-135.5 408q0 271 145.5 432.5t400.5 161.5q225 0 345 -128.5 t120 -352.5q0 -35 -3 -73t-6 -62t-3 -25zM395 676h371q0 93 -41.5 149t-126.5 56q-84 0 -137.5 -56t-65.5 -149z" />
<glyph unicode="&#x114;" horiz-adv-x="1273" d="M330 1909l178 18q1 -6 3.5 -16.5t13.5 -36.5t27 -45.5t46 -36t68 -16.5q40 0 70.5 13.5t46 33t25 39.5t11.5 34l2 13l178 14q0 -170 -101 -265t-253 -95q-135 0 -225 93.5t-90 252.5zM977 860v-225h-414v-389h367l47 168h184v-414h-1069v174l154 62v962l-154 62v174 l471 10h574v-395h-185l-51 149h-338v-338h414z" />
<glyph unicode="&#x115;" horiz-adv-x="1155" d="M270 1599l179 19q1 -6 3 -16.5t13.5 -36.5t27 -46t45.5 -36.5t68 -16.5q40 0 71 13.5t46 33t25 39.5t12 34l2 13l178 15q0 -170 -101 -265.5t-253 -95.5q-135 0 -225.5 93.5t-90.5 252.5zM1071 485h-680q9 -122 75.5 -191t172.5 -69q76 0 162 24.5t134 48.5l48 24 l88 -170q-8 -7 -23.5 -18.5t-65 -41t-101 -52.5t-128 -41.5t-149.5 -18.5q-261 0 -396.5 144t-135.5 408q0 271 145.5 432.5t400.5 161.5q225 0 345 -128.5t120 -352.5q0 -35 -3 -73t-6 -62t-3 -25zM395 676h371q0 93 -41.5 149t-126.5 56q-84 0 -137.5 -56t-65.5 -149z" />
<glyph unicode="&#x116;" horiz-adv-x="1273" d="M489 1735q0 72 45 115.5t107 43.5q72 0 109.5 -41.5t37.5 -117.5q0 -74 -44 -117t-107 -43q-72 0 -110 41.5t-38 118.5zM977 860v-225h-414v-389h367l47 168h184v-414h-1069v174l154 62v962l-154 62v174l471 10h574v-395h-185l-51 149h-338v-338h414z" />
<glyph unicode="&#x117;" horiz-adv-x="1155" d="M461 1430q0 72 44.5 115.5t106.5 43.5q73 0 110.5 -41.5t37.5 -117.5q0 -73 -44.5 -116.5t-107.5 -43.5q-72 0 -109.5 41.5t-37.5 118.5zM1071 485h-680q9 -122 75.5 -191t172.5 -69q76 0 162 24.5t134 48.5l48 24l88 -170q-8 -7 -23.5 -18.5t-65 -41t-101 -52.5 t-128 -41.5t-149.5 -18.5q-261 0 -396.5 144t-135.5 408q0 271 145.5 432.5t400.5 161.5q225 0 345 -128.5t120 -352.5q0 -35 -3 -73t-6 -62t-3 -25zM395 676h371q0 93 -41.5 149t-126.5 56q-84 0 -137.5 -56t-65.5 -149z" />
<glyph unicode="&#x118;" horiz-adv-x="1273" d="M1161 414v-414q-9 -5 -23.5 -14t-52 -36t-66 -53t-52 -60t-23.5 -62q0 -36 21 -55t55 -19q15 0 37 3t37 6l14 3l35 -143q-11 -6 -30 -14.5t-74 -22.5t-105 -14q-98 0 -161.5 52.5t-63.5 152.5q0 49 21 95.5t51.5 78t61 55.5t51.5 35l21 12h-823v174l154 62v962l-154 62 v174l471 10h574v-395h-185l-51 149h-338v-338h414v-225h-414v-389h367l47 168h184z" />
<glyph unicode="&#x119;" horiz-adv-x="1144" d="M983 322l88 -170q-38 -27 -82 -62.5t-109 -93t-107 -116t-42 -99.5q0 -37 21.5 -58.5t56.5 -21.5q15 0 36.5 3t35.5 6l14 3l35 -143q-11 -6 -30 -14.5t-74 -22.5t-105 -14q-98 0 -161.5 51.5t-63.5 148.5q0 136 163 265q-36 -4 -55 -4q-261 0 -396.5 144t-135.5 408 q0 271 145.5 432.5t400.5 161.5q225 0 345 -128.5t120 -352.5q0 -34 -2.5 -72.5t-4.5 -62.5l-3 -25h-680q9 -122 75 -191t171 -69q73 0 146.5 19t108 34.5t89.5 43.5zM397 676h369q0 93 -41.5 149t-126.5 56q-83 0 -136 -56t-65 -149z" />
<glyph unicode="&#x11a;" horiz-adv-x="1273" d="M1061 1837l-293 -287l-182 -14l-314 301l113 123l289 -217l284 217zM977 860v-225h-414v-389h367l47 168h184v-414h-1069v174l154 62v962l-154 62v174l471 10h574v-395h-185l-51 149h-338v-338h414z" />
<glyph unicode="&#x11b;" horiz-adv-x="1155" d="M903 1688l98 -119l-321 -320l-182 -10l-342 330l110 117l320 -240zM1071 485h-680q9 -122 75.5 -191t172.5 -69q76 0 162 24.5t134 48.5l48 24l88 -170q-8 -7 -23.5 -18.5t-65 -41t-101 -52.5t-128 -41.5t-149.5 -18.5q-261 0 -396.5 144t-135.5 408q0 271 145.5 432.5 t400.5 161.5q225 0 345 -128.5t120 -352.5q0 -35 -3 -73t-6 -62t-3 -25zM395 676h371q0 93 -41.5 149t-126.5 56q-84 0 -137.5 -56t-65.5 -149z" />
<glyph unicode="&#x11c;" horiz-adv-x="1536" d="M354 1655l314 268l182 16l332 -284l-99 -135l-309 200l-321 -200zM1079 1004l-51 176q-96 32 -231 32q-167 0 -254.5 -124t-87.5 -377q0 -475 348 -475q47 0 103.5 9t89.5 18l32 9v258l-154 48v167l590 11v-178l-139 -48v-417q-9 -6 -25 -15t-71 -33t-115.5 -42 t-154.5 -33t-191 -15q-314 0 -484.5 185.5t-170.5 539.5q0 358 186.5 563t503.5 205q110 0 229.5 -24t183.5 -48l64 -24l-10 -368h-191z" />
<glyph unicode="&#x11d;" horiz-adv-x="1249" d="M471 184h303q196 0 303 -82t107 -235q0 -177 -145 -283t-429 -106q-125 0 -219 15t-165 49t-107.5 92t-36.5 141q0 49 22 92.5t54 70t63.5 46.5t53.5 28l22 8q-5 1 -13.5 3t-29.5 11.5t-37 23t-29.5 39.5t-13.5 59q0 64 107 231q-158 106 -158 320q0 137 65 233t174 141 t252 45q136 0 242 -49l352 8v-163l-168 -29q0 -2 10 -27.5t17.5 -60.5t7.5 -74q0 -109 -36.5 -190.5t-103.5 -131t-154.5 -74t-196.5 -24.5q-24 0 -48.5 2.5t-39.5 5.5t-17 3zM604 915q-91 0 -132.5 -48t-41.5 -146q0 -205 164 -205q94 0 134 49.5t40 155.5q0 98 -40 146 t-124 48zM692 -41h-215q-4 -2 -10.5 -5.5t-23.5 -16t-30 -26.5t-23.5 -37t-10.5 -48q0 -73 60.5 -98t195.5 -25q138 0 200 33t62 106q0 66 -48.5 91.5t-156.5 25.5zM184 1360l336 313l182 17l359 -330l-98 -135l-336 245l-344 -245z" />
<glyph unicode="&#x11e;" horiz-adv-x="1536" d="M459 1909l178 18q1 -6 3.5 -16.5t13.5 -36.5t27 -45.5t46 -36t68 -16.5q40 0 70.5 13.5t46 33t25 39.5t11.5 34l2 13l178 14q0 -170 -101 -265t-253 -95q-135 0 -225 93.5t-90 252.5zM1079 1004l-51 176q-96 32 -231 32q-167 0 -254.5 -124t-87.5 -377q0 -475 348 -475 q47 0 103.5 9t89.5 18l32 9v258l-154 48v167l590 11v-178l-139 -48v-417q-9 -6 -25 -15t-71 -33t-115.5 -42t-154.5 -33t-191 -15q-314 0 -484.5 185.5t-170.5 539.5q0 358 186.5 563t503.5 205q110 0 229.5 -24t183.5 -48l64 -24l-10 -368h-191z" />
<glyph unicode="&#x11f;" horiz-adv-x="1249" d="M471 184h303q196 0 303 -82t107 -235q0 -177 -145 -283t-429 -106q-125 0 -219 15t-165 49t-107.5 92t-36.5 141q0 49 22 92.5t54 70t63.5 46.5t53.5 28l22 8q-5 1 -13.5 3t-29.5 11.5t-37 23t-29.5 39.5t-13.5 59q0 64 107 231q-158 106 -158 320q0 137 65 233t174 141 t252 45q136 0 242 -49l352 8v-163l-168 -29q0 -2 10 -27.5t17.5 -60.5t7.5 -74q0 -109 -36.5 -190.5t-103.5 -131t-154.5 -74t-196.5 -24.5q-24 0 -48.5 2.5t-39.5 5.5t-17 3zM604 915q-91 0 -132.5 -48t-41.5 -146q0 -205 164 -205q94 0 134 49.5t40 155.5q0 98 -40 146 t-124 48zM692 -41h-215q-4 -2 -10.5 -5.5t-23.5 -16t-30 -26.5t-23.5 -37t-10.5 -48q0 -73 60.5 -98t195.5 -25q138 0 200 33t62 106q0 66 -48.5 91.5t-156.5 25.5zM289 1599l178 19q1 -6 3.5 -16.5t13.5 -36.5t27 -46t46 -36.5t68 -16.5q40 0 70.5 13.5t46 33t25 39.5 t11.5 34l2 13l178 15q0 -170 -101 -265.5t-253 -95.5q-135 0 -225 93.5t-90 252.5z" />
<glyph unicode="&#x120;" horiz-adv-x="1536" d="M633 1735q0 72 44.5 115.5t106.5 43.5q73 0 110.5 -41.5t37.5 -117.5q0 -73 -44.5 -116.5t-107.5 -43.5q-72 0 -109.5 41.5t-37.5 118.5zM1079 1004l-51 176q-96 32 -231 32q-167 0 -254.5 -124t-87.5 -377q0 -475 348 -475q47 0 103.5 9t89.5 18l32 9v258l-154 48v167 l590 11v-178l-139 -48v-417q-9 -6 -25 -15t-71 -33t-115.5 -42t-154.5 -33t-191 -15q-314 0 -484.5 185.5t-170.5 539.5q0 358 186.5 563t503.5 205q110 0 229.5 -24t183.5 -48l64 -24l-10 -368h-191z" />
<glyph unicode="&#x121;" horiz-adv-x="1249" d="M471 184h303q196 0 303 -82t107 -235q0 -177 -145 -283t-429 -106q-125 0 -219 15t-165 49t-107.5 92t-36.5 141q0 49 22 92.5t54 70t63.5 46.5t53.5 28l22 8q-5 1 -13.5 3t-29.5 11.5t-37 23t-29.5 39.5t-13.5 59q0 64 107 231q-158 106 -158 320q0 137 65 233t174 141 t252 45q136 0 242 -49l352 8v-163l-168 -29q0 -2 10 -27.5t17.5 -60.5t7.5 -74q0 -109 -36.5 -190.5t-103.5 -131t-154.5 -74t-196.5 -24.5q-24 0 -48.5 2.5t-39.5 5.5t-17 3zM604 915q-91 0 -132.5 -48t-41.5 -146q0 -205 164 -205q94 0 134 49.5t40 155.5q0 98 -40 146 t-124 48zM692 -41h-215q-4 -2 -10.5 -5.5t-23.5 -16t-30 -26.5t-23.5 -37t-10.5 -48q0 -73 60.5 -98t195.5 -25q138 0 200 33t62 106q0 66 -48.5 91.5t-156.5 25.5zM457 1430q0 72 44.5 115.5t106.5 43.5q73 0 110.5 -41.5t37.5 -117.5q0 -73 -44.5 -116.5t-107.5 -43.5 q-72 0 -109.5 41.5t-37.5 118.5z" />
<glyph unicode="&#x122;" horiz-adv-x="1536" d="M1079 1004l-51 176q-96 32 -231 32q-167 0 -254.5 -124t-87.5 -377q0 -475 348 -475q47 0 103.5 9t89.5 18l32 9v258l-154 48v167l590 11v-178l-139 -48v-417q-9 -6 -25 -15t-71 -33t-115.5 -42t-154.5 -33t-191 -15q-314 0 -484.5 185.5t-170.5 539.5q0 358 186.5 563 t503.5 205q110 0 229.5 -24t183.5 -48l64 -24l-10 -368h-191zM625 -680l-109 98q13 14 33 37t53 70.5t33 68.5q0 23 -25.5 70t-25.5 84q0 67 43 108.5t106 41.5q64 0 106 -43t42 -117q0 -93 -68 -202.5t-188 -215.5z" />
<glyph unicode="&#x123;" horiz-adv-x="1249" d="M471 184h303q196 0 303 -82t107 -235q0 -177 -145 -283t-429 -106q-125 0 -219 15t-165 49t-107.5 92t-36.5 141q0 49 22 92.5t54 70t63.5 46.5t53.5 28l22 8q-5 1 -13.5 3t-29.5 11.5t-37 23t-29.5 39.5t-13.5 59q0 64 107 231q-158 106 -158 320q0 137 65 233t174 141 t252 45q136 0 242 -49l352 8v-163l-168 -29q0 -2 10 -27.5t17.5 -60.5t7.5 -74q0 -109 -36.5 -190.5t-103.5 -131t-154.5 -74t-196.5 -24.5q-24 0 -48.5 2.5t-39.5 5.5t-17 3zM604 915q-91 0 -132.5 -48t-41.5 -146q0 -205 164 -205q94 0 134 49.5t40 155.5q0 98 -40 146 t-124 48zM692 -41h-215q-4 -2 -10.5 -5.5t-23.5 -16t-30 -26.5t-23.5 -37t-10.5 -48q0 -73 60.5 -98t195.5 -25q138 0 200 33t62 106q0 66 -48.5 91.5t-156.5 25.5zM582 1184l-109 98q13 14 33 37t53 70.5t33 68.5q0 23 -25.5 70t-25.5 84q0 67 43 108t106 41 q64 0 106 -42.5t42 -116.5q0 -93 -68 -202.5t-188 -215.5z" />
<glyph unicode="&#x124;" horiz-adv-x="1622" d="M412 1655l313 268l182 16l332 -284l-98 -135l-310 200l-321 -200zM72 0v174l153 62v962l-153 62v174l635 10v-184l-164 -62v-328h536v328l-164 62v174l635 10v-184l-153 -62v-962l153 -62v-174h-635v174l164 62v389h-536v-389l164 -62v-174h-635z" />
<glyph unicode="&#x125;" horiz-adv-x="1372" d="M-109 1720l336 314l183 16l358 -330l-98 -135l-336 246l-344 -246zM512 1587v-600q63 52 153.5 95.5t190.5 43.5q155 0 238.5 -97t83.5 -271v-543l143 -51v-164h-557v164l106 49v496q0 163 -135 163q-32 0 -67 -11t-61.5 -27t-48.5 -32t-34 -27l-12 -11v-549l109 -51 v-164h-580v164l164 51v1151l-164 41v164z" />
<glyph unicode="&#x126;" horiz-adv-x="1622" d="M1397 1198v-61h153v-185h-153v-716l153 -62v-174h-628v174l157 62v368h-536v-368l157 -62v-174h-628v174l153 62v716h-153v185h153v61l-153 62v174l628 10v-180l-157 -62v-65h536v65l-157 62v170l628 10v-184zM1079 952h-536v-108h536v108z" />
<glyph unicode="&#x127;" horiz-adv-x="1372" d="M1321 164v-164h-557v164l106 49v496q0 163 -135 163q-32 0 -67 -11t-61.5 -27t-48.5 -32t-34 -27l-12 -11v-549l109 -51v-164h-580v164l164 51v932h-164v164h164v55l-164 41v164l471 16v-276h158v-164h-158v-160q63 52 153.5 95.5t190.5 43.5q155 0 238.5 -97t83.5 -271 v-543z" />
<glyph unicode="&#x128;" horiz-adv-x="768" d="M51 1591l-98 80q4 9 10.5 24t30.5 54t51.5 68.5t71.5 54t92 24.5q60 0 123.5 -23.5t122.5 -47t110 -23.5q22 0 45 9t39.5 21.5t30 25t20.5 21.5l7 9l112 -86q-4 -9 -12.5 -23t-36 -51t-57 -65t-76 -51t-94.5 -23q-74 0 -179.5 40t-164.5 40q-38 0 -75 -19.5t-55 -39.5z M82 0v174l154 62v962l-154 62v174l625 10v-184l-154 -62v-962l154 -62v-174h-625z" />
<glyph unicode="&#x129;" horiz-adv-x="739" d="M31 1290l-97 94q4 9 10.5 24.5t30 54.5t50.5 68.5t70 54t89 24.5q56 0 112.5 -23.5t107 -47t92.5 -23.5q33 0 66.5 21.5t51.5 42.5l17 22l108 -95q-4 -9 -10.5 -24t-30.5 -53.5t-51 -68t-70 -53.5t-88 -24q-63 0 -161.5 45t-153.5 45q-36 0 -71.5 -21t-53.5 -42zM537 215 l143 -51v-164h-608v164l164 51v670l-164 41v164l465 16v-891z" />
<glyph unicode="&#x12a;" horiz-adv-x="788" d="M702 1858v-216h-614v216h614zM82 0v174l154 62v962l-154 62v174l625 10v-184l-154 -62v-962l154 -62v-174h-625z" />
<glyph unicode="&#x12b;" horiz-adv-x="741" d="M662 1540v-215h-615v215h615zM537 215l143 -51v-164h-608v164l164 51v670l-164 41v164l465 16v-891z" />
<glyph unicode="&#x12c;" horiz-adv-x="788" d="M59 1909l179 18q1 -6 3 -16.5t13.5 -36.5t27 -45.5t45.5 -36t68 -16.5q40 0 71 13.5t46 33t25 39.5t12 34l2 13l178 14q0 -170 -101 -265t-253 -95q-135 0 -225.5 93.5t-90.5 252.5zM82 0v174l154 62v962l-154 62v174l625 10v-184l-154 -62v-962l154 -62v-174h-625z" />
<glyph unicode="&#x12d;" horiz-adv-x="741" d="M33 1599l178 19q1 -6 3.5 -16.5t13.5 -36.5t27 -46t46 -36.5t68 -16.5q40 0 70.5 13.5t46 33t25 39.5t11.5 34l2 13l178 15q0 -170 -101 -265.5t-253 -95.5q-135 0 -225 93.5t-90 252.5zM537 215l143 -51v-164h-608v164l164 51v670l-164 41v164l465 16v-891z" />
<glyph unicode="&#x12e;" horiz-adv-x="768" d="M553 1198v-962l154 -62v-174q-299 -129 -299 -225q0 -36 21 -55t54 -19q16 0 38 3t36 6l14 3l35 -143q-11 -6 -30 -14.5t-74 -22.5t-105 -14q-98 0 -161.5 52.5t-63.5 152.5q0 54 28 103.5t73 85t75.5 54t61.5 33.5h-328v174l154 62v962l-154 62v174l625 10v-184z" />
<glyph unicode="&#x12f;" horiz-adv-x="747" d="M375 1257q-84 0 -130 48.5t-46 138.5q0 84 51.5 134t124.5 50q172 0 172 -184q0 -86 -52 -136.5t-120 -50.5zM686 164v-164h-6q-12 -5 -32 -14t-72 -36t-91 -53t-71.5 -60t-32.5 -62q0 -36 21 -55t55 -19q15 0 37 3t36 6l15 3l35 -143q-11 -6 -30 -14.5t-74 -22.5 t-105 -14q-98 0 -162 52.5t-64 152.5q0 49 25.5 95.5t62 78t73 55.5t62.5 35l25 12h-321v164l164 51v666l-164 51v164l471 10v-891z" />
<glyph unicode="&#x130;" horiz-adv-x="788" d="M236 1735q0 72 44.5 115.5t106.5 43.5q73 0 110.5 -41.5t37.5 -117.5q0 -73 -44.5 -116.5t-107.5 -43.5q-72 0 -109.5 41.5t-37.5 118.5zM82 0v174l154 62v962l-154 62v174l625 10v-184l-154 -62v-962l154 -62v-174h-625z" />
<glyph unicode="&#x131;" horiz-adv-x="741" d="M537 215l143 -51v-164h-608v164l164 51v670l-164 41v164l465 16v-891z" />
<glyph unicode="&#x132;" horiz-adv-x="1574" d="M82 0v174l154 62v962l-154 62v174l625 10v-184l-154 -62v-962l154 -62v-174h-625zM1350 1198v-981q0 -139 -22.5 -236.5t-75.5 -169t-144.5 -105.5t-224.5 -34q-29 0 -68 4t-63 8l-25 3l27 211h98q180 0 180 196v1104l-153 62v174l624 10v-184z" />
<glyph unicode="&#x133;" horiz-adv-x="1437" d="M199 1444q0 84 51.5 134t124.5 50q172 0 172 -184q0 -86 -52 -136.5t-120 -50.5q-84 0 -130 48.5t-46 138.5zM946 1444q0 82 50.5 133t125.5 51q172 0 172 -184q0 -83 -50.5 -135t-121.5 -52q-84 0 -130 48.5t-46 138.5zM543 215l143 -51v-164h-614v164l164 51v666 l-164 51v164l471 10v-891zM1290 1106v-1079q0 -137 -22 -232.5t-73.5 -164t-138.5 -100.5t-216 -32q-29 0 -68 4t-64 8l-24 3l25 200h106q90 0 129 50.5t39 152.5v965l-164 51v164z" />
<glyph unicode="&#x134;" horiz-adv-x="786" d="M-20 1655l313 268l182 16l332 -284l-98 -135l-310 200l-321 -200zM561 1198v-981q0 -139 -22.5 -236.5t-75.5 -169t-144.5 -105.5t-224.5 -34q-29 0 -68 4t-63 8l-24 3l26 211h98q181 0 181 196v1104l-154 62v174l625 10v-184z" />
<glyph unicode="&#x135;" horiz-adv-x="681" d="M-102 1360l335 313l183 17l358 -330l-98 -135l-336 245l-344 -245zM539 1106v-1079q0 -138 -21.5 -233t-72 -163.5t-137.5 -100.5t-216 -32q-29 0 -68 4t-63 8l-24 3l24 190h107q90 0 129 50.5t39 152.5v975l-164 51v164z" />
<glyph unicode="&#x136;" horiz-adv-x="1474" d="M72 0v174l153 62v966l-153 62v170l624 10v-180l-153 -62v-352h139l342 584l379 10v-180l-195 -58l-268 -446l381 -524l154 -62v-174h-625v174l123 62l-281 389h-149v-389l153 -62v-174h-624zM635 -680l-109 98q13 14 33 37t53 70.5t33 68.5q0 23 -25.5 70t-25.5 84 q0 67 43 108.5t106 41.5q64 0 106 -43t42 -117q0 -93 -68 -202.5t-188 -215.5z" />
<glyph unicode="&#x137;" horiz-adv-x="1296" d="M512 694h135l139 209l-90 29v164l529 10v-174l-144 -27l-190 -268l229 -424l156 -49v-164h-379l-254 500h-131v-285l113 -51v-164h-584v164l164 51v1151l-164 41v164l471 16v-893zM567 -680l-108 98q13 14 33 37t53 70.5t33 68.5q0 23 -26 70t-26 84q0 67 43.5 108.5 t106.5 41.5q64 0 105.5 -43t41.5 -117q0 -93 -68 -202.5t-188 -215.5z" />
<glyph unicode="&#x138;" horiz-adv-x="1327" d="M543 694h133l141 207l-90 31v164l528 14v-174l-143 -33l-190 -266l229 -424l156 -49v-164h-379l-254 500h-131v-285l112 -51v-164h-583v164l164 51v666l-164 51v164l471 14v-416z" />
<glyph unicode="&#x139;" horiz-adv-x="1105" d="M289 1505l-94 164l440 289l119 -223zM846 246l45 225h194v-471h-1024v174l154 62v962l-154 62v174l625 10v-184l-154 -62v-952h314z" />
<glyph unicode="&#x13a;" horiz-adv-x="708" d="M166 1608l-94 164l440 288l119 -223zM514 215l184 -51v-164h-657v164l164 51v1151l-164 41v164l473 16v-1372z" />
<glyph unicode="&#x13b;" horiz-adv-x="1105" d="M846 246l45 225h194v-471h-1024v174l154 62v962l-154 62v174l625 10v-184l-154 -62v-952h314zM481 -680l-108 98q13 14 33 37t53 70.5t33 68.5q0 23 -26 70t-26 84q0 67 43.5 108.5t106.5 41.5q64 0 105.5 -43t41.5 -117q0 -93 -68 -202.5t-188 -215.5z" />
<glyph unicode="&#x13c;" horiz-adv-x="708" d="M514 215l184 -51v-164h-657v164l164 51v1151l-164 41v164l473 16v-1372zM246 -680l-109 98q13 14 33 37t53 70.5t33 68.5q0 23 -25.5 70t-25.5 84q0 67 43 108.5t106 41.5q64 0 106 -43t42 -117q0 -93 -68 -202.5t-188 -215.5z" />
<glyph unicode="&#x13d;" horiz-adv-x="1116" d="M846 246l45 225h194v-471h-1024v174l154 62v962l-154 62v174l625 10v-184l-154 -62v-952h314zM924 860l-164 58q77 270 67 516l269 10q-1 -115 -46.5 -269.5t-125.5 -314.5z" />
<glyph unicode="&#x13e;" horiz-adv-x="950" d="M791 1044l-160 58q41 146 55.5 256.5t9.5 228.5l275 10q-1 -109 -47.5 -244.5t-132.5 -308.5zM514 215l184 -51v-164h-657v164l164 51v1151l-164 41v164l473 16v-1372z" />
<glyph unicode="&#x13f;" horiz-adv-x="1105" d="M846 246l45 225h194v-471h-1024v174l154 62v962l-154 62v174l625 10v-184l-154 -62v-952h314zM662 770q0 91 51.5 142t132.5 51q176 0 176 -193q0 -91 -50.5 -140.5t-131.5 -49.5q-178 0 -178 190z" />
<glyph unicode="&#x140;" horiz-adv-x="1038" d="M514 215l184 -51v-164h-657v164l164 51v1151l-164 41v164l473 16v-1372zM668 641q0 91 51.5 142t132.5 51q176 0 176 -193q0 -91 -50.5 -140.5t-131.5 -49.5q-178 0 -178 190z" />
<glyph unicode="&#x141;" horiz-adv-x="1155" d="M862 1022l66 -219l-346 -154v-403h313l45 225h195v-471h-1024v174l153 62v284l-158 -69l-65 219l223 98v430l-153 62v174l624 10v-184l-153 -62v-301z" />
<glyph unicode="&#x142;" horiz-adv-x="882" d="M610 958l205 91l47 -228l-252 -110v-496l195 -51v-164h-668v164l164 51v371l-186 -82l-64 217l250 110v535l-164 41v164l473 16v-629z" />
<glyph unicode="&#x143;" horiz-adv-x="1611" d="M719 1505l-94 164l440 289l119 -223zM72 0v174l153 62v962l-153 62v174l491 10l553 -946v700l-149 62v174l583 10v-184l-153 -62v-1198h-342l-549 928v-692l160 -62v-174h-594z" />
<glyph unicode="&#x144;" horiz-adv-x="1402" d="M1067 1530l-139 213l-457 -365l100 -149zM506 1106l14 -141q8 6 22 17t57.5 38t86.5 47.5t101.5 37.5t109.5 17q148 0 229.5 -97.5t81.5 -266.5v-543l144 -51v-164h-564v164l113 51v487q0 72 -38 118t-101 46q-36 0 -71.5 -12t-61 -29t-46 -34t-30.5 -29l-10 -12v-535 l112 -51v-164h-583v164l164 51v666l-164 51v164z" />
<glyph unicode="&#x145;" horiz-adv-x="1611" d="M72 0v174l153 62v962l-153 62v174l491 10l553 -946v700l-149 62v174l583 10v-184l-153 -62v-1198h-342l-549 928v-692l160 -62v-174h-594zM696 -680l-108 98q13 14 33 37t53 70.5t33 68.5q0 23 -26 70t-26 84q0 67 43.5 108.5t106.5 41.5q64 0 105.5 -43t41.5 -117 q0 -93 -68 -202.5t-188 -215.5z" />
<glyph unicode="&#x146;" horiz-adv-x="1402" d="M506 1106l14 -141q8 6 22 17t57.5 38t86.5 47.5t101.5 37.5t109.5 17q148 0 229.5 -97.5t81.5 -266.5v-543l144 -51v-164h-564v164l113 51v487q0 72 -38 118t-101 46q-36 0 -71.5 -12t-61 -29t-46 -34t-30.5 -29l-10 -12v-535l112 -51v-164h-583v164l164 51v666l-164 51 v164zM569 -680l-108 98q13 14 33 37t53 70.5t33 68.5q0 23 -26 70t-26 84q0 67 43.5 108.5t106.5 41.5q64 0 105.5 -43t41.5 -117q0 -93 -68 -202.5t-188 -215.5z" />
<glyph unicode="&#x147;" horiz-adv-x="1611" d="M1202 1837l-293 -287l-182 -14l-313 301l112 123l289 -217l285 217zM72 0v174l153 62v962l-153 62v174l491 10l553 -946v700l-149 62v174l583 10v-184l-153 -62v-1198h-342l-549 928v-692l160 -62v-174h-594z" />
<glyph unicode="&#x148;" horiz-adv-x="1402" d="M1020 1688l98 -119l-321 -320l-183 -10l-342 330l111 117l319 -240zM506 1106l14 -141q8 6 22 17t57.5 38t86.5 47.5t101.5 37.5t109.5 17q148 0 229.5 -97.5t81.5 -266.5v-543l144 -51v-164h-564v164l113 51v487q0 72 -38 118t-101 46q-36 0 -71.5 -12t-61 -29t-46 -34 t-30.5 -29l-10 -12v-535l112 -51v-164h-583v164l164 51v666l-164 51v164z" />
<glyph unicode="&#x149;" horiz-adv-x="1402" d="M63 1167l-131 99q8 13 34 46.5t42.5 60t16.5 42.5t-21.5 61.5t-21.5 77.5q0 62 46 103t115 41q68 0 112 -47t44 -115q0 -172 -236 -369zM506 1106l14 -141q8 6 22 17t57.5 38t86.5 47.5t101.5 37.5t109.5 17q148 0 229.5 -97.5t81.5 -266.5v-543l144 -51v-164h-564v164 l113 51v487q0 72 -38 118t-101 46q-36 0 -71.5 -12t-61 -29t-46 -34t-30.5 -29l-10 -12v-535l112 -51v-164h-583v164l164 51v666l-164 51v164z" />
<glyph unicode="&#x14a;" horiz-adv-x="1622" d="M1550 1260l-153 -62v-981q0 -138 -22.5 -235t-75.5 -167t-144 -103.5t-225 -33.5q-29 0 -68 4t-64 8l-24 3l27 205h112q138 0 181 75l-588 955v-692l160 -62v-174h-594v174l153 62v962l-153 62v174l491 10l553 -961v715l-149 62v174l583 10v-184z" />
<glyph unicode="&#x14b;" horiz-adv-x="1351" d="M506 1106l14 -141q8 6 22 17t57.5 38t86.5 47.5t101.5 37.5t109.5 17q151 0 231 -97t80 -267v-721q0 -140 -21.5 -236.5t-72.5 -166.5t-139 -103t-219 -33q-29 0 -68 4t-64 8l-24 3l25 190h106q170 0 170 215v793q0 72 -38 117.5t-101 45.5q-36 0 -71.5 -12t-61 -29 t-46 -34t-30.5 -29l-10 -12v-543l106 -51v-164h-577v164l164 51v666l-164 51v164z" />
<glyph unicode="&#x14c;" horiz-adv-x="1546" d="M1102 1858v-216h-615v216h615zM788 1468q307 0 476.5 -191.5t169.5 -535.5q0 -345 -189 -556.5t-497 -211.5t-471.5 189t-163.5 549q0 352 181 554.5t494 202.5zM778 1212q-160 0 -238.5 -113t-78.5 -378q0 -254 71.5 -373t225.5 -119q161 0 244 117.5t83 384.5 q0 250 -75.5 365.5t-231.5 115.5z" />
<glyph unicode="&#x14d;" horiz-adv-x="1212" d="M932 1540v-215h-615v215h615zM625 1126q248 0 382 -144t134 -409q0 -275 -148 -434t-399 -159q-522 0 -522 563q0 274 150 428.5t403 154.5zM614 881q-116 0 -170.5 -74.5t-54.5 -253.5q0 -169 51.5 -248.5t163.5 -79.5q113 0 166 78.5t53 259.5q0 160 -50.5 239 t-158.5 79z" />
<glyph unicode="&#x14e;" horiz-adv-x="1546" d="M438 1909l178 18q1 -6 3.5 -16.5t13.5 -36.5t27 -45.5t46 -36t68 -16.5q40 0 71 13.5t46 33t25 39.5t12 34l2 13l178 14q0 -170 -101 -265t-253 -95q-135 0 -225.5 93.5t-90.5 252.5zM788 1468q307 0 476.5 -191.5t169.5 -535.5q0 -345 -189 -556.5t-497 -211.5 t-471.5 189t-163.5 549q0 352 181 554.5t494 202.5zM778 1212q-160 0 -238.5 -113t-78.5 -378q0 -254 71.5 -373t225.5 -119q161 0 244 117.5t83 384.5q0 250 -75.5 365.5t-231.5 115.5z" />
<glyph unicode="&#x14f;" horiz-adv-x="1212" d="M274 1599l179 19q1 -6 3 -16.5t13.5 -36.5t27 -46t45.5 -36.5t68 -16.5q40 0 71 13.5t46 33t25 39.5t12 34l2 13l178 15q0 -170 -101 -265.5t-253 -95.5q-135 0 -225.5 93.5t-90.5 252.5zM625 1126q248 0 382 -144t134 -409q0 -275 -148 -434t-399 -159q-522 0 -522 563 q0 274 150 428.5t403 154.5zM614 881q-116 0 -170.5 -74.5t-54.5 -253.5q0 -169 51.5 -248.5t163.5 -79.5q113 0 166 78.5t53 259.5q0 160 -50.5 239t-158.5 79z" />
<glyph unicode="&#x150;" horiz-adv-x="1546" d="M788 1468q307 0 476.5 -191.5t169.5 -535.5q0 -345 -189 -556.5t-497 -211.5t-471.5 189t-163.5 549q0 352 181 554.5t494 202.5zM778 1212q-160 0 -238.5 -113t-78.5 -378q0 -254 71.5 -373t225.5 -119q161 0 244 117.5t83 384.5q0 250 -75.5 365.5t-231.5 115.5z M365 1632l362 389l166 -170l-399 -346zM825 1632l363 389l166 -170l-400 -346z" />
<glyph unicode="&#x151;" horiz-adv-x="1212" d="M625 1126q248 0 382 -144t134 -409q0 -275 -148 -434t-399 -159q-522 0 -522 563q0 274 150 428.5t403 154.5zM614 881q-116 0 -170.5 -74.5t-54.5 -253.5q0 -169 51.5 -248.5t163.5 -79.5q113 0 166 78.5t53 259.5q0 160 -50.5 239t-158.5 79zM219 1350l363 389 l166 -170l-400 -346zM680 1350l362 389l166 -170l-399 -346z" />
<glyph unicode="&#x152;" horiz-adv-x="1974" d="M1626 246l47 164h189v-410h-738q-47 0 -178 -10t-198 -10q-309 0 -472 186t-163 545q0 352 181.5 552.5t493.5 200.5q61 0 185.5 -10t177.5 -10h686v-400h-190l-52 154h-331v-338h413v-225h-413v-389h362zM946 246v952q-56 8 -145 8q-87 0 -148 -22.5t-106.5 -76.5 t-67.5 -149.5t-22 -236.5q0 -252 74.5 -368.5t232.5 -116.5q42 0 108 5t74 5z" />
<glyph unicode="&#x153;" horiz-adv-x="1900" d="M1737 322l88 -170q-8 -7 -23.5 -18.5t-64.5 -41t-100.5 -52.5t-126 -41.5t-146.5 -18.5q-256 0 -385 178q-147 -178 -389 -178q-252 0 -385 138.5t-133 424.5q0 273 149.5 428t399.5 155q244 0 380 -176q136 176 377 176q221 0 341 -129t120 -352q0 -35 -3 -73t-6 -62 t-3 -25h-680q9 -122 75 -191t171 -69q39 0 79 5.5t66 11.5t63.5 20t50 19.5t48.5 22.5t37 18zM614 881q-115 0 -170 -74.5t-55 -253.5q0 -169 52.5 -248.5t162.5 -79.5q115 0 170 78.5t55 259.5q0 159 -52 238.5t-163 79.5zM1151 676h369q0 93 -41.5 149t-126.5 56 q-83 0 -136 -56t-65 -149z" />
<glyph unicode="&#x154;" horiz-adv-x="1382" d="M514 1505l-94 164l440 289l119 -223zM72 0v174l153 62v962l-153 62v174l471 10h155q256 0 394.5 -106t138.5 -312q0 -270 -232 -387q50 -59 86 -133l138 -281l139 -51v-174h-379l-172 379q-20 46 -31.5 69t-26.5 48.5t-26 35.5t-28.5 20t-37 12.5t-47.5 2.5h-71v-331 l147 -62v-174h-618zM543 782h116q122 0 189 56t67 159q0 89 -55 145t-149 56h-168v-416z" />
<glyph unicode="&#x155;" horiz-adv-x="1005" d="M834 1530l-140 213l-456 -365l100 -149zM502 1106l18 -141q6 7 17 17.5t43.5 38.5t65 49t77 38.5t82.5 17.5q50 0 97.5 -9t69.5 -18l23 -9l-16 -394h-184l-31 174q-53 0 -108 -28.5t-84 -57.5l-29 -28v-541l205 -51v-164h-676v164l164 51v666l-164 51v164z" />
<glyph unicode="&#x156;" horiz-adv-x="1382" d="M72 0v174l153 62v962l-153 62v174l471 10h155q256 0 394.5 -106t138.5 -312q0 -270 -232 -387q50 -59 86 -133l138 -281l139 -51v-174h-379l-172 379q-20 46 -31.5 69t-26.5 48.5t-26 35.5t-28.5 20t-37 12.5t-47.5 2.5h-71v-331l147 -62v-174h-618zM543 782h116 q122 0 189 56t67 159q0 89 -55 145t-149 56h-168v-416zM635 -680l-109 98q13 14 33 37t53 70.5t33 68.5q0 23 -25.5 70t-25.5 84q0 67 43 108.5t106 41.5q64 0 106 -43t42 -117q0 -93 -68 -202.5t-188 -215.5z" />
<glyph unicode="&#x157;" horiz-adv-x="1005" d="M502 1106l18 -141q6 7 17 17.5t43.5 38.5t65 49t77 38.5t82.5 17.5q50 0 97.5 -9t69.5 -18l23 -9l-16 -394h-184l-31 174q-53 0 -108 -28.5t-84 -57.5l-29 -28v-541l205 -51v-164h-676v164l164 51v666l-164 51v164zM279 -680l-109 98q13 14 33 37t53 70.5t33 68.5 q0 23 -25.5 70t-25.5 84q0 67 43 108.5t106 41.5q64 0 106 -43t42 -117q0 -93 -68 -202.5t-188 -215.5z" />
<glyph unicode="&#x158;" horiz-adv-x="1382" d="M1034 1837l-293 -287l-182 -14l-313 301l112 123l289 -217l285 217zM72 0v174l153 62v962l-153 62v174l471 10h155q256 0 394.5 -106t138.5 -312q0 -270 -232 -387q50 -59 86 -133l138 -281l139 -51v-174h-379l-172 379q-20 46 -31.5 69t-26.5 48.5t-26 35.5t-28.5 20 t-37 12.5t-47.5 2.5h-71v-331l147 -62v-174h-618zM543 782h116q122 0 189 56t67 159q0 89 -55 145t-149 56h-168v-416z" />
<glyph unicode="&#x159;" horiz-adv-x="1005" d="M850 1688l98 -119l-321 -320l-183 -10l-342 330l111 117l319 -240zM502 1106l18 -141q6 7 17 17.5t43.5 38.5t65 49t77 38.5t82.5 17.5q50 0 97.5 -9t69.5 -18l23 -9l-16 -394h-184l-31 174q-53 0 -108 -28.5t-84 -57.5l-29 -28v-541l205 -51v-164h-676v164l164 51v666 l-164 51v164z" />
<glyph unicode="&#x15a;" horiz-adv-x="1239" d="M483 1505l-94 164l440 289l119 -223zM336 444l31 -172q9 -5 26 -12t69 -19t105 -12q104 0 176 44t72 122q0 38 -23.5 68t-63.5 51.5t-92 40.5t-109.5 39t-115 44t-109.5 59t-92 79.5t-63.5 110.5t-23.5 147q0 138 68.5 237.5t185 148t266.5 48.5q103 0 215.5 -20.5 t173.5 -41.5l62 -20l-11 -372h-188l-51 174q-92 31 -180 31q-105 0 -161.5 -41t-56.5 -105q0 -38 23.5 -68t63.5 -51.5t92 -41t109.5 -39.5t114.5 -43.5t109 -58t92 -77t63.5 -105.5t23.5 -140q0 -150 -73 -259t-197 -163t-283 -54q-103 0 -217 19.5t-177 39.5l-63 19v393 h209z" />
<glyph unicode="&#x15b;" horiz-adv-x="997" d="M811 1530l-139 213l-457 -365l100 -149zM262 358l17 -133q72 -20 172 -20q167 0 167 100q0 34 -30 59.5t-78.5 44t-106.5 37t-116 45t-106.5 61.5t-78.5 92.5t-30 131.5q0 92 35 162t95.5 109.5t133.5 59t158 19.5q82 0 177 -15t149 -31l54 -15l-8 -307h-174l-30 123 q-60 20 -142 20q-67 0 -104 -27t-37 -77q0 -33 30 -58t78.5 -42t107 -34.5t116.5 -42t106.5 -57.5t78.5 -88t30 -127q0 -174 -128 -271t-343 -97q-87 0 -181 11t-145 23l-51 11v333h184z" />
<glyph unicode="&#x15c;" horiz-adv-x="1239" d="M207 1655l313 268l182 16l332 -284l-98 -135l-309 200l-322 -200zM336 444l31 -172q9 -5 26 -12t69 -19t105 -12q104 0 176 44t72 122q0 38 -23.5 68t-63.5 51.5t-92 40.5t-109.5 39t-115 44t-109.5 59t-92 79.5t-63.5 110.5t-23.5 147q0 138 68.5 237.5t185 148 t266.5 48.5q103 0 215.5 -20.5t173.5 -41.5l62 -20l-11 -372h-188l-51 174q-92 31 -180 31q-105 0 -161.5 -41t-56.5 -105q0 -38 23.5 -68t63.5 -51.5t92 -41t109.5 -39.5t114.5 -43.5t109 -58t92 -77t63.5 -105.5t23.5 -140q0 -150 -73 -259t-197 -163t-283 -54 q-103 0 -217 19.5t-177 39.5l-63 19v393h209z" />
<glyph unicode="&#x15d;" horiz-adv-x="997" d="M57 1360l336 313l182 17l359 -330l-98 -135l-336 245l-344 -245zM262 358l17 -133q72 -20 172 -20q167 0 167 100q0 34 -30 59.5t-78.5 44t-106.5 37t-116 45t-106.5 61.5t-78.5 92.5t-30 131.5q0 92 35 162t95.5 109.5t133.5 59t158 19.5q82 0 177 -15t149 -31l54 -15 l-8 -307h-174l-30 123q-60 20 -142 20q-67 0 -104 -27t-37 -77q0 -33 30 -58t78.5 -42t107 -34.5t116.5 -42t106.5 -57.5t78.5 -88t30 -127q0 -174 -128 -271t-343 -97q-87 0 -181 11t-145 23l-51 11v333h184z" />
<glyph unicode="&#x15e;" horiz-adv-x="1239" d="M895 1014l-51 174q-92 31 -180 31q-105 0 -161.5 -41t-56.5 -105q0 -38 23.5 -68t63.5 -51.5t92 -41t109.5 -39.5t114.5 -43.5t109 -58t92 -77t63.5 -105.5t23.5 -140q0 -198 -122.5 -320t-324.5 -149v-68q81 -15 128.5 -63t47.5 -119q0 -92 -71.5 -149.5t-186.5 -57.5 q-61 0 -123.5 16.5t-94.5 32.5l-32 16l64 113q82 -43 160 -43q48 0 75 21.5t27 56.5q0 43 -45.5 65.5t-122.5 22.5v151q-91 5 -188.5 24t-149.5 35l-51 17v393h209l31 -172q9 -5 26 -12t69 -19t105 -12q104 0 176 44t72 122q0 38 -23.5 68t-63.5 51.5t-92 40.5t-109.5 39 t-115 44t-109.5 59t-92 79.5t-63.5 110.5t-23.5 147q0 138 68.5 237.5t185 148t266.5 48.5q103 0 215.5 -20.5t173.5 -41.5l62 -20l-11 -372h-188z" />
<glyph unicode="&#x15f;" horiz-adv-x="997" d="M692 758l-30 123q-60 20 -142 20q-67 0 -104 -27t-37 -77q0 -33 30 -58t78.5 -42t107 -34.5t116.5 -42t106.5 -57.5t78.5 -88t30 -127q0 -154 -102 -248.5t-277 -113.5v-74q81 -15 128.5 -63t47.5 -119q0 -92 -71.5 -149.5t-186.5 -57.5q-61 0 -123.5 16.5t-94.5 32.5 l-32 16l64 113q81 -43 159 -43q48 0 75.5 21.5t27.5 56.5q0 43 -45.5 65.5t-122.5 22.5v158q-72 4 -146 15t-111 19l-38 9v333h184l17 -133q72 -20 172 -20q167 0 167 100q0 34 -30 59.5t-78.5 44t-106.5 37t-116 45t-106.5 61.5t-78.5 92.5t-30 131.5q0 92 35 162 t95.5 109.5t133.5 59t158 19.5q82 0 177 -15t149 -31l54 -15l-8 -307h-174z" />
<glyph unicode="&#x160;" horiz-adv-x="1239" d="M1016 1837l-293 -287l-182 -14l-314 301l113 123l289 -217l284 217zM336 444l31 -172q9 -5 26 -12t69 -19t105 -12q104 0 176 44t72 122q0 38 -23.5 68t-63.5 51.5t-92 40.5t-109.5 39t-115 44t-109.5 59t-92 79.5t-63.5 110.5t-23.5 147q0 138 68.5 237.5t185 148 t266.5 48.5q103 0 215.5 -20.5t173.5 -41.5l62 -20l-11 -372h-188l-51 174q-92 31 -180 31q-105 0 -161.5 -41t-56.5 -105q0 -38 23.5 -68t63.5 -51.5t92 -41t109.5 -39.5t114.5 -43.5t109 -58t92 -77t63.5 -105.5t23.5 -140q0 -150 -73 -259t-197 -163t-283 -54 q-103 0 -217 19.5t-177 39.5l-63 19v393h209z" />
<glyph unicode="&#x161;" horiz-adv-x="997" d="M838 1688l98 -119l-322 -320l-182 -10l-342 330l111 117l319 -240zM262 358l17 -133q72 -20 172 -20q167 0 167 100q0 34 -30 59.5t-78.5 44t-106.5 37t-116 45t-106.5 61.5t-78.5 92.5t-30 131.5q0 92 35 162t95.5 109.5t133.5 59t158 19.5q82 0 177 -15t149 -31l54 -15 l-8 -307h-174l-30 123q-60 20 -142 20q-67 0 -104 -27t-37 -77q0 -33 30 -58t78.5 -42t107 -34.5t116.5 -42t106.5 -57.5t78.5 -88t30 -127q0 -174 -128 -271t-343 -97q-87 0 -181 11t-145 23l-51 11v333h184z" />
<glyph unicode="&#x162;" horiz-adv-x="1228" d="M1208 1444v-440h-190l-51 194h-195v-962l195 -62v-174h-277v-88q81 -15 128.5 -63t47.5 -119q0 -92 -71.5 -149.5t-186.5 -57.5q-61 0 -123.5 16.5t-94.5 32.5l-32 16l64 113q82 -43 160 -43q48 0 75 21.5t27 56.5q0 43 -45.5 65.5t-122.5 22.5v176h-256v174l195 62v962 h-195l-51 -194h-189v440h1188z" />
<glyph unicode="&#x163;" horiz-adv-x="892" d="M586 -16v-72q81 -15 128.5 -63t47.5 -119q0 -92 -71.5 -149.5t-186.5 -57.5q-61 0 -123.5 16.5t-94.5 32.5l-32 16l63 113q82 -43 160 -43q48 0 75.5 21.5t27.5 56.5q0 43 -45.5 65.5t-122.5 22.5v172q-103 32 -147 130t-44 253v471h-190v199l190 26v283l307 55v-338h287 v-225h-287v-451q0 -101 23 -142.5t86 -41.5q36 0 84.5 16t77.5 31l73 -156q-146 -106 -286 -122z" />
<glyph unicode="&#x164;" horiz-adv-x="1228" d="M1014 1837l-293 -287l-182 -14l-314 301l113 123l289 -217l284 217zM455 236v962h-195l-51 -194h-189v440h1188v-440h-190l-51 194h-195v-962l195 -62v-174h-707v174z" />
<glyph unicode="&#x165;" horiz-adv-x="940" d="M791 1147l-160 57q41 146 55.5 257t9.5 229l275 10q-1 -109 -47.5 -244.5t-132.5 -308.5zM799 262l73 -156q-170 -126 -348 -126q-86 0 -146.5 28.5t-94 83.5t-48 124.5t-14.5 162.5v471h-190v199l190 26v283l307 55v-338h287v-225h-287v-451q0 -101 23 -142.5t86 -41.5 q36 0 84.5 16t77.5 31z" />
<glyph unicode="&#x166;" horiz-adv-x="1228" d="M772 1198v-389h277v-195h-277v-378l195 -62v-174h-707v174l195 62v378h-277v195h277v389h-195l-51 -194h-189v440h1188v-440h-190l-51 194h-195z" />
<glyph unicode="&#x167;" horiz-adv-x="913" d="M809 262l74 -156q-170 -126 -348 -126q-86 0 -146.5 28.5t-94.5 83.5t-48.5 124.5t-14.5 162.5v147h-186v164h186v160h-190v199l190 26v283l308 55v-338h286v-225h-286v-160h284v-164h-284v-127q0 -101 22.5 -142.5t85.5 -41.5q36 0 84.5 16t77.5 31z" />
<glyph unicode="&#x168;" horiz-adv-x="1615" d="M471 1591l-98 80q4 9 10.5 24t30.5 54t51.5 68.5t71.5 54t92 24.5q60 0 123.5 -23.5t122.5 -47t110 -23.5q36 0 71 21.5t52 42.5l18 22l113 -86q-4 -9 -12.5 -23t-36 -51t-57 -65t-76 -51t-94.5 -23q-74 0 -180 40t-165 40q-38 0 -75 -19.5t-55 -39.5zM541 1198v-645 q0 -179 59.5 -253.5t208.5 -74.5q81 0 133 21t80.5 68.5t39.5 110.5t11 159v614l-160 62v174l631 10v-184l-153 -62v-614q0 -152 -31 -262.5t-100 -189.5t-183.5 -118t-277.5 -39q-306 0 -441 139t-135 439v645l-151 62v174l628 10v-184z" />
<glyph unicode="&#x169;" horiz-adv-x="1370" d="M305 1290l-96 94q4 9 10.5 24.5t30.5 54.5t51.5 68.5t71.5 54t92 24.5q60 0 119.5 -23.5t114.5 -47t106 -23.5q36 0 71 21.5t52 42.5l18 22l109 -95q-4 -9 -10.5 -24t-31 -53.5t-52 -68t-71.5 -53.5t-91 -24q-60 0 -120.5 22.5t-116.5 45t-107 22.5q-38 0 -75.5 -21 t-55.5 -42zM31 932v164l471 10v-707q0 -86 28.5 -124.5t96.5 -38.5q37 0 74.5 11.5t64.5 27.5t48.5 32t32.5 27l11 12v535l-164 51v164l471 10v-891l164 -41v-160l-432 -14l-20 143q-7 -7 -19 -18t-51 -39t-79 -49.5t-97.5 -39t-112.5 -17.5q-153 0 -238 97t-85 269v535z " />
<glyph unicode="&#x16a;" horiz-adv-x="1615" d="M1122 1858v-216h-614v216h614zM541 1198v-645q0 -179 59.5 -253.5t208.5 -74.5q81 0 133 21t80.5 68.5t39.5 110.5t11 159v614l-160 62v174l631 10v-184l-153 -62v-614q0 -152 -31 -262.5t-100 -189.5t-183.5 -118t-277.5 -39q-306 0 -441 139t-135 439v645l-151 62v174 l628 10v-184z" />
<glyph unicode="&#x16b;" horiz-adv-x="1370" d="M948 1540v-215h-614v215h614zM31 932v164l471 10v-707q0 -86 28.5 -124.5t96.5 -38.5q37 0 74.5 11.5t64.5 27.5t48.5 32t32.5 27l11 12v535l-164 51v164l471 10v-891l164 -41v-160l-432 -14l-20 143q-7 -7 -19 -18t-51 -39t-79 -49.5t-97.5 -39t-112.5 -17.5 q-153 0 -238 97t-85 269v535z" />
<glyph unicode="&#x16c;" horiz-adv-x="1615" d="M483 1909l179 18q1 -6 3 -16.5t13.5 -36.5t27 -45.5t45.5 -36t68 -16.5q40 0 71 13.5t46 33t25 39.5t12 34l2 13l178 14q0 -170 -101 -265t-253 -95q-135 0 -225.5 93.5t-90.5 252.5zM541 1198v-645q0 -179 59.5 -253.5t208.5 -74.5q81 0 133 21t80.5 68.5t39.5 110.5 t11 159v614l-160 62v174l631 10v-184l-153 -62v-614q0 -152 -31 -262.5t-100 -189.5t-183.5 -118t-277.5 -39q-306 0 -441 139t-135 439v645l-151 62v174l628 10v-184z" />
<glyph unicode="&#x16d;" horiz-adv-x="1370" d="M315 1599l179 19q1 -6 3 -16.5t13.5 -36.5t27 -46t45.5 -36.5t68 -16.5q40 0 71 13.5t46 33t25 39.5t12 34l2 13l178 15q0 -170 -101 -265.5t-253 -95.5q-135 0 -225.5 93.5t-90.5 252.5zM31 932v164l471 10v-707q0 -86 28.5 -124.5t96.5 -38.5q37 0 74.5 11.5t64.5 27.5 t48.5 32t32.5 27l11 12v535l-164 51v164l471 10v-891l164 -41v-160l-432 -14l-20 143q-7 -7 -19 -18t-51 -39t-79 -49.5t-97.5 -39t-112.5 -17.5q-153 0 -238 97t-85 269v535z" />
<glyph unicode="&#x16e;" horiz-adv-x="1615" d="M526 1765q0 123 83.5 198t191.5 75t190 -70t82 -190q0 -121 -83 -197t-189 -76q-110 0 -192.5 70t-82.5 190zM700 1772q0 -58 26.5 -87.5t74.5 -29.5q43 0 70.5 31t27.5 88t-25.5 86.5t-72.5 29.5q-45 0 -73 -30.5t-28 -87.5zM541 1198v-645q0 -179 59.5 -253.5 t208.5 -74.5q81 0 133 21t80.5 68.5t39.5 110.5t11 159v614l-160 62v174l631 10v-184l-153 -62v-614q0 -152 -31 -262.5t-100 -189.5t-183.5 -118t-277.5 -39q-306 0 -441 139t-135 439v645l-151 62v174l628 10v-184z" />
<glyph unicode="&#x16f;" horiz-adv-x="1370" d="M367 1483q0 123 83 197.5t191 74.5t190 -70t82 -190q0 -121 -83 -196.5t-189 -75.5q-109 0 -191.5 69.5t-82.5 190.5zM541 1489q0 -58 26 -87.5t74 -29.5q43 0 70.5 31t27.5 88q0 58 -25.5 87.5t-72.5 29.5q-44 0 -72 -31t-28 -88zM31 932v164l471 10v-707 q0 -86 28.5 -124.5t96.5 -38.5q37 0 74.5 11.5t64.5 27.5t48.5 32t32.5 27l11 12v535l-164 51v164l471 10v-891l164 -41v-160l-432 -14l-20 143q-7 -7 -19 -18t-51 -39t-79 -49.5t-97.5 -39t-112.5 -17.5q-153 0 -238 97t-85 269v535z" />
<glyph unicode="&#x170;" horiz-adv-x="1615" d="M389 1632l363 389l166 -170l-400 -346zM850 1632l362 389l166 -170l-399 -346zM541 1198v-645q0 -179 59.5 -253.5t208.5 -74.5q81 0 133 21t80.5 68.5t39.5 110.5t11 159v614l-160 62v174l631 10v-184l-153 -62v-614q0 -152 -31 -262.5t-100 -189.5t-183.5 -118 t-277.5 -39q-306 0 -441 139t-135 439v645l-151 62v174l628 10v-184z" />
<glyph unicode="&#x171;" horiz-adv-x="1370" d="M195 1350l362 389l166 -170l-399 -346zM655 1350l363 389l166 -170l-400 -346zM31 932v164l471 10v-707q0 -86 28.5 -124.5t96.5 -38.5q37 0 74.5 11.5t64.5 27.5t48.5 32t32.5 27l11 12v535l-164 51v164l471 10v-891l164 -41v-160l-432 -14l-20 143q-7 -7 -19 -18 t-51 -39t-79 -49.5t-97.5 -39t-112.5 -17.5q-153 0 -238 97t-85 269v535z" />
<glyph unicode="&#x172;" horiz-adv-x="1607" d="M1536 1260l-154 -62v-614q0 -224 -65 -349t-225 -210q-279 -148 -279 -250q0 -36 21 -55t55 -19q15 0 37 3t36 6l15 3l35 -143q-11 -6 -30 -14.5t-74 -22.5t-105 -14q-98 0 -161.5 52.5t-63.5 152.5q0 139 172 253q-266 0 -398.5 140t-132.5 436v645l-153 62v174l630 10 v-184l-159 -62v-645q0 -179 59 -253.5t207 -74.5q81 0 132.5 21t80 68.5t39 110t10.5 159.5v614l-160 62v174l631 10v-184z" />
<glyph unicode="&#x173;" horiz-adv-x="1347" d="M1329 174v-160q-10 -5 -26 -15t-58 -38.5t-74 -56t-58 -63.5t-26 -66q0 -35 22 -54.5t56 -19.5q15 0 37 3t36 6l15 3l35 -143q-11 -6 -30.5 -14.5t-75 -22.5t-105.5 -14q-97 0 -161 53t-64 152q0 44 18 87t43.5 74t57 58t54.5 41.5t40 21.5l-168 -6l-20 143 q-7 -7 -19 -18t-51 -39t-79 -49.5t-97.5 -39t-112.5 -17.5q-153 0 -238 97t-85 269v535l-164 51v164l471 10v-707q0 -86 28.5 -124.5t96.5 -38.5q37 0 74.5 11.5t64.5 27.5t48.5 32t32.5 27l11 12v535l-164 51v164l471 10v-891z" />
<glyph unicode="&#x174;" horiz-adv-x="2119" d="M645 1655l313 268l183 16l332 -284l-99 -135l-309 200l-322 -200zM10 1260v174l608 10v-184l-149 -62l176 -737l287 966l276 17l275 -981l196 735l-153 62v174l583 10v-184l-147 -62l-350 -1198h-291l-268 973l-49 -195l-236 -778h-283l-331 1200z" />
<glyph unicode="&#x175;" horiz-adv-x="1794" d="M457 1360l336 313l182 17l358 -330l-98 -135l-336 245l-344 -245zM1384 901l-124 31v164l524 10v-174l-109 -25l-272 -907h-313l-162 522l-37 160l-51 -223l-150 -459h-311l-279 903l-90 29v164l537 10v-174l-129 -25l135 -575l217 739l270 45l224 -784z" />
<glyph unicode="&#x176;" horiz-adv-x="1366" d="M305 1655l313 268l183 16l332 -284l-99 -135l-309 200l-322 -200zM369 0v174l153 62v264l-375 704l-133 56v174l580 10v-184l-105 -43l205 -441l217 438l-112 46v174l553 10v-184l-142 -56l-370 -702v-266l153 -62v-174h-624z" />
<glyph unicode="&#x177;" d="M195 1360l335 313l183 17l358 -330l-98 -135l-336 245l-344 -245zM10 932v164l547 10v-174l-115 -21l183 -573l174 567l-119 27v164l551 10v-174l-127 -27l-301 -839q-24 -66 -44.5 -116.5t-51.5 -111.5t-62 -105.5t-73.5 -89t-89.5 -72.5t-107.5 -45.5t-128.5 -17.5 q-31 0 -81 4t-84 8l-34 5l29 219h133q47 0 88.5 20t68 45t53.5 66.5t37.5 63.5t26.5 59l-364 901z" />
<glyph unicode="&#x178;" horiz-adv-x="1366" d="M303 1737q0 72 44.5 115.5t107.5 43.5q71 0 109 -41.5t38 -117.5q0 -74 -44 -117t-107 -43q-72 0 -110 41.5t-38 118.5zM750 1737q0 72 44.5 115.5t106.5 43.5q73 0 110.5 -41.5t37.5 -117.5q0 -73 -44.5 -116.5t-107.5 -43.5q-72 0 -109.5 41.5t-37.5 118.5zM369 0v174 l153 62v264l-375 704l-133 56v174l580 10v-184l-105 -43l205 -441l217 438l-112 46v174l553 10v-184l-142 -56l-370 -702v-266l153 -62v-174h-624z" />
<glyph unicode="&#x179;" horiz-adv-x="1259" d="M524 1505l-94 164l440 289l119 -223zM61 215l727 983h-430l-51 -184h-194v430h1085v-232l-713 -966h467l45 205h195v-451h-1131v215z" />
<glyph unicode="&#x17a;" horiz-adv-x="1034" d="M893 1530l-139 213l-457 -365l100 -149zM967 915l-512 -690h299l34 174h185v-399h-891v188l520 693h-280l-31 -150h-185v375h861v-191z" />
<glyph unicode="&#x17b;" horiz-adv-x="1259" d="M502 1735q0 72 44.5 115.5t106.5 43.5q73 0 110.5 -41.5t37.5 -117.5q0 -73 -44.5 -116.5t-107.5 -43.5q-72 0 -109.5 41.5t-37.5 118.5zM61 215l727 983h-430l-51 -184h-194v430h1085v-232l-713 -966h467l45 205h195v-451h-1131v215z" />
<glyph unicode="&#x17c;" horiz-adv-x="1034" d="M395 1430q0 72 45 115.5t107 43.5q72 0 109.5 -41.5t37.5 -117.5q0 -74 -44 -117t-107 -43q-72 0 -110 41.5t-38 118.5zM967 915l-512 -690h299l34 174h185v-399h-891v188l520 693h-280l-31 -150h-185v375h861v-191z" />
<glyph unicode="&#x17d;" horiz-adv-x="1259" d="M1020 1837l-293 -287l-182 -14l-314 301l113 123l289 -217l285 217zM61 215l727 983h-430l-51 -184h-194v430h1085v-232l-713 -966h467l45 205h195v-451h-1131v215z" />
<glyph unicode="&#x17e;" horiz-adv-x="1034" d="M889 1688l98 -119l-321 -320l-183 -10l-342 330l111 117l319 -240zM967 915l-512 -690h299l34 174h185v-399h-891v188l520 693h-280l-31 -150h-185v375h861v-191z" />
<glyph unicode="&#x17f;" horiz-adv-x="917" d="M266 215v963q0 200 112.5 317t323.5 117q98 0 185.5 -19t125.5 -38l38 -19l-7 -303h-178l-30 151q-41 9 -109 9q-158 0 -158 -181v-997l197 -51v-164h-664v164z" />
<glyph unicode="&#x192;" horiz-adv-x="901" d="M242 952l16 176q21 231 128 350t323 119q32 0 80 -3t80 -6l32 -3l-20 -213h-133q-96 0 -133.5 -45.5t-47.5 -150.5l-20 -224h268l-6 -204h-279l-65 -689q-23 -231 -129.5 -350t-321.5 -119q-24 0 -61.5 3t-63.5 7l-26 3l26 213h86q96 0 133.5 45.5t47.5 150.5l67 736 h-166v174z" />
<glyph unicode="&#x1fa;" horiz-adv-x="1531" d="M1522 174v-174h-652v174l154 55l-49 150h-455l-51 -148l160 -57v-174h-619v174l150 57l446 1199q-90 73 -90 196t83.5 197.5t191.5 74.5t190 -70t82 -190q0 -144 -115 -223l430 -1184zM791 1751q-44 0 -72.5 -31t-28.5 -88t26.5 -86.5t74.5 -29.5q43 0 70.5 31t27.5 87 q0 58 -25.5 87.5t-72.5 29.5zM907 598l-153 485l-162 -485h315zM608 1917l-63 178l483 207l78 -240z" />
<glyph unicode="&#x1fb;" d="M311 1452q0 123 83.5 197.5t191.5 74.5t190 -70t82 -190q0 -121 -83 -196.5t-189 -75.5q-110 0 -192.5 70t-82.5 190zM485 1458q0 -58 26.5 -87.5t74.5 -29.5q43 0 70.5 31t27.5 88q0 58 -25.5 87.5t-72.5 29.5q-44 0 -72.5 -31t-28.5 -88zM770 0l-37 133 q-6 -6 -18 -16.5t-48.5 -37t-73.5 -46.5t-90 -36.5t-102 -16.5q-150 0 -234.5 84t-84.5 237q0 176 126 257t367 81h144v113q0 149 -158 149q-46 0 -91 -7.5t-67 -15.5l-22 -8l-31 -129h-184l-14 303q28 9 74.5 22.5t164 36.5t205.5 23q234 0 332 -91.5t98 -313.5v-506 l154 -37v-164zM719 465h-117q-119 0 -171 -31.5t-52 -101.5q0 -59 31.5 -91t89.5 -32q31 0 64.5 12.5t60 29.5t48.5 34.5t34 30.5l12 12v137zM911 1985l-120 223l-486 -324l86 -158z" />
<glyph unicode="&#x1fc;" horiz-adv-x="1988" d="M1118 1505l-94 164l440 289l119 -223zM1702 860v-225h-414v-389h363l47 168h188v-414h-1067v174l152 62v157h-396l-79 -166l125 -53v-174h-611v174l172 62l469 962l-174 62v174l391 10h994v-400h-191l-51 154h-332v-338h414zM942 1198l-270 -584h299v584h-29z" />
<glyph unicode="&#x1fd;" horiz-adv-x="1773" d="M1700 481h-678q9 -121 75.5 -188.5t172.5 -67.5q76 0 161 24.5t132 48.5l47 24l90 -170q-9 -7 -25 -18.5t-67.5 -41t-104 -52.5t-128 -41.5t-146.5 -18.5q-300 0 -426 204q-174 -204 -404 -204q-147 0 -232 86t-85 235q0 176 125 257t366 81h144v113q0 147 -158 147 q-45 0 -90 -7.5t-67 -15.5l-23 -8l-31 -127h-184l-14 303q0 3 68 22t177.5 38.5t194.5 19.5q230 0 319 -118q135 120 340 120q221 0 342 -126.5t121 -352.5q0 -35 -3 -74.5t-6 -65t-3 -26.5zM1022 666h375q0 100 -41 157.5t-127 57.5t-140.5 -57.5t-66.5 -157.5zM717 465 h-117q-119 0 -172 -31.5t-53 -101.5q0 -58 32.5 -90.5t90.5 -32.5q30 0 63.5 12.5t60 30.5t48.5 36.5t34 31.5l13 12v133zM1272 1530l-139 213l-457 -365l100 -149z" />
<glyph unicode="&#x1fe;" horiz-adv-x="1566" d="M147 -121l160 262q-184 187 -184 570q0 352 182 554.5t494 202.5q159 0 284 -55l127 211l183 -104l-138 -224q189 -192 189 -555q0 -345 -189 -555.5t-497 -210.5q-156 0 -277 50l-151 -250zM788 1212q-158 0 -239.5 -110.5t-81.5 -358.5q0 -176 43 -270 q83 138 239.5 395t188.5 310q-64 34 -150 34zM1057 969l-430 -705q59 -35 141 -35q334 0 334 502q0 146 -45 238zM627 1505l-95 164l441 289l119 -223z" />
<glyph unicode="&#x1ff;" horiz-adv-x="1232" d="M90 -154l148 248q-156 138 -156 449q0 274 150 428.5t403 154.5q105 0 203 -32l133 223l153 -86l-133 -223q160 -145 160 -435q0 -275 -148 -434t-399 -159q-104 0 -211 28l-149 -248zM422 401l283 473q-39 17 -80 17q-119 0 -172.5 -77.5t-53.5 -262.5q0 -83 23 -150z M811 707l-285 -476q33 -16 88 -16q115 0 167.5 81.5t52.5 266.5q0 88 -23 144zM913 1530l-139 213l-457 -365l101 -149z" />
<glyph unicode="&#x218;" horiz-adv-x="1239" d="M336 444l31 -172q9 -5 26 -12t69 -19t105 -12q104 0 176 44t72 122q0 38 -23.5 68t-63.5 51.5t-92 40.5t-109.5 39t-115 44t-109.5 59t-92 79.5t-63.5 110.5t-23.5 147q0 138 68.5 237.5t185 148t266.5 48.5q103 0 215.5 -20.5t173.5 -41.5l62 -20l-11 -372h-188l-51 174 q-92 31 -180 31q-105 0 -161.5 -41t-56.5 -105q0 -38 23.5 -68t63.5 -51.5t92 -41t109.5 -39.5t114.5 -43.5t109 -58t92 -77t63.5 -105.5t23.5 -140q0 -150 -73 -259t-197 -163t-283 -54q-103 0 -217 19.5t-177 39.5l-63 19v393h209zM543 -680l-109 98q13 14 33 37t53 70.5 t33 68.5q0 23 -25.5 70t-25.5 84q0 67 43 108.5t106 41.5q64 0 106 -43t42 -117q0 -93 -68 -202.5t-188 -215.5z" />
<glyph unicode="&#x219;" horiz-adv-x="997" d="M262 358l17 -133q72 -20 172 -20q167 0 167 100q0 34 -30 59.5t-78.5 44t-106.5 37t-116 45t-106.5 61.5t-78.5 92.5t-30 131.5q0 92 35 162t95.5 109.5t133.5 59t158 19.5q82 0 177 -15t149 -31l54 -15l-8 -307h-174l-30 123q-60 20 -142 20q-67 0 -104 -27t-37 -77 q0 -33 30 -58t78.5 -42t107 -34.5t116.5 -42t106.5 -57.5t78.5 -88t30 -127q0 -174 -128 -271t-343 -97q-87 0 -181 11t-145 23l-51 11v333h184zM365 -680l-109 98q13 14 33 37t53 70.5t33 68.5q0 23 -25.5 70t-25.5 84q0 67 43 108.5t106 41.5q64 0 106 -43t42 -117 q0 -93 -68 -202.5t-188 -215.5z" />
<glyph unicode="&#x21a;" horiz-adv-x="1228" d="M455 236v962h-195l-51 -194h-189v440h1188v-440h-190l-51 194h-195v-962l195 -62v-174h-707v174zM502 -680l-109 98q13 14 33 37t53 70.5t33 68.5q0 23 -25.5 70t-25.5 84q0 67 43 108.5t106 41.5q64 0 106 -43t42 -117q0 -93 -68 -202.5t-188 -215.5z" />
<glyph unicode="&#x21b;" horiz-adv-x="892" d="M799 262l73 -156q-170 -126 -348 -126q-86 0 -146.5 28.5t-94 83.5t-48 124.5t-14.5 162.5v471h-190v199l190 26v283l307 55v-338h287v-225h-287v-451q0 -101 23 -142.5t86 -41.5q36 0 84.5 16t77.5 31zM375 -680l-109 98q13 14 33 37t53 70.5t33 68.5q0 23 -25.5 70 t-25.5 84q0 67 43 108.5t106 41.5q64 0 106 -43t42 -117q0 -93 -68 -202.5t-188 -215.5z" />
<glyph unicode="&#x237;" horiz-adv-x="681" d="M539 1106v-1079q0 -138 -21.5 -233t-72 -163.5t-137.5 -100.5t-216 -32q-29 0 -68 4t-63 8l-24 3l24 190h107q90 0 129 50.5t39 152.5v975l-164 51v164z" />
<glyph unicode="&#x2c6;" horiz-adv-x="1114" d="M143 1436l314 268l182 16l332 -284l-99 -136l-309 201l-321 -201z" />
<glyph unicode="&#x2c7;" horiz-adv-x="788" d="M717 1688l98 -119l-321 -320l-183 -10l-342 330l111 117l319 -240z" />
<glyph unicode="&#x2c9;" horiz-adv-x="634" d="M625 1530v-219h-615v219h615z" />
<glyph unicode="&#x2d8;" horiz-adv-x="901" d="M115 1567l178 18q1 -6 3.5 -16.5t13.5 -36.5t27 -45.5t46 -36t68 -16.5q40 0 70.5 13.5t46 33t25 39.5t11.5 34l2 13l178 14q0 -170 -101 -265t-253 -95q-135 0 -225 93.5t-90 252.5z" />
<glyph unicode="&#x2d9;" horiz-adv-x="606" d="M154 1735q0 72 44.5 115.5t106.5 43.5q73 0 110.5 -41.5t37.5 -117.5q0 -73 -44.5 -116.5t-107.5 -43.5q-72 0 -109.5 41.5t-37.5 118.5z" />
<glyph unicode="&#x2da;" horiz-adv-x="841" d="M147 1483q0 123 83.5 197.5t191.5 74.5t190 -70t82 -190q0 -121 -83 -196.5t-189 -75.5q-110 0 -192.5 70t-82.5 190zM322 1489q0 -58 26 -87.5t74 -29.5q43 0 70.5 31t27.5 88q0 58 -25.5 87.5t-72.5 29.5q-44 0 -72 -31t-28 -88z" />
<glyph unicode="&#x2db;" horiz-adv-x="634" d="M319 0h246q-9 -5 -23.5 -14t-52 -36t-66 -53t-52 -60t-23.5 -62q0 -36 21 -55t55 -19q15 0 37 3t37 6l14 3l35 -143q-11 -6 -30 -14.5t-74 -22.5t-105 -14q-98 0 -161.5 52.5t-63.5 152.5q0 49 21 95.5t51.5 78t61 55.5t51.5 35z" />
<glyph unicode="&#x2dc;" horiz-adv-x="1163" d="M260 1290l-96 94q4 9 10.5 24.5t30.5 54.5t51.5 68.5t71.5 54t92 24.5q60 0 119.5 -23.5t114.5 -47t106 -23.5q36 0 71 21.5t53 42.5l17 22l109 -95q-4 -9 -10.5 -24t-31 -53.5t-52 -68t-71.5 -53.5t-91 -24q-60 0 -120.5 22.5t-116.5 45t-107 22.5q-38 0 -75.5 -21 t-56.5 -42z" />
<glyph unicode="&#x2dd;" horiz-adv-x="1275" d="M164 1409l362 389l166 -170l-399 -346zM625 1409l362 389l166 -170l-399 -346z" />
<glyph unicode="&#x326;" horiz-adv-x="0" d="M143 -680l-108 98q13 14 33 37t53 70.5t33 68.5q0 23 -26 70t-26 84q0 67 43.5 108.5t106.5 41.5q64 0 105.5 -43t41.5 -117q0 -93 -68 -202.5t-188 -215.5z" />
<glyph unicode="&#x393;" horiz-adv-x="1173" d="M1163 1004h-190l-51 194h-379v-962l194 -62v-174h-665v174l153 62v962l-153 62v174l471 10h620v-440z" />
<glyph unicode="&#x394;" horiz-adv-x="1359" d="M823 1481l516 -1276v-205h-1319v205l531 1276h272zM1030 229l-366 918l-367 -918h733z" />
<glyph unicode="&#x3a0;" horiz-adv-x="1630" d="M1538 240l72 -144q-6 -5 -17.5 -12.5t-48 -27.5t-74 -35.5t-92.5 -28t-108 -12.5q-132 0 -211.5 89.5t-79.5 278.5v850h-432v-969l170 -51v-178h-656v178l168 51v969l-153 62v174l471 10h903v-184l-154 -62v-862q0 -129 103 -129q26 0 61 8.5t56 16.5z" />
<glyph unicode="&#x3a9;" horiz-adv-x="1550" d="M1458 266v-266h-565v195q37 26 69 67t61.5 106t46.5 163.5t17 220.5q0 236 -76 348t-231 112q-159 0 -238 -110t-79 -361q0 -119 14.5 -211.5t42 -155t59 -103t74.5 -74.5l4 -2v-195h-565v246h215q-20 15 -49 54t-62.5 100t-57 150t-23.5 181q0 339 182 538t494 199 q305 0 475 -188.5t170 -517.5q0 -91 -22.5 -180t-56.5 -152.5t-66 -107.5t-58 -64h-4z" />
<glyph unicode="&#x3bc;" horiz-adv-x="1349" d="M35 926v164l448 16v-715q0 -74 31.5 -112.5t91.5 -38.5q59 0 120 28t92 56l32 28v533l-152 41v164l453 16v-891l156 -41v-160l-416 -14l-21 145q-7 -7 -19 -18t-48.5 -39.5t-71.5 -50t-82 -39.5t-86 -18q-45 0 -80 12v-473h-297v1366z" />
<glyph unicode="&#x3c0;" horiz-adv-x="1413" d="M1376 240l72 -144q-6 -5 -17.5 -12.5t-47 -27.5t-72.5 -35.5t-90 -28t-103 -12.5q-126 0 -205 90t-79 278v526h-328v-874h-301v881l-160 45v159l436 21h819v-180l-165 -41v-549q0 -66 25 -97.5t77 -31.5q26 0 61 8.5t56 16.5z" />
<glyph unicode="&#x400;" horiz-adv-x="1273" d="M444 1958l441 -289l-94 -164l-465 230zM977 860v-225h-414v-389h367l47 168h184v-414h-1069v174l154 62v962l-154 62v174l471 10h574v-395h-185l-51 149h-338v-338h414z" />
<glyph unicode="&#x401;" horiz-adv-x="1273" d="M287 1737q0 72 44 115.5t107 43.5q71 0 109.5 -41.5t38.5 -117.5q0 -73 -44.5 -116.5t-107.5 -43.5q-72 0 -109.5 41.5t-37.5 118.5zM733 1737q0 72 45 115.5t107 43.5q72 0 109.5 -41.5t37.5 -117.5q0 -74 -44 -117t-107 -43q-72 0 -110 41.5t-38 118.5zM977 860v-225 h-414v-389h367l47 168h184v-414h-1069v174l154 62v962l-154 62v174l471 10h574v-395h-185l-51 149h-338v-338h414z" />
<glyph unicode="&#x402;" horiz-adv-x="1536" d="M752 1198v-473q82 49 181.5 82t192.5 33q168 0 263.5 -101t95.5 -278q0 -116 -21.5 -202t-70 -151.5t-133.5 -99t-205 -33.5q-72 0 -166 15l24 215h107q88 0 123 50t35 155q0 90 -47.5 137t-126.5 47q-111 0 -252 -76v-518h-512v174l194 62v962h-174l-51 -194h-189v440 h1188v-440h-190l-51 194h-215z" />
<glyph unicode="&#x403;" horiz-adv-x="1173" d="M539 1505l-95 164l441 289l119 -223zM1163 1004h-190l-51 194h-379v-962l194 -62v-174h-665v174l153 62v962l-153 62v174l471 10h620v-440z" />
<glyph unicode="&#x404;" horiz-adv-x="1378" d="M1174 365l114 -179q-85 -81 -223 -146t-297 -65q-314 0 -484.5 185.5t-170.5 539.5q0 356 185 556.5t505 211.5q64 2 135.5 -6t127.5 -21.5t102.5 -27t71.5 -23.5l26 -10l-11 -389h-200l-47 199q-92 22 -203 22q-300 0 -342 -366h516v-225h-520q33 -381 344 -381 q76 0 153 23t116.5 43.5t101.5 58.5z" />
<glyph unicode="&#x405;" horiz-adv-x="1239" d="M336 444l31 -172q9 -5 26 -12t69 -19t105 -12q104 0 176 44t72 122q0 38 -23.5 68t-63.5 51.5t-92 40.5t-109.5 39t-115 44t-109.5 59t-92 79.5t-63.5 110.5t-23.5 147q0 138 68.5 237.5t185 148t266.5 48.5q103 0 215.5 -20.5t173.5 -41.5l62 -20l-11 -372h-188l-51 174 q-92 31 -180 31q-105 0 -161.5 -41t-56.5 -105q0 -38 23.5 -68t63.5 -51.5t92 -41t109.5 -39.5t114.5 -43.5t109 -58t92 -77t63.5 -105.5t23.5 -140q0 -150 -73 -259t-197 -163t-283 -54q-103 0 -217 19.5t-177 39.5l-63 19v393h209z" />
<glyph unicode="&#x406;" horiz-adv-x="788" d="M82 0v174l154 62v962l-154 62v174l625 10v-184l-154 -62v-962l154 -62v-174h-625z" />
<glyph unicode="&#x407;" horiz-adv-x="827" d="M53 1735q0 72 44.5 115.5t107.5 43.5q71 0 109 -41.5t38 -117.5q0 -74 -44 -117t-107 -43q-72 0 -110 41.5t-38 118.5zM479 1735q0 72 45 115.5t107 43.5q72 0 109.5 -41.5t37.5 -117.5q0 -74 -44 -117t-107 -43q-72 0 -110 41.5t-38 118.5zM111 0v174l153 62v962 l-153 62v174l624 10v-184l-153 -62v-962l153 -62v-174h-624z" />
<glyph unicode="&#x408;" horiz-adv-x="786" d="M561 1198v-981q0 -139 -22.5 -236.5t-75.5 -169t-144.5 -105.5t-224.5 -34q-29 0 -68 4t-63 8l-24 3l26 211h98q181 0 181 196v1104l-154 62v174l625 10v-184z" />
<glyph unicode="&#x409;" horiz-adv-x="2017" d="M1284 885h201q110 0 200 -24.5t158.5 -74.5t106 -133t37.5 -194q0 -231 -140.5 -345t-396.5 -114h-657v174l174 62v962h-312q-5 -89 -13.5 -181.5t-22.5 -224.5t-19 -188q-11 -113 -27.5 -200t-47.5 -170.5t-73.5 -138t-107.5 -87.5t-149 -33q-88 0 -195 35l51 318 q37 -11 76 -11q98 0 156.5 68t81.5 213q37 229 55 600l-275 62v184h1323v-184l-184 -62v-313zM1284 246h156q105 0 162 58t57 155q0 103 -62.5 151.5t-187.5 48.5h-125v-413z" />
<glyph unicode="&#x40a;" horiz-adv-x="2109" d="M1397 883h200q88 0 162.5 -14.5t138 -47t107.5 -80t69 -117t25 -155.5q0 -232 -141 -350.5t-395 -118.5h-637v174l153 62v421h-536v-421l164 -62v-174h-635v174l153 62v962l-153 62v174l635 10v-184l-164 -62v-315h536v315l-153 62v174l655 10v-184l-184 -62v-315z M1397 246h155q104 0 162 62t58 161q0 101 -61.5 144.5t-188.5 43.5h-125v-411z" />
<glyph unicode="&#x40b;" horiz-adv-x="1652" d="M1612 184v-184h-584v184l123 62v196q0 181 -174 181q-101 0 -225 -86v-301l122 -62v-174h-634v174l194 62v962h-174l-51 -194h-189v440h1188v-440h-190l-51 194h-215v-453q173 134 358 134q171 0 264.5 -98t93.5 -271v-264z" />
<glyph unicode="&#x40c;" horiz-adv-x="1474" d="M639 1505l-94 164l440 289l119 -223zM72 0v174l153 62v966l-153 62v170l624 10v-180l-153 -62v-352h139l342 584l379 10v-180l-195 -58l-268 -446l381 -524l154 -62v-174h-625v174l123 62l-281 389h-149v-389l153 -62v-174h-624z" />
<glyph unicode="&#x40d;" horiz-adv-x="1642" d="M893 1505l-465 230l119 223l440 -289zM1417 1202v-973l154 -51v-178h-635v178l164 51v625l-557 -551v-74l164 -55v-174h-635v178l153 51v973l-153 62v170l635 10v-180l-164 -62v-622l557 550v72l-164 62v170l635 10v-180z" />
<glyph unicode="&#x40e;" horiz-adv-x="1472" d="M934 1942l262 -15q0 -91 -33 -160.5t-92 -111t-134 -62.5t-165 -22q-89 -1 -164 20t-134 63t-92.5 112t-33.5 161l262 15v-177q64 -34 162 -34q101 0 162 34v177zM1452 1444v-184l-164 -62l-317 -747q-204 -476 -490 -476q-151 0 -288 62l55 229q127 -35 213 -35 q112 0 192 103l-479 864l-154 62v174l633 10v-184l-164 -62l306 -575l241 575l-174 62v174z" />
<glyph unicode="&#x40f;" horiz-adv-x="1566" d="M1341 1198v-962l154 -62v-174h-573l-48 -399h-194l-45 399h-563v174l153 62v962l-153 62v174l635 10v-184l-164 -62v-952h481v952l-164 62v174l635 10v-184z" />
<glyph unicode="&#x410;" horiz-adv-x="1531" d="M1522 174v-174h-652v174l154 55l-49 150h-455l-51 -148l160 -57v-174h-619v174l150 57l450 1207l328 6l440 -1213zM907 598l-153 485l-162 -485h315z" />
<glyph unicode="&#x411;" horiz-adv-x="1320" d="M557 823h201q147 0 258 -41t177.5 -130t66.5 -218q0 -214 -141.5 -324t-395.5 -110h-651v174l168 62v962l-154 62v174l471 10h621v-422h-191l-51 176h-379v-375zM557 246h156q103 0 161 54t58 134q0 85 -63.5 129.5t-186.5 44.5h-125v-362z" />
<glyph unicode="&#x412;" horiz-adv-x="1347" d="M543 1444h215q207 0 328.5 -89t121.5 -265q0 -261 -245 -338q144 -41 218 -125t74 -203q0 -424 -532 -424h-651v174l153 62v962l-153 62v174zM543 854h119q229 0 229 190q0 76 -48 115t-126 39h-174v-344zM543 246h170q107 0 163 46.5t56 131.5q0 112 -65.5 163.5 t-204.5 51.5h-119v-393z" />
<glyph unicode="&#x413;" horiz-adv-x="1173" d="M1163 1004h-190l-51 194h-379v-962l194 -62v-174h-665v174l153 62v962l-153 62v174l471 10h620v-440z" />
<glyph unicode="&#x414;" horiz-adv-x="1546" d="M1505 -399h-194l-117 399h-872l-117 -399h-195l10 594q66 19 104.5 35.5t74.5 43.5t56 67t35.5 99.5t26.5 147.5q40 329 52 610l-260 62v184h1304v-184l-153 -62v-962l235 -31zM942 1198h-328q-15 -301 -51 -608q-10 -87 -14.5 -118t-16 -84.5t-28 -84t-41.5 -57.5h479 v952z" />
<glyph unicode="&#x415;" horiz-adv-x="1273" d="M977 860v-225h-414v-389h367l47 168h184v-414h-1069v174l154 62v962l-154 62v174l471 10h574v-395h-185l-51 149h-338v-338h414z" />
<glyph unicode="&#x416;" horiz-adv-x="2160" d="M2161 174v-174h-625v174l123 62l-281 389h-149v-389l127 -62v-174h-541v174l127 62v389h-149l-281 -389l123 -62v-174h-625v174l154 62l381 524l-269 446l-194 58v180l381 -10l342 -584h137v352l-154 62v170l594 10v-180l-153 -62v-352h162l342 584l356 10v-180l-195 -58 l-268 -446l381 -524z" />
<glyph unicode="&#x417;" horiz-adv-x="1228" d="M92 1024l-10 358q28 10 76 24t174.5 38t226.5 24q274 0 410.5 -90.5t136.5 -277.5q0 -132 -65.5 -222.5t-190.5 -123.5q130 -29 208.5 -118.5t78.5 -205.5q0 -95 -34 -173t-91.5 -130t-136.5 -87.5t-165.5 -51t-181.5 -15.5q-238 0 -475 109l76 229q227 -82 393 -82 q136 0 211.5 50.5t75.5 154.5q0 95 -79 148t-232 53h-191v215h201q287 0 287 199q0 79 -63 124.5t-183 45.5q-55 0 -110 -7.5t-83 -15.5l-28 -8l-21 -164h-215z" />
<glyph unicode="&#x418;" horiz-adv-x="1642" d="M1417 1202v-973l154 -51v-178h-635v178l164 51v625l-557 -551v-74l164 -55v-174h-635v178l153 51v973l-153 62v170l635 10v-180l-164 -62v-622l557 550v72l-164 62v170l635 10v-180z" />
<glyph unicode="&#x419;" horiz-adv-x="1642" d="M995 1942l262 -15q0 -91 -33 -160.5t-91.5 -111t-133.5 -62.5t-165 -22q-89 -1 -164 20t-134 63t-92.5 112t-33.5 161l262 15v-177q64 -34 162 -34q100 0 161 34v177zM1417 1202v-973l154 -51v-178h-635v178l164 51v625l-557 -551v-74l164 -55v-174h-635v178l153 51v973 l-153 62v170l635 10v-180l-164 -62v-622l557 550v72l-164 62v170l635 10v-180z" />
<glyph unicode="&#x41a;" horiz-adv-x="1474" d="M72 0v174l153 62v966l-153 62v170l624 10v-180l-153 -62v-352h139l342 584l379 10v-180l-195 -58l-268 -446l381 -524l154 -62v-174h-625v174l123 62l-281 389h-149v-389l153 -62v-174h-624z" />
<glyph unicode="&#x41b;" horiz-adv-x="1509" d="M1284 1198v-962l154 -62v-174h-645v174l174 62v962h-322q-5 -89 -13.5 -181.5t-22.5 -224.5t-19 -188q-11 -113 -28 -200t-47.5 -170.5t-73.5 -138t-108 -87.5t-149 -33q-87 0 -194 35l51 318q37 -11 76 -11q98 0 156 68t81 213q38 238 56 600l-275 62v184h1303v-184z " />
<glyph unicode="&#x41c;" horiz-adv-x="1798" d="M72 0v174l153 62v962l-153 62v174l528 10l307 -682l322 672l491 10v-184l-147 -62v-962l153 -62v-174h-610v174l160 62v770l-55 -136l-232 -481l-221 -10l-236 485l-34 107v-735l157 -62v-174h-583z" />
<glyph unicode="&#x41d;" horiz-adv-x="1622" d="M72 0v174l153 62v962l-153 62v174l635 10v-184l-164 -62v-328h536v328l-164 62v174l635 10v-184l-153 -62v-962l153 -62v-174h-635v174l164 62v389h-536v-389l164 -62v-174h-635z" />
<glyph unicode="&#x41e;" horiz-adv-x="1546" d="M788 1468q307 0 476.5 -191.5t169.5 -535.5q0 -345 -189 -556.5t-497 -211.5t-471.5 189t-163.5 549q0 352 181 554.5t494 202.5zM778 1212q-160 0 -238.5 -113t-78.5 -378q0 -254 71.5 -373t225.5 -119q161 0 244 117.5t83 384.5q0 250 -75.5 365.5t-231.5 115.5z" />
<glyph unicode="&#x41f;" horiz-adv-x="1617" d="M1393 1198v-962l153 -62v-174h-624v174l153 62v962h-532v-962l153 -62v-174h-624v174l153 62v962l-153 62v174l471 10h1003v-184z" />
<glyph unicode="&#x420;" horiz-adv-x="1275" d="M72 0v174l153 62v962l-153 62v174l471 10h194q234 0 366 -115t132 -315q0 -255 -150.5 -383.5t-433.5 -128.5h-108v-266l153 -62v-174h-624zM543 741h108q128 0 197.5 59.5t69.5 172.5q0 103 -54.5 164t-156.5 61h-164v-457z" />
<glyph unicode="&#x421;" horiz-adv-x="1366" d="M1069 983l-47 197q-96 32 -229 32q-164 0 -251 -124.5t-87 -376.5q0 -471 348 -471q57 0 118.5 14.5t107.5 35.5t84.5 42.5t58.5 35.5l20 15l113 -184q-9 -9 -25.5 -24t-71 -54t-113 -68.5t-148 -53.5t-179.5 -24q-314 0 -484.5 185.5t-170.5 539.5q0 358 186.5 563 t503.5 205q110 0 229.5 -24t183.5 -48l64 -24l-10 -389h-201z" />
<glyph unicode="&#x422;" horiz-adv-x="1228" d="M455 236v962h-195l-51 -194h-189v440h1188v-440h-190l-51 194h-195v-962l195 -62v-174h-707v174z" />
<glyph unicode="&#x423;" horiz-adv-x="1472" d="M1452 1444v-184l-164 -62l-317 -747q-204 -476 -490 -476q-151 0 -288 62l55 229q127 -35 213 -35q112 0 192 103l-479 864l-154 62v174l633 10v-184l-164 -62l306 -575l241 575l-174 62v174z" />
<glyph unicode="&#x424;" horiz-adv-x="1914" d="M1102 1352v-76q357 -15 523.5 -129.5t166.5 -351.5q0 -120 -36 -211t-115.5 -162t-214.5 -113.5t-324 -54.5v-70l153 -51v-174h-596v174l154 51v66q-352 15 -521 135t-169 369q0 243 167 370t523 150v78l-154 51v174l596 10v-184zM1102 1087v-634q159 7 243 37.5 t117 90.5t33 169q0 179 -88 252t-305 85zM813 453v634q-211 -15 -302 -90t-91 -241q0 -103 34.5 -164.5t120.5 -96t238 -42.5z" />
<glyph unicode="&#x425;" horiz-adv-x="1515" d="M20 0v174l127 51l414 500l-381 496l-119 39v174l615 10v-184l-103 -35l211 -281l201 273l-111 43v174l590 10v-184l-135 -41l-377 -478l400 -518l143 -49v-174h-635v174l94 41l-225 303l-229 -295l129 -49v-174h-609z" />
<glyph unicode="&#x426;" horiz-adv-x="1679" d="M1638 -399h-194l-117 399h-1255v174l153 62v962l-153 62v174l635 10v-184l-164 -62v-952h532v952l-164 62v174l635 10v-184l-153 -62v-962l235 -31z" />
<glyph unicode="&#x427;" horiz-adv-x="1505" d="M1280 1198v-962l154 -62v-174h-676v174l205 62v303q-2 -1 -17.5 -7.5t-21.5 -9.5t-24 -10t-29.5 -10.5t-32.5 -10t-38 -10t-41.5 -8t-47 -7t-50.5 -4t-57 -1.5q-94 0 -173 27.5t-139 81.5t-94 141.5t-34 199.5v287l-144 62v184h605v-184l-144 -62v-240q0 -133 49.5 -187 t155.5 -54q129 0 277 43v438l-144 62v174l615 10v-184z" />
<glyph unicode="&#x428;" horiz-adv-x="2222" d="M1997 1198v-962l153 -62v-174h-2078v174l153 62v962l-153 62v174l614 10v-184l-143 -62v-952h409v952l-143 62v174l604 10v-184l-143 -62v-952h409v952l-153 62v174l624 10v-184z" />
<glyph unicode="&#x429;" horiz-adv-x="2283" d="M2243 -399h-195l-117 399h-1859v184l153 52v962l-153 62v174l614 10v-184l-143 -62v-952h409v952l-143 62v174l604 10v-184l-143 -62v-952h409v952l-153 62v174l624 10v-184l-153 -62v-962l235 -31z" />
<glyph unicode="&#x42a;" horiz-adv-x="1497" d="M754 885h200q110 0 200 -24.5t158.5 -74.5t106 -133t37.5 -194q0 -231 -140 -345t-396 -114h-637v174l153 62v962h-174l-51 -194h-191v440h938v-184l-204 -62v-313zM754 246h155q105 0 162 58t57 155q0 110 -61.5 160.5t-187.5 50.5h-125v-424z" />
<glyph unicode="&#x42b;" horiz-adv-x="1996" d="M543 874h200q110 0 200 -24t158.5 -73t106 -130t37.5 -188q0 -231 -140 -345t-396 -114h-637v174l153 62v962l-153 62v174l655 10v-184l-184 -62v-324zM1772 1198v-962l153 -62v-174h-625v174l154 62v962l-154 62v174l625 10v-184zM543 246h155q105 0 162.5 58t57.5 155 q0 103 -62.5 151.5t-187.5 48.5h-125v-413z" />
<glyph unicode="&#x42c;" horiz-adv-x="1255" d="M543 885h200q110 0 200 -24.5t158.5 -74.5t106 -133t37.5 -194q0 -231 -140 -345t-396 -114h-637v174l153 62v962l-153 62v174l655 10v-184l-184 -62v-313zM543 246h155q105 0 162.5 58t57.5 155q0 110 -62 160.5t-188 50.5h-125v-424z" />
<glyph unicode="&#x42d;" horiz-adv-x="1378" d="M123 991l-10 375q230 102 497 102q315 0 485.5 -186t170.5 -539q0 -177 -50.5 -322t-141 -242.5t-216 -150.5t-274.5 -53q-244 0 -494 201l117 186q38 -23 82.5 -45.5t132.5 -49.5t162 -27q140 0 227 93.5t107 284.5h-519v226h519q-20 184 -108.5 272t-234.5 88 q-57 0 -111 -5.5t-79 -10.5l-25 -6l-36 -191h-201z" />
<glyph unicode="&#x42e;" horiz-adv-x="2215" d="M543 870h250q40 282 215 440t450 158q307 0 476 -191.5t169 -535.5q0 -345 -189 -556.5t-497 -211.5q-289 0 -451 166.5t-182 485.5h-241v-389l164 -62v-174h-635v174l153 62v962l-153 62v174l635 10v-184l-164 -62v-328zM1427 229q161 0 244.5 117.5t83.5 384.5 q0 250 -75.5 365.5t-231.5 115.5q-160 0 -239 -113t-79 -378q0 -254 71.5 -373t225.5 -119z" />
<glyph unicode="&#x42f;" horiz-adv-x="1402" d="M702 174l148 62v290h-92q-60 0 -108 -43.5t-107 -144.5l-195 -338h-368v174l159 51l146 197q8 11 26 35.5t24.5 32.5t20.5 26.5t21 25.5t19 19.5t21.5 19t22 14.5t25.5 15q-58 16 -109 46.5t-96 76.5t-71.5 113.5t-26.5 148.5q0 232 135.5 340.5t396.5 108.5h627v-184 l-154 -62v-962l154 -62v-174h-619v174zM850 1198h-168q-99 0 -152 -57t-53 -158q0 -123 70.5 -182.5t216.5 -59.5h86v457z" />
<glyph unicode="&#x430;" d="M770 0l-37 133q-6 -6 -18 -16.5t-48.5 -37t-73.5 -46.5t-90 -36.5t-102 -16.5q-150 0 -234.5 84t-84.5 237q0 176 126 257t367 81h144v113q0 149 -158 149q-46 0 -91 -7.5t-67 -15.5l-22 -8l-31 -129h-184l-14 303q28 9 74.5 22.5t164 36.5t205.5 23q234 0 332 -91.5 t98 -313.5v-506l154 -37v-164zM719 465h-117q-119 0 -171 -31.5t-52 -101.5q0 -59 31.5 -91t89.5 -32q31 0 64.5 12.5t60 29.5t48.5 34.5t34 30.5l12 12v137z" />
<glyph unicode="&#x431;" horiz-adv-x="1228" d="M1137 1724l-90 -323q-286 -38 -410 -64q-72 -15 -116 -35.5t-80 -63.5t-55 -113.5t-28 -182.5q44 73 129 128.5t209 55.5q94 0 173.5 -32t141 -95t96 -167t34.5 -238q0 -289 -147.5 -451.5t-399.5 -162.5q-502 0 -502 665q0 311 46.5 502t139 288t248.5 136q90 25 322 47 l88 158zM604 215q113 0 166 80t53 268q0 167 -49 247.5t-158 80.5q-84 0 -133.5 -28.5t-76.5 -103.5t-27 -206q0 -175 55.5 -256.5t169.5 -81.5z" />
<glyph unicode="&#x432;" horiz-adv-x="1269" d="M543 1106h164q216 0 328 -68.5t112 -203.5q0 -103 -64.5 -170.5t-187.5 -90.5q52 -5 100 -21t93.5 -45.5t72.5 -81t27 -118.5q0 -307 -516 -307h-590v164l154 51v666l-154 51v164zM543 649h88q124 0 171.5 25.5t47.5 93.5q0 65 -45.5 89t-138.5 24h-123v-232zM543 225 h139q107 0 147.5 22t40.5 95q0 67 -47.5 95t-150.5 28h-129v-240z" />
<glyph unicode="&#x433;" horiz-adv-x="1085" d="M829 860l41 -246h195l10 492h-532l-471 -10v-164l164 -51v-666l-164 -51v-164h676v164l-205 51v645h286z" />
<glyph unicode="&#x434;" horiz-adv-x="1392" d="M1352 164l-21 -522h-194l-43 358h-811l-43 -358h-195l-25 553l97 22q64 15 103 47t69.5 106t45.5 195.5t23 315.5l-225 51v174h1157v-174l-143 -51v-656zM840 860h-273q-12 -257 -42.5 -401.5t-88.5 -212.5h404v614z" />
<glyph unicode="&#x435;" horiz-adv-x="1155" d="M1071 485h-680q9 -122 75.5 -191t172.5 -69q76 0 162 24.5t134 48.5l48 24l88 -170q-8 -7 -23.5 -18.5t-65 -41t-101 -52.5t-128 -41.5t-149.5 -18.5q-261 0 -396.5 144t-135.5 408q0 271 145.5 432.5t400.5 161.5q225 0 345 -128.5t120 -352.5q0 -35 -3 -73t-6 -62 t-3 -25zM395 676h371q0 93 -41.5 149t-126.5 56q-84 0 -137.5 -56t-65.5 -149z" />
<glyph unicode="&#x436;" horiz-adv-x="1828" d="M1808 164v-164h-378l-252 459h-136v-244l121 -51v-164h-501v164l124 51v244h-147l-252 -459h-367v164l156 49l230 383l-191 309l-143 27v174l528 -10v-164l-90 -29l143 -250h133v228l-94 51v164l350 10v-453h148l143 250l-90 29v164l514 10v-174l-143 -27l-191 -309 l230 -383z" />
<glyph unicode="&#x437;" horiz-adv-x="989" d="M20 68l54 196q19 -3 59.5 -11t60.5 -11.5t54 -8t68 -6.5t75 -2q89 0 144 29t55 88q0 67 -50 97t-175 30h-103v184h90q120 0 169.5 29t49.5 92q0 62 -40 89.5t-123 27.5q-57 0 -160 -21l-12 -110h-187l-10 299q205 47 405 47q211 0 317.5 -71t106.5 -201 q0 -102 -64.5 -167.5t-187.5 -88.5q51 -5 99.5 -20.5t93 -43t71.5 -73t27 -101.5q0 -93 -37.5 -160.5t-106 -106t-153 -56t-188.5 -17.5q-187 0 -402 68z" />
<glyph unicode="&#x438;" horiz-adv-x="1536" d="M1290 881v-666l164 -51v-164h-594v164l123 51v389l-430 -328v-61l123 -51v-164h-594v164l164 51v666l-164 51v164l594 10v-174l-123 -51v-387l430 325v62l-123 51v164l594 10v-174z" />
<glyph unicode="&#x439;" horiz-adv-x="1536" d="M913 1599l263 -14q0 -91 -33 -160.5t-92 -111t-134 -62.5t-165 -22q-89 -1 -164 20t-134 63t-92.5 112t-33.5 161l262 14v-176q64 -34 162 -34q100 0 161 34v176zM1290 881v-666l164 -51v-164h-594v164l123 51v389l-430 -328v-61l123 -51v-164h-594v164l164 51v666 l-164 51v164l594 10v-174l-123 -51v-387l430 325v62l-123 51v164l594 10v-174z" />
<glyph unicode="&#x43a;" horiz-adv-x="1316" d="M532 653h136l139 250l-90 29v164l528 10v-174l-143 -27l-187 -311l226 -381l155 -49v-164h-372l-254 459h-138v-244l113 -51v-164h-584v164l164 51v670l-164 41v164l471 16v-453z" />
<glyph unicode="&#x43b;" horiz-adv-x="1378" d="M1163 881v-666l144 -51v-164h-615v164l164 51v645h-256q-8 -130 -17 -228t-25 -194t-37.5 -163.5t-53.5 -126t-73.5 -94t-97 -55t-124.5 -19.5q-121 0 -203 28l35 236q71 -13 129 -13q71 0 118 38t76 123t43.5 199.5t20.5 289.5l-231 51v174h1147v-174z" />
<glyph unicode="&#x43c;" horiz-adv-x="1687" d="M1452 881v-666l164 -51v-164h-543v164l123 51v557l-55 -137l-234 -410l-166 -10l-204 346l-56 148v-494l123 -51v-164h-532v164l164 51v666l-164 51v164l460 10l314 -588l311 578l459 10v-174z" />
<glyph unicode="&#x43d;" horiz-adv-x="1495" d="M1260 881v-666l163 -51v-164h-594v164l123 51v250h-409v-250l123 -51v-164h-594v164l164 51v666l-164 51v164l594 10v-174l-123 -51v-201h409v201l-123 51v164l594 10v-174z" />
<glyph unicode="&#x43e;" horiz-adv-x="1212" d="M625 1126q248 0 382 -144t134 -409q0 -275 -148 -434t-399 -159q-522 0 -522 563q0 274 150 428.5t403 154.5zM614 881q-116 0 -170.5 -74.5t-54.5 -253.5q0 -169 51.5 -248.5t163.5 -79.5q113 0 166 78.5t53 259.5q0 160 -50.5 239t-158.5 79z" />
<glyph unicode="&#x43f;" horiz-adv-x="1495" d="M1260 881v-666l163 -51v-164h-594v164l123 51v645h-389v-645l123 -51v-164h-594v164l164 51v666l-164 51v164l475 10h856v-174z" />
<glyph unicode="&#x440;" horiz-adv-x="1306" d="M41 1096l436 10l19 -115q6 5 16 14.5t43 32.5t66.5 41t82.5 32.5t95 14.5q209 0 317.5 -143.5t108.5 -398.5q0 -288 -137 -446t-402 -158q-86 0 -174 20v-260l195 -47v-164h-662v164l160 47v1141l-164 51v164zM512 768v-522q73 -31 160 -31q127 0 181 83.5t54 248.5 q0 163 -48.5 248.5t-156.5 85.5q-37 0 -70.5 -11.5t-54.5 -28t-36.5 -33.5t-22.5 -28z" />
<glyph unicode="&#x441;" horiz-adv-x="1075" d="M942 334l102 -180q-28 -24 -60.5 -47t-90 -55.5t-133.5 -52t-156 -19.5q-252 0 -392 147.5t-140 409.5q0 275 148 432t415 157q78 0 167.5 -18t139.5 -36l51 -17l-10 -336h-184l-29 145q-59 17 -141 17q-113 0 -176.5 -76.5t-63.5 -226.5q0 -169 65 -261t191 -92 q41 0 78 6.5t72.5 22t54 25t53 31t39.5 24.5z" />
<glyph unicode="&#x442;" horiz-adv-x="1118" d="M713 860v-645l205 -51v-164h-717v164l205 51v645h-140l-41 -246h-194l-11 492h1078l-11 -492h-194l-41 246h-139z" />
<glyph unicode="&#x443;" d="M10 932v164l547 10v-174l-115 -21l183 -573l174 567l-119 27v164l551 10v-174l-127 -27l-301 -839q-24 -66 -44.5 -116.5t-51.5 -111.5t-62 -105.5t-73.5 -89t-89.5 -72.5t-107.5 -45.5t-128.5 -17.5q-31 0 -81 4t-84 8l-34 5l29 219h133q47 0 88.5 20t68 45t53.5 66.5 t37.5 63.5t26.5 59l-364 901z" />
<glyph unicode="&#x444;" horiz-adv-x="1519" d="M883 1587v-450q290 -22 437.5 -162t147.5 -391q0 -250 -150.5 -399.5t-434.5 -178.5v-262l164 -51v-164h-576v164l164 51v260q-584 43 -584 549q0 245 151.5 397t432.5 183v233l-164 41v164zM883 930v-717q149 24 218.5 113.5t69.5 246.5q0 163 -67.5 249.5t-220.5 107.5 zM635 213v713q-287 -53 -287 -363q0 -162 68 -246t219 -104z" />
<glyph unicode="&#x445;" horiz-adv-x="1191" d="M1161 932l-127 -27l-235 -352l231 -348l152 -41v-164h-557v164l63 22l-108 181l-222 -367h-348v164l154 41l225 338l-248 362l-110 27v164l530 10v-174l-61 -12l106 -181l213 357l342 10v-174z" />
<glyph unicode="&#x446;" horiz-adv-x="1484" d="M1444 164l-21 -522h-194l-43 358h-1114v164l164 51v666l-164 51v164l594 10v-174l-123 -51v-635h389v635l-123 51v164l594 10v-174l-164 -51v-666z" />
<glyph unicode="&#x447;" horiz-adv-x="1341" d="M1106 881v-666l164 -51v-164h-656v164l185 51v191q-127 -58 -267 -58q-198 0 -298.5 103.5t-100.5 304.5v127l-153 49v164l563 10v-174l-103 -49v-103q0 -118 46.5 -167.5t142.5 -49.5q91 0 170 23v295l-103 51v164l574 10v-174z" />
<glyph unicode="&#x448;" horiz-adv-x="2048" d="M1812 881v-666l164 -51v-164h-1904v164l164 51v676l-164 51v164h583v-164l-112 -51v-645h327v635l-112 51v164l532 10v-174l-112 -51v-635h327v635l-112 51v164l583 10v-164z" />
<glyph unicode="&#x449;" horiz-adv-x="2058" d="M2017 164l-20 -522h-195l-43 358h-1687v164l164 51v666l-164 51v164l583 10v-174l-112 -51v-635h327v635l-112 51v164l532 10v-174l-112 -51v-635h327v635l-112 51v164l583 10v-174l-164 -51v-666z" />
<glyph unicode="&#x44a;" horiz-adv-x="1316" d="M723 731h57q118 0 207 -20t143.5 -53.5t87.5 -83t45.5 -101t12.5 -115.5q0 -170 -134 -264t-382 -94h-549v164l205 51v645h-140l-40 -246h-195l-10 492h876v-174l-184 -51v-150zM723 225h63q172 0 172 123q0 90 -41.5 124t-136.5 34h-57v-281z" />
<glyph unicode="&#x44b;" horiz-adv-x="1808" d="M543 731h57q118 0 207 -20t143.5 -53.5t87.5 -83t45.5 -101t12.5 -115.5q0 -170 -134 -264t-382 -94h-508v164l164 51v666l-164 51v164l655 10v-174l-184 -51v-150zM1614 881v-666l123 -51v-164h-594v164l164 51v666l-164 51v164l594 10v-174zM543 225h63q172 0 172 123 q0 90 -41.5 124t-136.5 34h-57v-281z" />
<glyph unicode="&#x44c;" horiz-adv-x="1136" d="M543 731h57q118 0 207 -20t143.5 -53.5t87.5 -83t45.5 -101t12.5 -115.5q0 -170 -134 -264t-382 -94h-508v164l164 51v666l-164 51v164l655 10v-174l-184 -51v-150zM543 225h63q172 0 172 123q0 90 -41.5 124t-136.5 34h-57v-281z" />
<glyph unicode="&#x44d;" horiz-adv-x="1097" d="M115 729l-11 313q22 9 59 23t137 37.5t183 23.5q257 0 400 -143.5t143 -413.5q0 -265 -141 -425t-391 -164q-229 -4 -443 161l105 189q179 -105 317 -105q94 0 152 55.5t75 161.5h-370l10 205h360q-21 111 -81.5 172.5t-159.5 61.5q-32 0 -64.5 -4.5t-49.5 -8.5l-17 -4 l-29 -135h-184z" />
<glyph unicode="&#x44e;" horiz-adv-x="1847" d="M543 686h176q38 210 180.5 325t360.5 115q248 0 382 -144t134 -409q0 -275 -148 -434t-399 -159q-481 0 -520 481h-166v-246l123 -51v-164h-594v164l164 51v666l-164 51v164l594 10v-174l-123 -51v-195zM1239 225q120 0 174.5 78t54.5 260q0 161 -51.5 239.5t-167.5 78.5 q-123 0 -179 -74t-56 -254q0 -170 53 -249t172 -79z" />
<glyph unicode="&#x44f;" horiz-adv-x="1251" d="M1026 881v-666l154 -51v-164h-574v164l113 51v205h-62q-25 0 -46 -6t-39.5 -21.5t-32 -29t-30.5 -42.5t-27 -47t-29 -57l-109 -217h-354v164l114 41l82 112q89 122 217 127q-138 37 -218.5 122t-80.5 212q0 328 510 328h566v-174zM719 604v266h-131q-176 0 -176 -122 q0 -73 50 -108.5t132 -35.5h125z" />
<glyph unicode="&#x450;" horiz-adv-x="1155" d="M397 1739l457 -365l-100 -149l-496 301zM1071 485h-680q9 -122 75.5 -191t172.5 -69q76 0 162 24.5t134 48.5l48 24l88 -170q-8 -7 -23.5 -18.5t-65 -41t-101 -52.5t-128 -41.5t-149.5 -18.5q-261 0 -396.5 144t-135.5 408q0 271 145.5 432.5t400.5 161.5 q225 0 345 -128.5t120 -352.5q0 -35 -3 -73t-6 -62t-3 -25zM395 676h371q0 93 -41.5 149t-126.5 56q-84 0 -137.5 -56t-65.5 -149z" />
<glyph unicode="&#x451;" horiz-adv-x="1155" d="M1071 485h-680q9 -122 75.5 -191t172.5 -69q76 0 162 24.5t134 48.5l48 24l88 -170q-8 -7 -23.5 -18.5t-65 -41t-101 -52.5t-128 -41.5t-149.5 -18.5q-261 0 -396.5 144t-135.5 408q0 271 145.5 432.5t400.5 161.5q225 0 345 -128.5t120 -352.5q0 -35 -3 -73t-6 -62 t-3 -25zM395 676h371q0 93 -41.5 149t-126.5 56q-84 0 -137.5 -56t-65.5 -149zM184 1458q0 72 44.5 116t107.5 44q71 0 109 -42t38 -118q0 -74 -44 -117t-107 -43q-72 0 -110 41.5t-38 118.5zM631 1458q0 72 45 116t106 44q72 0 110 -42t38 -118q0 -73 -44.5 -116.5 t-107.5 -43.5q-72 0 -109.5 41.5t-37.5 118.5z" />
<glyph unicode="&#x452;" horiz-adv-x="1290" d="M522 1137v-201q51 32 86.5 51.5t106 43.5t131.5 24q81 0 140.5 -26t106.5 -89t71 -178.5t24 -284.5q0 -202 -7.5 -343.5t-27.5 -252.5t-50 -177.5t-80 -109.5t-112.5 -59t-152.5 -16q-36 0 -84.5 7.5t-79.5 15.5l-31 7l25 191l125 -6q40 -2 65 10.5t47 53t33 121 t17 208.5t6 322q0 113 -9.5 184t-31 107.5t-47.5 48.5t-68 12q-45 0 -96 -20.5t-79 -40.5l-28 -21v-504l109 -51v-164h-580v164l164 51v922h-164v153h164v82l-164 41v164l471 10v-297h389v-153h-389z" />
<glyph unicode="&#x453;" horiz-adv-x="1085" d="M770 1739l-457 -365l101 -149l495 301zM829 860l41 -246h195l10 492h-532l-471 -10v-164l164 -51v-666l-164 -51v-164h676v164l-205 51v645h286z" />
<glyph unicode="&#x454;" horiz-adv-x="1095" d="M942 334l102 -180q-28 -24 -60.5 -47t-90 -55.5t-133.5 -52t-156 -19.5q-252 0 -392 147.5t-140 409.5q0 275 148 432t415 157q78 0 167.5 -18t139.5 -36l51 -17l-10 -326h-184l-29 135q-59 17 -141 17q-99 0 -161 -59t-75 -175h371l-8 -205h-355q24 -105 85.5 -161 t158.5 -56q41 0 78 6.5t72.5 22t54 25t53 31t39.5 24.5z" />
<glyph unicode="&#x455;" horiz-adv-x="997" d="M262 358l17 -133q72 -20 172 -20q167 0 167 100q0 34 -30 59.5t-78.5 44t-106.5 37t-116 45t-106.5 61.5t-78.5 92.5t-30 131.5q0 92 35 162t95.5 109.5t133.5 59t158 19.5q82 0 177 -15t149 -31l54 -15l-8 -307h-174l-30 123q-60 20 -142 20q-67 0 -104 -27t-37 -77 q0 -33 30 -58t78.5 -42t107 -34.5t116.5 -42t106.5 -57.5t78.5 -88t30 -127q0 -174 -128 -271t-343 -97q-87 0 -181 11t-145 23l-51 11v333h184z" />
<glyph unicode="&#x456;" horiz-adv-x="747" d="M199 1444q0 84 51.5 134t124.5 50q172 0 172 -184q0 -86 -52 -136.5t-120 -50.5q-84 0 -130 48.5t-46 138.5zM543 215l143 -51v-164h-614v164l164 51v666l-164 51v164l471 10v-891z" />
<glyph unicode="&#x457;" horiz-adv-x="735" d="M0 1430q0 72 44.5 115.5t107.5 43.5q71 0 109 -41.5t38 -117.5q0 -73 -44.5 -116.5t-107.5 -43.5q-72 0 -109.5 41.5t-37.5 118.5zM426 1430q0 72 45 115.5t107 43.5q72 0 109.5 -41.5t37.5 -117.5q0 -73 -44.5 -116.5t-107.5 -43.5q-72 0 -109.5 41.5t-37.5 118.5z M539 215l143 -51v-164h-608v164l164 51v670l-164 41v164l465 16v-891z" />
<glyph unicode="&#x458;" horiz-adv-x="690" d="M199 1444q0 82 50.5 133t125.5 51q172 0 172 -184q0 -83 -50.5 -135t-121.5 -52q-84 0 -130 48.5t-46 138.5zM543 1106v-1079q0 -137 -22 -232.5t-73.5 -164t-139 -100.5t-216.5 -32q-29 0 -68 4t-63 8l-24 3l24 200h107q90 0 129 50.5t39 152.5v965l-164 51v164z" />
<glyph unicode="&#x459;" horiz-adv-x="1828" d="M1194 731h88q118 0 207 -20t143.5 -53.5t87.5 -83t45.5 -101t12.5 -115.5q0 -170 -134 -264t-382 -94h-549v164l174 51v645h-287q-8 -130 -17 -228t-25 -194t-37.5 -163.5t-53.5 -126t-73.5 -94t-97 -55t-124.5 -19.5q-121 0 -203 28l35 236q71 -13 129 -13q71 0 118 38 t76 123t43.5 199.5t20.5 289.5l-231 51v174h1218v-174l-184 -51v-150zM1194 225h94q172 0 172 123q0 90 -41.5 124t-136.5 34h-88v-281z" />
<glyph unicode="&#x45a;" horiz-adv-x="1867" d="M1249 707h88q115 0 202.5 -20t141 -52.5t87.5 -79t46.5 -94t12.5 -103.5q0 -169 -133 -263.5t-377 -94.5h-498v164l123 51v266h-399v-266l123 -51v-164h-594v164l164 51v666l-164 51v164l594 10v-174l-123 -51v-174h399v174l-123 51v164l594 10v-174l-164 -51v-174z M1249 225h94q166 0 166 123q0 72 -41 102.5t-131 30.5h-88v-256z" />
<glyph unicode="&#x45b;" horiz-adv-x="1382" d="M1331 164v-164h-557v164l107 49v424q0 164 -136 164q-51 0 -107 -27.5t-86 -54.5l-30 -27v-477l109 -51v-164h-580v164l164 51v922h-164v153h164v82l-164 41v164l471 10v-297h389v-153h-389v-222q63 53 153.5 96.5t190.5 43.5q155 0 238.5 -97.5t83.5 -271.5v-471z" />
<glyph unicode="&#x45c;" horiz-adv-x="1316" d="M834 1739l-457 -365l100 -149l496 301zM532 653h136l139 250l-90 29v164l528 10v-174l-143 -27l-187 -311l226 -381l155 -49v-164h-372l-254 459h-138v-244l113 -51v-164h-584v164l164 51v670l-164 41v164l471 16v-453z" />
<glyph unicode="&#x45d;" horiz-adv-x="1536" d="M852 1225l-496 301l140 213l456 -365zM1290 881v-666l164 -51v-164h-594v164l123 51v389l-430 -328v-61l123 -51v-164h-594v164l164 51v666l-164 51v164l594 10v-174l-123 -51v-387l430 325v62l-123 51v164l594 10v-174z" />
<glyph unicode="&#x45e;" d="M461 1599v-176q64 -34 162 -34q100 0 161 34v176l263 -14q0 -91 -33 -160.5t-92 -111t-134 -62.5t-165 -22q-89 -1 -164 20t-134 63t-92.5 112t-33.5 161zM10 932v164l547 10v-174l-115 -21l183 -573l174 567l-119 27v164l551 10v-174l-127 -27l-301 -839 q-24 -66 -44.5 -116.5t-51.5 -111.5t-62 -105.5t-73.5 -89t-89.5 -72.5t-107.5 -45.5t-128.5 -17.5q-31 0 -81 4t-84 8l-34 5l29 219h133q47 0 88.5 20t68 45t53.5 66.5t37.5 63.5t26.5 59l-364 901z" />
<glyph unicode="&#x45f;" horiz-adv-x="1474" d="M1239 881v-666l164 -51v-164h-531l-36 -358h-195l-41 358h-528v164l164 51v666l-164 51v164l594 10v-174l-123 -51v-635h389v635l-123 51v164l594 10v-174z" />
<glyph unicode="&#x490;" horiz-adv-x="1163" d="M1153 1843l-10 -399v-246h-600v-962l215 -62v-174h-686v174l153 62v962l-153 62v174l471 10h299l116 399h195z" />
<glyph unicode="&#x491;" horiz-adv-x="1085" d="M543 215l205 -51v-164h-676v164l164 51v666l-164 51v164l471 10h286l41 287h195l10 -533h-532v-645z" />
<glyph unicode="&#x4b0;" horiz-adv-x="1366" d="M1352 1444v-184l-142 -56l-336 -635h273v-215h-307v-118l153 -62v-174h-624v174l153 62v118h-307v215h270l-338 635l-133 56v174l580 10v-184l-105 -43l205 -441l217 438l-112 46v174z" />
<glyph unicode="&#x4b1;" horiz-adv-x="1226" d="M1217 1106v-174l-127 -27l-285 -721h256v-184h-307v-256l204 -51v-164h-716v164l204 51v256h-307v184h256l-276 715l-109 33v164l537 10v-174l-125 -21l196 -620l191 614l-129 27v164z" />
<glyph unicode="&#x1e80;" horiz-adv-x="2119" d="M907 1958l441 -289l-95 -164l-465 230zM10 1260v174l608 10v-184l-149 -62l176 -737l287 966l276 17l275 -981l196 735l-153 62v174l583 10v-184l-147 -62l-350 -1198h-291l-268 973l-49 -195l-236 -778h-283l-331 1200z" />
<glyph unicode="&#x1e81;" horiz-adv-x="1794" d="M721 1739l457 -365l-101 -149l-495 301zM1384 901l-124 31v164l524 10v-174l-109 -25l-272 -907h-313l-162 522l-37 160l-51 -223l-150 -459h-311l-279 903l-90 29v164l537 10v-174l-129 -25l135 -575l217 739l270 45l224 -784z" />
<glyph unicode="&#x1e82;" horiz-adv-x="2119" d="M872 1505l-94 164l441 289l118 -223zM10 1260v174l608 10v-184l-149 -62l176 -737l287 966l276 17l275 -981l196 735l-153 62v174l583 10v-184l-147 -62l-350 -1198h-291l-268 973l-49 -195l-236 -778h-283l-331 1200z" />
<glyph unicode="&#x1e83;" horiz-adv-x="1794" d="M1231 1530l-139 213l-457 -365l100 -149zM1384 901l-124 31v164l524 10v-174l-109 -25l-272 -907h-313l-162 522l-37 160l-51 -223l-150 -459h-311l-279 903l-90 29v164l537 10v-174l-129 -25l135 -575l217 739l270 45l224 -784z" />
<glyph unicode="&#x1e84;" horiz-adv-x="2119" d="M727 1735q0 72 44.5 115.5t107.5 43.5q71 0 109 -41.5t38 -117.5q0 -73 -44.5 -116.5t-107.5 -43.5q-72 0 -109.5 41.5t-37.5 118.5zM1174 1735q0 72 44.5 115.5t106.5 43.5q73 0 110.5 -41.5t37.5 -117.5q0 -73 -44.5 -116.5t-107.5 -43.5q-72 0 -109.5 41.5 t-37.5 118.5zM10 1260v174l608 10v-184l-149 -62l176 -737l287 966l276 17l275 -981l196 735l-153 62v174l583 10v-184l-147 -62l-350 -1198h-291l-268 973l-49 -195l-236 -778h-283l-331 1200z" />
<glyph unicode="&#x1e85;" horiz-adv-x="1794" d="M547 1430q0 72 44 115.5t107 43.5q71 0 109.5 -41.5t38.5 -117.5q0 -73 -44.5 -116.5t-107.5 -43.5q-72 0 -109.5 41.5t-37.5 118.5zM993 1430q0 72 45 115.5t107 43.5q72 0 109.5 -41.5t37.5 -117.5q0 -74 -44 -117t-107 -43q-72 0 -110 41.5t-38 118.5zM1384 901 l-124 31v164l524 10v-174l-109 -25l-272 -907h-313l-162 522l-37 160l-51 -223l-150 -459h-311l-279 903l-90 29v164l537 10v-174l-129 -25l135 -575l217 739l270 45l224 -784z" />
<glyph unicode="&#x1ef2;" horiz-adv-x="1366" d="M516 1958l440 -289l-94 -164l-465 230zM369 0v174l153 62v264l-375 704l-133 56v174l580 10v-184l-105 -43l205 -441l217 438l-112 46v174l553 10v-184l-142 -56l-370 -702v-266l153 -62v-174h-624z" />
<glyph unicode="&#x1ef3;" d="M383 1739l457 -365l-101 -149l-495 301zM10 932v164l547 10v-174l-115 -21l183 -573l174 567l-119 27v164l551 10v-174l-127 -27l-301 -839q-24 -66 -44.5 -116.5t-51.5 -111.5t-62 -105.5t-73.5 -89t-89.5 -72.5t-107.5 -45.5t-128.5 -17.5q-31 0 -81 4t-84 8l-34 5 l29 219h133q47 0 88.5 20t68 45t53.5 66.5t37.5 63.5t26.5 59l-364 901z" />
<glyph unicode="&#x2000;" horiz-adv-x="1151" />
<glyph unicode="&#x2001;" horiz-adv-x="2302" />
<glyph unicode="&#x2002;" horiz-adv-x="1151" />
<glyph unicode="&#x2003;" horiz-adv-x="2302" />
<glyph unicode="&#x2004;" horiz-adv-x="767" />
<glyph unicode="&#x2005;" horiz-adv-x="575" />
<glyph unicode="&#x2006;" horiz-adv-x="383" />
<glyph unicode="&#x2007;" horiz-adv-x="383" />
<glyph unicode="&#x2008;" horiz-adv-x="287" />
<glyph unicode="&#x2009;" horiz-adv-x="460" />
<glyph unicode="&#x200a;" horiz-adv-x="127" />
<glyph unicode="&#x2010;" horiz-adv-x="808" d="M696 686v-256h-583v256h583z" />
<glyph unicode="&#x2011;" horiz-adv-x="808" d="M696 686v-256h-583v256h583z" />
<glyph unicode="&#x2012;" horiz-adv-x="808" d="M696 686v-256h-583v256h583z" />
<glyph unicode="&#x2013;" horiz-adv-x="1024" d="M1024 788v-241h-1024v241h1024z" />
<glyph unicode="&#x2014;" horiz-adv-x="1986" d="M1987 788v-241h-1987v241h1987z" />
<glyph unicode="&#x2015;" horiz-adv-x="1986" d="M1987 788v-241h-1987v241h1987z" />
<glyph unicode="&#x2017;" horiz-adv-x="1015" d="M1020 -164v-205h-1024v205h1024zM1020 -543v-205h-1024v205h1024z" />
<glyph unicode="&#x2018;" horiz-adv-x="636" d="M406 1612l129 -105q-14 -18 -34.5 -47.5t-54.5 -96t-34 -103.5q0 -22 15 -49t29.5 -62.5t14.5 -77.5q0 -82 -50 -132t-126 -50q-79 0 -125.5 49t-46.5 141q0 228 283 533z" />
<glyph unicode="&#x2019;" horiz-adv-x="636" d="M233 889l-131 106q14 18 34.5 47.5t54.5 96t34 102.5q0 24 -29.5 80t-29.5 109q0 82 50 132t128 50t124 -49t46 -140q0 -228 -281 -534z" />
<glyph unicode="&#x201a;" horiz-adv-x="636" d="M227 -430l-131 106q14 18 34.5 47.5t54.5 96t34 102.5q0 24 -29.5 80t-29.5 109q0 82 50 132t128 50t124 -49t46 -140q0 -228 -281 -534z" />
<glyph unicode="&#x201b;" horiz-adv-x="636" d="M535 993l-129 -104q-283 305 -283 532q0 92 47 141.5t125 49.5q76 0 126 -50t50 -132q0 -42 -14.5 -77.5t-29.5 -62.5t-15 -49q0 -37 31 -99t61 -106z" />
<glyph unicode="&#x201c;" horiz-adv-x="1114" d="M406 1612l129 -105q-14 -18 -34.5 -47.5t-54.5 -96t-34 -103.5q0 -22 15 -49t29.5 -62.5t14.5 -77.5q0 -82 -50 -132t-126 -50q-79 0 -125.5 49t-46.5 141q0 228 283 533zM881 1612l131 -105q-14 -18 -34.5 -47.5t-54.5 -96t-34 -103.5q0 -22 14.5 -49t29.5 -62.5 t15 -77.5q0 -82 -50 -132t-128 -50t-124 49t-46 141q0 227 281 533z" />
<glyph unicode="&#x201d;" horiz-adv-x="1114" d="M233 889l-131 106q14 18 34.5 47.5t54.5 96t34 102.5q0 24 -29.5 80t-29.5 109q0 82 50 132t128 50t124 -49t46 -140q0 -228 -281 -534zM709 889l-129 106q14 18 34 47.5t54 96t34 102.5q0 24 -29.5 80t-29.5 109q0 82 50 132t126 50q78 0 125 -49.5t47 -139.5 q0 -230 -282 -534z" />
<glyph unicode="&#x201e;" horiz-adv-x="1112" d="M227 -430l-131 106q14 18 34.5 47.5t54.5 96t34 102.5q0 24 -29.5 80t-29.5 109q0 82 50 132t128 50t124 -49t46 -140q0 -228 -281 -534zM702 -430l-129 106q14 18 34.5 47.5t54.5 96t34 102.5q0 24 -29.5 80t-29.5 109q0 82 50 132t126 50q78 0 125 -49.5t47 -139.5 q0 -229 -283 -534z" />
<glyph unicode="&#x2020;" horiz-adv-x="1054" d="M410 1249l-11 291l256 16l-14 -307h342v-194l-457 -70l-454 70v194h338zM526 872l162 35l-33 -803l-129 -104l-127 104l-32 803z" />
<glyph unicode="&#x2021;" horiz-adv-x="1054" d="M410 1249l-11 291l256 16l-14 -307h342v-194l-457 -70l-454 70v194h338zM526 883l361 59v-203l-361 -86l-360 86v203zM526 553l148 33l-19 -482l-129 -104l-127 104l-18 482z" />
<glyph unicode="&#x2022;" horiz-adv-x="1112" d="M164 645q0 160 113.5 273.5t273.5 113.5t273.5 -113.5t113.5 -273.5t-113.5 -273.5t-273.5 -113.5t-273.5 113.5t-113.5 273.5z" />
<glyph unicode="&#x2026;" horiz-adv-x="1597" d="M106 160q0 84 53 134t126 50q84 0 127 -47.5t43 -136.5q0 -86 -51.5 -136.5t-124.5 -50.5q-84 0 -128.5 48.5t-44.5 138.5zM625 160q0 84 51.5 134t124.5 50q84 0 128 -48t44 -136q0 -86 -51.5 -136.5t-124.5 -50.5q-84 0 -128 48.5t-44 138.5zM1141 160q0 84 52.5 134 t125.5 50q84 0 127 -47.5t43 -136.5q0 -86 -51.5 -136.5t-124.5 -50.5q-84 0 -128 48.5t-44 138.5z" />
<glyph unicode="&#x202f;" horiz-adv-x="460" />
<glyph unicode="&#x2030;" horiz-adv-x="2689" d="M113 1083q0 178 104 281.5t264 103.5q156 0 251 -93.5t95 -268.5q0 -177 -104.5 -283t-265.5 -106q-157 0 -250.5 91t-93.5 275zM348 1092q0 -97 27 -147t92 -50q67 0 96 50.5t29 152.5q0 96 -27.5 145t-93.5 49t-94.5 -51t-28.5 -149zM1063 338q0 178 104.5 281.5 t264.5 103.5q156 0 251 -94t95 -269q0 -177 -105 -283t-266 -106q-157 0 -250.5 91.5t-93.5 275.5zM1298 346q0 -97 27 -146.5t92 -49.5q67 0 96 50t29 152q0 96 -27.5 145.5t-93.5 49.5t-94.5 -51.5t-28.5 -149.5zM1862 338q0 178 104 281.5t264 103.5q156 0 251 -94 t95 -269q0 -177 -104.5 -283t-265.5 -106q-157 0 -250.5 91.5t-93.5 275.5zM2097 346q0 -97 27 -146.5t92 -49.5q67 0 96 50t29 152q0 96 -27.5 145.5t-93.5 49.5t-94.5 -51.5t-28.5 -149.5zM1520 1458l-856 -1474h-297l856 1474h297z" />
<glyph unicode="&#x2032;" horiz-adv-x="530" d="M102 1036l52 576l274 -23l-94 -571z" />
<glyph unicode="&#x2033;" horiz-adv-x="950" d="M102 1036l52 576l274 -23l-94 -571zM522 1036l51 576l275 -23l-94 -571z" />
<glyph unicode="&#x2039;" horiz-adv-x="694" d="M422 100l-320 363v158l320 362l170 -113l-232 -327l232 -328z" />
<glyph unicode="&#x203a;" horiz-adv-x="694" d="M113 870l170 113l319 -362v-158l-319 -363l-170 115l231 328z" />
<glyph unicode="&#x203c;" horiz-adv-x="1259" d="M223 524l-37 1043h320l-37 -1032zM786 524l-36 1043h319l-37 -1032zM174 160q0 84 51.5 134t124.5 50q84 0 128 -48t44 -136q0 -85 -52.5 -136t-125.5 -51q-84 0 -127 48.5t-43 138.5zM737 160q0 84 51.5 134t124.5 50q84 0 128 -48t44 -136q0 -85 -52.5 -136t-125.5 -51 q-84 0 -127 48.5t-43 138.5z" />
<glyph unicode="&#x203e;" horiz-adv-x="1183" d="M958 1456v-194h-962v194h962z" />
<glyph unicode="&#x2044;" horiz-adv-x="1257" d="M1073 1581l205 -137l-1104 -1596l-205 138z" />
<glyph unicode="&#x205f;" horiz-adv-x="575" />
<glyph unicode="&#x2074;" horiz-adv-x="886" d="M432 1454l295 -35v-497h119v-191h-119v-158h-260v158h-408l-28 172zM467 922v270l-199 -270h199z" />
<glyph unicode="&#x207f;" horiz-adv-x="1114" d="M389 1452l10 -102q6 5 16 12.5t41 26.5t61.5 34t72 27t78.5 12q231 0 231 -260v-377l102 -34v-129h-401v131l72 32v344q0 51 -28 84t-73 33q-37 0 -76 -23.5t-59 -46.5l-20 -24v-367l71 -32v-131h-405v129l102 34v457l-102 29v129z" />
<glyph unicode="&#x20a3;" horiz-adv-x="1228" d="M563 1198v-338h414v-225h-414v-105h262v-194h-262v-100l189 -62v-174h-660v174l154 62v100h-154v194h154v668l-154 62v174l471 10h574v-389h-191l-51 143h-332z" />
<glyph unicode="&#x20a4;" horiz-adv-x="1280" d="M893 766h-770v184h170q-2 31 -2 94q0 200 107 312t329 112q116 0 224.5 -18t158.5 -36l51 -17v-334h-184l-41 154q-76 12 -174 12q-168 0 -168 -180v-39l2 -60h297v-184zM1167 451v-451h-1044v174l102 39q59 22 78 66.5t19 144.5v29h-199v184h770v-184h-268 q0 -58 -16.5 -106.5t-31 -68t-28.5 -32.5h381l47 205h190z" />
<glyph unicode="&#x20a7;" horiz-adv-x="1482" d="M1380 889h-145q-35 -193 -181 -290t-392 -97h-109v-266l154 -62v-174h-625v174l154 62v653h-154v184h154v125l-154 62v174l471 10h195q215 0 344.5 -98.5t148.5 -272.5h139v-184zM553 1073h358q-46 125 -194 125h-164v-125zM553 741h109q205 0 253 148h-362v-148z" />
<glyph unicode="&#x20ac;" horiz-adv-x="1304" d="M1001 1044l-32 144q-78 31 -191 31q-46 0 -84 -15t-63 -38.5t-44.5 -52.5t-30.5 -57.5t-17.5 -52t-8.5 -38.5l-2 -15h408v-184h-881v184h148q15 81 42 152.5t74.5 140t110.5 117.5t155 78.5t203 29.5q96 0 199.5 -21.5t158.5 -42.5l56 -22l-10 -338h-191zM936 637v-184 h-393q61 -215 260 -215q49 0 100.5 12t90.5 29t70.5 34t48.5 29l17 12l113 -180q-8 -8 -22.5 -21.5t-63.5 -48t-102 -60.5t-134 -47.5t-163 -21.5q-83 0 -154.5 17.5t-123.5 45.5t-95 68.5t-71.5 82t-50.5 90.5t-34 89.5t-20 84.5h-154v184h881z" />
<glyph unicode="&#x2105;" horiz-adv-x="2185" d="M1702 877q184 0 292.5 -113.5t108.5 -325.5q0 -208 -119 -328t-307 -120q-187 0 -295 106.5t-108 323.5t120.5 337t307.5 120zM1692 678q-162 0 -162 -252q0 -119 41.5 -178.5t116.5 -59.5q159 0 159 244q0 246 -155 246zM748 850l92 -139q-28 -25 -50.5 -41.5 t-69.5 -44.5t-105.5 -43t-122.5 -15q-186 0 -298 116t-112 314q0 217 113.5 337t326.5 120q62 0 134.5 -15t114.5 -29l42 -15l-8 -273h-156l-24 123q-58 15 -119 15q-91 0 -133.5 -60t-42.5 -184q0 -248 196 -248q57 0 118 24.5t104 57.5zM1618 1444l-836 -1444h-297 l836 1444h297z" />
<glyph unicode="&#x2113;" horiz-adv-x="1073" d="M131 348l-111 174q144 95 244 185v378q0 523 422 523q137 0 226 -94.5t89 -233.5q0 -191 -115.5 -361.5t-303.5 -312.5v-119q0 -278 184 -278q36 0 73.5 3t56.5 6l19 3l25 -201q-139 -47 -256 -47q-199 0 -309.5 112t-110.5 312v35q-63 -44 -133 -84zM582 1120v-178 q70 96 101.5 177t31.5 165q0 47 -14.5 67.5t-47.5 20.5q-17 0 -30 -9.5t-20.5 -32t-12 -41t-6 -55t-2 -55.5t-0.5 -59z" />
<glyph unicode="&#x2116;" horiz-adv-x="2551" d="M2040 1468q182 0 285.5 -104t103.5 -291q0 -189 -115.5 -308.5t-298.5 -119.5q-184 0 -288.5 101t-104.5 298q0 193 117.5 308.5t300.5 115.5zM2030 1280q-152 0 -152 -227q0 -219 147 -219q148 0 148 231q0 215 -143 215zM72 0v174l153 62v962l-153 62v174l491 10 l553 -946v700l-149 62v174l583 10v-184l-153 -62v-1198h-342l-549 928v-692l160 -62v-174h-594zM2413 481v-205h-775v205h775z" />
<glyph unicode="&#x2122;" horiz-adv-x="1886" d="M305 784v525h-115l-26 -144h-113v279h717v-279h-113l-34 144h-115v-525l102 -30v-99h-405v99zM834 655v99l102 30v516l-102 29v109l311 6l182 -361l184 355l299 6v-111l-100 -33v-516l100 -30v-99h-364v99l92 30v385l-162 -297l-121 -14l-161 299v-373l92 -30v-99h-352z " />
<glyph unicode="&#x2126;" horiz-adv-x="1550" d="M1458 266v-266h-565v195q37 26 69 67t61.5 106t46.5 163.5t17 220.5q0 236 -76 348t-231 112q-159 0 -238 -110t-79 -361q0 -119 14.5 -211.5t42 -155t59 -103t74.5 -74.5l4 -2v-195h-565v246h215q-20 15 -49 54t-62.5 100t-57 150t-23.5 181q0 339 182 538t494 199 q305 0 475 -188.5t170 -517.5q0 -91 -22.5 -180t-56.5 -152.5t-66 -107.5t-58 -64h-4z" />
<glyph unicode="&#x212e;" horiz-adv-x="1361" d="M350 737v-403q64 -61 152 -94t184 -33q131 0 256 47.5t203 126.5l53 -53q-87 -92 -229.5 -148.5t-282.5 -56.5q-263 0 -423.5 158.5t-160.5 425.5q0 166 80 305t219.5 219t305.5 80q162 0 293 -74.5t205.5 -206t74.5 -293.5h-930zM1034 809v287q-143 133 -327 133 q-205 0 -357 -152v-268h684z" />
<glyph unicode="&#x215b;" horiz-adv-x="2281" d="M2130 649q0 -40 -11.5 -72t-26.5 -51.5t-38.5 -35.5t-40 -23t-37.5 -14q86 -34 134.5 -81.5t48.5 -125.5q0 -123 -109 -198t-289 -75q-177 0 -282 70t-105 176q0 31 8.5 59t18.5 47t31.5 38t33 28t37.5 21.5t31 14.5t27 11q-58 28 -101 80.5t-43 124.5q0 113 100 176.5 t277 63.5q162 0 249 -65.5t87 -168.5zM1663 616q0 -26 21.5 -46.5t47 -32t68.5 -25.5q33 13 58.5 39.5t25.5 64.5q0 37 -32 59.5t-87 22.5q-51 0 -76.5 -22t-25.5 -60zM1892 252q0 39 -40 65t-111 48q-20 -7 -32.5 -13.5t-31 -19t-28 -31t-9.5 -41.5q0 -47 40.5 -74.5 t93.5 -27.5t85.5 23.5t32.5 70.5zM182 573v183h197v428l-186 -113l-101 170l324 203h223v-688h164v-183h-621zM1655 1444l-836 -1444h-297l836 1444h297z" />
<glyph unicode="&#x215c;" horiz-adv-x="2240" d="M2089 649q0 -40 -11.5 -72t-26.5 -51.5t-38.5 -35.5t-40 -23t-37.5 -14q86 -34 134.5 -81.5t48.5 -125.5q0 -123 -109 -198t-289 -75q-177 0 -282 70t-105 176q0 31 8.5 59t18.5 47t31.5 38t33 28t37.5 21.5t31 14.5t27 11q-58 28 -101 80.5t-43 124.5q0 113 100 176.5 t277 63.5q162 0 249 -65.5t87 -168.5zM1622 616q0 -26 21.5 -46.5t47 -32t68.5 -25.5q33 13 58.5 39.5t25.5 64.5q0 37 -32 59.5t-87 22.5q-51 0 -76.5 -22t-25.5 -60zM1851 252q0 39 -40 65t-111 48q-20 -7 -32.5 -13.5t-31 -19t-28 -31t-9.5 -41.5q0 -47 40.5 -74.5 t93.5 -27.5t85.5 23.5t32.5 70.5zM113 1159l-9 240q179 47 320 47q166 0 254 -58t88 -167q0 -81 -45 -133.5t-121 -73.5q76 -13 132 -68t56 -131q0 -94 -55 -157t-140 -90t-194 -27q-72 0 -151.5 18.5t-122.5 37.5l-43 19l55 172q14 -6 38 -15t88 -23.5t116 -14.5 q54 0 97.5 25t43.5 71q0 93 -151 93h-109v151h113q137 0 137 103q0 37 -28 58t-83 21q-26 0 -53.5 -3.5t-41.5 -7.5l-15 -3l-10 -84h-166zM1620 1444l-836 -1444h-297l836 1444h297z" />
<glyph unicode="&#x215d;" horiz-adv-x="2240" d="M2089 649q0 -40 -11.5 -72t-26.5 -51.5t-38.5 -35.5t-40 -23t-37.5 -14q86 -34 134.5 -81.5t48.5 -125.5q0 -123 -109 -198t-289 -75q-177 0 -282 70t-105 176q0 31 8.5 59t18.5 47t31.5 38t33 28t37.5 21.5t31 14.5t27 11q-58 28 -101 80.5t-43 124.5q0 113 100 176.5 t277 63.5q162 0 249 -65.5t87 -168.5zM1622 616q0 -26 21.5 -46.5t47 -32t68.5 -25.5q33 13 58.5 39.5t25.5 64.5q0 37 -32 59.5t-87 22.5q-51 0 -76.5 -22t-25.5 -60zM1851 252q0 39 -40 65t-111 48q-20 -7 -32.5 -13.5t-31 -19t-28 -31t-9.5 -41.5q0 -47 40.5 -74.5 t93.5 -27.5t85.5 23.5t32.5 70.5zM76 608l78 176q108 -49 221 -49q63 0 107 26t44 66q0 63 -52 83t-179 20h-164l27 514h587l-4 -189h-348l-12 -151q202 0 307 -68.5t105 -195.5q0 -93 -54 -162.5t-138.5 -103t-186.5 -33.5q-87 0 -171.5 16.5t-125.5 33.5zM1620 1444 l-836 -1444h-297l836 1444h297z" />
<glyph unicode="&#x215e;" horiz-adv-x="2138" d="M1987 649q0 -40 -11.5 -72t-26.5 -51.5t-38.5 -35.5t-40 -23t-37.5 -14q85 -34 133.5 -81.5t48.5 -125.5q0 -123 -108.5 -198t-288.5 -75q-177 0 -282 70t-105 176q0 31 8.5 59t18.5 47t31 38t32.5 28t37 21.5t31.5 15t27 10.5q-57 28 -100 80.5t-43 124.5 q0 113 100 176.5t277 63.5q162 0 249 -65.5t87 -168.5zM1520 616q0 -26 21.5 -46.5t47 -32t68.5 -25.5q33 13 58.5 39.5t25.5 64.5q0 37 -32 59.5t-87 22.5q-51 0 -76.5 -22t-25.5 -60zM1749 252q0 39 -40 65t-112 48q-19 -7 -32 -13.5t-31 -19t-27.5 -31t-9.5 -41.5 q0 -47 40 -74.5t93 -27.5t86 23.5t33 70.5zM799 1294l-350 -741h-281l340 700h-244l-18 -98h-164l-10 289h727v-150zM1518 1444l-836 -1444h-297l836 1444h297z" />
<glyph unicode="&#x2190;" horiz-adv-x="1386" d="M481 528l264 -307l-167 -139l-480 506v119l475 510l166 -154l-256 -289h903v-246h-905z" />
<glyph unicode="&#x2191;" horiz-adv-x="1300" d="M516 813l-307 -264l-139 168l505 479h119l510 -475l-153 -166l-289 256v-811h-246v813z" />
<glyph unicode="&#x2192;" horiz-adv-x="1386" d="M903 774l-256 289l166 154l475 -510v-119l-479 -506l-168 139l264 307h-905v246h903z" />
<glyph unicode="&#x2193;" horiz-adv-x="1280" d="M758 356l307 265l139 -168l-506 -480h-118l-510 476l153 165l289 -256v811h246v-813z" />
<glyph unicode="&#x2194;" horiz-adv-x="1611" d="M535 145l-410 422v119l403 426l140 -139l-193 -244h672l-197 240l135 141l410 -422v-119l-403 -426l-140 140l193 243h-672l197 -239z" />
<glyph unicode="&#x2195;" horiz-adv-x="1214" d="M41 903l422 410h119l426 -404l-140 -143l-235 197v-672l231 201l142 -140l-422 -409h-119l-426 403l139 143l236 -196v672l-232 -201z" />
<glyph unicode="&#x21a8;" horiz-adv-x="1286" d="M182 903l422 410h119l426 -404l-139 -143l-236 197v-676l232 205l141 -140l-422 -409h-119l-426 403l139 143l236 -200v676l-231 -201zM1157 -174v-205h-962v205h962z" />
<glyph unicode="&#x2202;" horiz-adv-x="1286" d="M279 1348l-41 215q172 45 315 45q132 0 237.5 -39t176.5 -108.5t118 -169.5t68 -216.5t21 -255.5q0 -132 -22 -253.5t-70 -231t-118 -190t-173 -128t-228 -47.5q-231 0 -361 126.5t-130 355.5q0 234 114 367.5t326 133.5q57 0 115 -11t100 -26.5t75.5 -31t50.5 -26.5 l17 -11q4 25 4 76q0 217 -86.5 328.5t-285.5 111.5q-41 0 -96.5 -3.5t-91.5 -6.5zM856 606q-4 4 -12.5 11t-36.5 25.5t-58 32t-76.5 25t-92.5 11.5q-102 0 -151.5 -66.5t-49.5 -173.5q0 -97 52.5 -166t141.5 -69q52 0 96 20.5t72.5 53t50.5 72t33.5 79t19 72t9.5 53.5z" />
<glyph unicode="&#x2206;" horiz-adv-x="1359" d="M823 1481l516 -1276v-205h-1319v205l531 1276h272zM1030 229l-366 918l-367 -918h733z" />
<glyph unicode="&#x220f;" horiz-adv-x="1505" d="M225 1219l-159 45v159l446 21h926v-180l-164 -45v-1700h-291v1693h-467v-1693h-291v1700z" />
<glyph unicode="&#x2211;" horiz-adv-x="1257" d="M606 487l-551 748v209h1090v-395h-191l-51 163h-495l522 -696l-547 -766h549l33 174h200v-405h-1099v211z" />
<glyph unicode="&#x2212;" horiz-adv-x="1187" d="M1085 711v-240h-983v240h983z" />
<glyph unicode="&#x2215;" horiz-adv-x="1243" d="M1065 1583l199 -139l-1096 -1561l-199 140z" />
<glyph unicode="&#x2219;" horiz-adv-x="714" d="M123 645q0 89 65 154t154 65t154 -65t65 -154t-65 -154t-154 -65t-154 65t-65 154z" />
<glyph unicode="&#x221a;" horiz-adv-x="1427" d="M20 1075l373 10l242 -782l369 1274l444 10v-172l-221 -37l-445 -1378h-333l-310 872l-119 33v170z" />
<glyph unicode="&#x221e;" horiz-adv-x="1863" d="M1382 225q-64 0 -126.5 14.5t-102.5 30t-94 50.5t-73 50t-68 54q-98 -83 -144 -112q-137 -87 -303 -87q-179 0 -284 97t-105 272t110 277t289 102q138 0 240 -49.5t217 -143.5q2 1 21.5 17t27.5 23t31.5 24t38 26.5t41 25t47.5 24.5t50 20.5t55.5 17.5t58.5 10.5t63 4.5 q183 0 296.5 -93.5t113.5 -265.5q0 -176 -111 -282.5t-289 -106.5zM1356 737q-12 0 -25.5 -3t-25.5 -7.5t-27 -12t-26.5 -14t-26.5 -17t-24 -17.5t-23 -18.5t-20 -16t-18 -15.5t-14 -12q140 -133 222 -133q62 0 99.5 36t37.5 97q0 62 -34 97.5t-95 35.5zM502 461 q32 0 66.5 13.5t69 39.5t50.5 40t43 40q-1 0 -18.5 16.5t-23.5 22t-25 21t-29.5 22.5t-29 19t-32 17.5t-30 10t-31.5 4.5q-63 0 -98 -31.5t-35 -91.5q0 -64 32 -103.5t91 -39.5z" />
<glyph unicode="&#x221f;" horiz-adv-x="1220" d="M1200 266v-266h-1077v1106h307v-840h770z" />
<glyph unicode="&#x2229;" horiz-adv-x="1300" d="M829 0v860q0 191 -35 264.5t-139 73.5q-106 0 -145 -76.5t-39 -271.5v-850h-348v840q0 163 25.5 274t86.5 189.5t164 114.5t256 36q151 0 250.5 -31.5t160.5 -103.5t86.5 -179.5t25.5 -269.5v-870h-349z" />
<glyph unicode="&#x222b;" horiz-adv-x="815" d="M-31 -594l19 221q102 -10 153 -10q177 0 164 209q-19 318 -106 1395q-20 248 64.5 373.5t299.5 125.5q47 0 105 -9t92 -19l35 -9q-13 -113 -23 -223q-72 15 -133 15q-82 0 -117 -51.5t-26 -163.5q10 -124 49 -629t57 -717q48 -543 -383 -543q-59 0 -121.5 8.5t-95.5 17.5 z" />
<glyph unicode="&#x2248;" horiz-adv-x="1310" d="M242 586l-129 90q4 10 13 26.5t39.5 58.5t65.5 74t92 58.5t119 26.5q58 0 119 -22t103.5 -48t97.5 -48t104 -22q33 0 65.5 11.5t55.5 28t41.5 33.5t27.5 29l9 11l133 -90q-5 -10 -14 -27t-41 -59.5t-66.5 -75t-90 -59.5t-112.5 -27q-58 0 -121 21.5t-109.5 48t-105 48 t-108.5 21.5q-49 0 -96 -27t-70 -54zM242 186l-129 90q4 10 13 26.5t39.5 58.5t65.5 74t92 58.5t119 26.5q48 0 96 -14.5t87 -35t77.5 -40.5t81 -34.5t82.5 -14.5q33 0 65.5 11.5t55.5 28.5t41.5 33.5t27.5 27.5l9 12l133 -91q-5 -10 -14 -26.5t-41 -59.5t-66.5 -75.5 t-90 -59t-112.5 -26.5q-58 0 -121 21.5t-109.5 48t-105 48t-108.5 21.5q-31 0 -62 -11t-52.5 -27.5t-39 -32.5t-26.5 -27z" />
<glyph unicode="&#x2260;" horiz-adv-x="1310" d="M672 905l108 225h271l-109 -225h240v-235h-353l-96 -201h449v-236h-559l-113 -233h-270l112 233h-225v236h336l96 201h-432v235h545z" />
<glyph unicode="&#x2261;" horiz-adv-x="1228" d="M1126 895v-236h-1024v236h1024zM1126 506v-236h-1024v236h1024zM1126 117v-236h-1024v236h1024z" />
<glyph unicode="&#x2264;" horiz-adv-x="1191" d="M1100 276l-1008 349v245l1008 338v-252l-707 -211l707 -219v-250zM1100 193v-244h-1008v244h1008z" />
<glyph unicode="&#x2265;" horiz-adv-x="1191" d="M92 956v252l1008 -338v-245l-1008 -349v250l707 219zM92 -51v244h1008v-244h-1008z" />
<glyph unicode="&#x2302;" horiz-adv-x="1284" d="M1130 647v-647h-976v647l421 463h134zM844 248v299q-36 39 -98 109t-105 116l-201 -223v-301h404z" />
<glyph unicode="&#x2310;" horiz-adv-x="1314" d="M1192 532h-819v-368h-260v604h1079v-236z" />
<glyph unicode="&#x2320;" horiz-adv-x="817" d="M225 -629v1786q0 106 9.5 185t35 149t67.5 114t110 69.5t161 25.5q53 0 115.5 -9t98.5 -17l36 -9l-18 -221q-82 10 -133 10q-164 0 -164 -184v-1899h-318z" />
<glyph unicode="&#x2321;" horiz-adv-x="796" d="M571 1700v-1786q0 -106 -9.5 -185t-35 -149t-67.5 -114t-110 -69.5t-161 -25.5q-53 0 -115 8.5t-98 17.5l-36 9l18 221q82 -10 133 -10q164 0 164 184v1899h317z" />
<glyph unicode="&#x25ca;" horiz-adv-x="1146" d="M434 1587h266l406 -839l-399 -840h-267l-407 842zM580 205l237 526l-254 561l-239 -526z" />
<glyph unicode="&#x25fc;" horiz-adv-x="1105" d="M0 1106h1106v-1106h-1106v1106z" />
<glyph unicode="&#xf6d4;" horiz-adv-x="901" d="M287 1599v-176q64 -34 162 -34q100 0 161 34v176l262 -14q0 -91 -33 -160.5t-91.5 -111t-133.5 -62.5t-165 -22q-89 -1 -164 20t-134 63t-92.5 112t-33.5 161z" />
<glyph horiz-adv-x="559" d="M119 1958l440 -289l-94 -164l-465 230z" />
<glyph horiz-adv-x="866" d="M98 1591l-98 80q4 9 10.5 24t30.5 54t51.5 68.5t71.5 54t92 24.5q60 0 123.5 -23.5t122.5 -47t110 -23.5q22 0 45 9t39.5 21.5t30 25t20.5 21.5l7 9l112 -86q-4 -9 -12.5 -23t-36 -51t-57 -65t-76 -51t-94.5 -23q-74 0 -179.5 40t-164.5 40q-38 0 -75 -19.5t-55 -39.5z " />
<glyph horiz-adv-x="655" d="M485 1739l-456 -365l100 -149l496 301z" />
<glyph horiz-adv-x="339" d="M160 1044l-160 58q42 147 56.5 257.5t9.5 227.5l274 10q-1 -109 -47.5 -244.5t-132.5 -308.5z" />
<glyph horiz-adv-x="1150" d="M137 1391l336 313l182 16l359 -329l-99 -136l-335 246l-344 -246z" />
<glyph horiz-adv-x="655" d="M188 1739l457 -365l-100 -149l-496 301z" />
<glyph horiz-adv-x="1642" d="M893 1505l-465 230l119 223l440 -289zM1417 1202v-973l154 -51v-178h-635v178l164 51v625l-557 -551v-74l164 -55v-174h-635v178l153 51v973l-153 62v170l635 10v-180l-164 -62v-622l557 550v72l-164 62v170l635 10v-180z" />
<glyph horiz-adv-x="1228" />
<glyph horiz-adv-x="1642" d="M1008 1937l262 -14q0 -91 -33 -160.5t-92 -111t-134 -62.5t-165 -22q-89 -1 -164 20t-134 63t-92.5 112t-33.5 161l262 14v-176q65 -35 162 -35q100 0 162 35v176zM1417 1202v-973l154 -51v-178h-635v178l164 51v625l-557 -551v-74l164 -55v-174h-635v178l153 51v973 l-153 62v170l635 10v-180l-164 -62v-622l557 550v72l-164 62v170l635 10v-180z" />
<glyph horiz-adv-x="1384" d="M1194 0h-1006q-92 0 -140 48t-48 140v1006q0 94 48 142t140 48h1006q190 0 190 -190v-1006q0 -92 -48 -140t-142 -48zM545 926l-115 -68q-18 -6 -22 -6q-13 0 -13 18v279h-176v-819h176v428q0 15 12 21.5t44 6.5q102 0 102 -133v-323h176v424q0 75 -52.5 123.5 t-131.5 48.5zM799 825h59q27 0 27 -22v-314q0 -74 52.5 -124t131.5 -50l150 88v60q-38 -10 -64 -10q-49 0 -71.5 33t-22.5 104v213q0 22 22 22h138v86h-138q-22 0 -22 25v65h-51l-211 -133v-43z" />
<glyph horiz-adv-x="864" d="M428 1214l-76 82l-37 228h213l-36 -228zM391 1192l-110 -12l-226 86l103 184l194 -154zM459 1194l33 102l194 154l107 -178l-226 -94zM389 1161l-37 -100l-194 -156l-107 180l230 95zM567 1178l226 -95l-103 -180l-201 158l-28 96zM426 1141l63 -80l39 -225h-213l37 225z " />
<glyph horiz-adv-x="559" d="M94 1505l-94 164l440 289l119 -223z" />
<glyph horiz-adv-x="788" d="M788 1837l-292 -287l-183 -14l-313 301l113 123l288 -217l285 217z" />
<glyph horiz-adv-x="876" d="M0 1610l336 313l182 16l359 -329l-99 -135l-336 245l-344 -245z" />
</font>
</defs>
</svg>
