<?xml version="1.0" standalone="no"?>
<!DOCTYPE svg PUBLIC "-//W3C//DTD SVG 1.1//EN" "http://www.w3.org/Graphics/SVG/1.1/DTD/svg11.dtd" >
<svg xmlns="http://www.w3.org/2000/svg">
<metadata></metadata>
<defs>
<font id="bitteritalic" horiz-adv-x="1236" >
<font-face units-per-em="2048" ascent="1577" descent="-471" />
<missing-glyph horiz-adv-x="512" />
<glyph unicode="fi" horiz-adv-x="1345" d="M1051 164l174 -51l-17 -113h-379l148 922h-483l-154 -963q-16 -101 -46 -179.5t-80 -141.5t-127 -96.5t-177 -33.5q-36 0 -74 5t-58 11l-20 5l25 143h147q89 0 138.5 62.5t70.5 183.5l158 1004h-193l21 133l197 20l20 123q12 78 32.5 136.5t57.5 110t90.5 83.5 t133.5 50.5t186 18.5q91 0 194 -10.5t160 -20.5l57 -10l-61 -290h-137v159q-142 9 -234 9q-133 0 -196.5 -49t-79.5 -146l-27 -164h483l197 10z" />
<glyph unicode="fl" horiz-adv-x="1327" d="M838 0l225 1423q-198 11 -256 11q-131 0 -188.5 -48t-73.5 -147l-27 -164h291l-29 -153h-286l-154 -963q-16 -101 -46 -179.5t-80 -141.5t-127 -96.5t-177 -33.5q-36 0 -74 5t-58 11l-20 5l25 143h147q89 0 139 63t70 183l158 1004h-193l21 133l194 20l21 123 q13 79 31.5 136.5t53.5 109.5t87 84t131 50.5t184 18.5q93 0 208 -10.5t184 -20.5l69 -10l-223 -1390l174 -53l-20 -113h-381z" />
<glyph unicode="&#xd;" horiz-adv-x="614" />
<glyph unicode=" "  horiz-adv-x="512" />
<glyph unicode="&#x09;" horiz-adv-x="512" />
<glyph unicode="&#xa0;" horiz-adv-x="512" />
<glyph unicode="!" horiz-adv-x="675" d="M227 502l135 1034h232l-197 -1024zM113 92q0 72 41.5 123t115.5 51q54 0 83.5 -28t29.5 -84q0 -71 -41.5 -122.5t-118.5 -51.5q-110 0 -110 112z" />
<glyph unicode="&#x22;" horiz-adv-x="821" d="M184 1065l80 512h191l-121 -512h-150zM528 1065l80 512h193l-121 -512h-152z" />
<glyph unicode="#" horiz-adv-x="1411" d="M479 911l92 318h162l-92 -318h289l94 318h160l-90 -318h225l-21 -133h-243l-88 -297h229l-20 -133h-248l-99 -348h-161l100 348h-291l-100 -348h-160l98 348h-213l21 133h231l86 297h-219l21 133h237zM807 481l84 297h-289l-86 -297h291z" />
<glyph unicode="$" horiz-adv-x="1112" d="M227 399l6 -209q88 -40 203 -40q71 0 139 24.5t116 76t48 118.5q0 49 -30 86t-77.5 61.5t-105.5 46.5t-116 49t-105.5 62t-77.5 92t-30 131q0 88 32 160t87.5 120t125 78.5t150.5 42.5l35 228l151 10l-37 -231q68 -5 146 -24t122 -35l44 -17l-62 -324h-110l-27 207 q-96 35 -188 35q-119 0 -191 -56.5t-72 -138.5q0 -48 30 -85.5t78 -62t105.5 -47.5t115.5 -49.5t106 -59.5t78 -87t30 -123q0 -94 -33 -172.5t-90.5 -132.5t-130.5 -89.5t-157 -51.5l-46 -279h-149l43 267q-80 3 -164.5 22t-128.5 37l-45 18l55 342h127z" />
<glyph unicode="%" horiz-adv-x="1669" d="M559 1454q123 0 190.5 -68.5t67.5 -191.5q0 -192 -106.5 -324.5t-284.5 -132.5q-132 0 -201 65.5t-69 194.5q0 197 113.5 327t289.5 130zM520 1323q-93 0 -152 -82.5t-59 -218.5q0 -76 39.5 -115t106.5 -39q93 0 151 79.5t58 209.5q0 166 -144 166zM1231 696 q123 0 190.5 -68.5t67.5 -191.5q0 -192 -106.5 -324t-284.5 -132q-132 0 -201.5 65.5t-69.5 194.5q0 197 114 326.5t290 129.5zM1192 565q-93 0 -152 -82.5t-59 -218.5q0 -76 39 -114.5t106 -38.5q93 0 151 79t58 209q0 166 -143 166zM1434 1434l-1041 -1434h-180l1040 1434 h181z" />
<glyph unicode="&#x26;" horiz-adv-x="1372" d="M1110 676l-41 -246q-35 -214 -184 -332t-377 -118q-211 0 -311.5 89.5t-100.5 247.5q0 155 94.5 271.5t243.5 189.5q-8 2 -21 7.5t-46 25.5t-58 45.5t-46 69.5t-21 96q0 206 143.5 319t382.5 113q81 0 173 -20t144 -40l52 -20l-52 -289h-129l-14 164q-78 31 -217 31 q-127 0 -201.5 -66.5t-74.5 -173.5q0 -91 66 -145.5t171 -54.5h610l-20 -123zM907 676h-268q-134 0 -231 -92.5t-97 -235.5q0 -95 63 -144.5t173 -49.5q129 0 213.5 68.5t105.5 197.5z" />
<glyph unicode="'" horiz-adv-x="385" d="M176 1065l80 512h190l-120 -512h-150z" />
<glyph unicode="(" horiz-adv-x="675" d="M651 1577h180q-113 -148 -197 -287t-153.5 -300.5t-105 -341.5t-35.5 -374q0 -206 41.5 -400.5t122.5 -344.5h-178q-98 183 -145.5 360.5t-47.5 374.5q0 365 123.5 682.5t394.5 630.5z" />
<glyph unicode=")" horiz-adv-x="675" d="M23 -471h-181q113 148 197.5 287t153.5 300.5t105 341t36 373.5q0 206 -41.5 401t-122.5 345h178q98 -183 145.5 -360.5t47.5 -374.5q0 -365 -123.5 -682.5t-394.5 -630.5z" />
<glyph unicode="*" horiz-adv-x="884" d="M508 1200l-45 47l16 254l146 4l-56 -260zM532 1182l37 63l246 101l29 -144l-260 -59zM479 1182l-65 -35l-250 51l72 143l227 -94zM483 1151l4 -70l-168 -231l-106 86l201 211zM584 1143l135 -203l-129 -90l-103 231l29 70z" />
<glyph unicode="+" horiz-adv-x="1263" d="M551 621l74 464h174l-76 -464h438l-26 -156h-439l-71 -465h-174l73 465h-432l29 156h430z" />
<glyph unicode="," horiz-adv-x="471" d="M-31 -238l78 -77q12 11 32.5 30.5t72.5 77.5t91.5 112.5t72 124t32.5 124.5q0 112 -110 112q-67 0 -110.5 -49t-43.5 -113q0 -27 14.5 -63t14.5 -55q0 -26 -36 -82t-72 -99z" />
<glyph unicode="-" horiz-adv-x="782" d="M649 645l-28 -174h-521l29 174h520z" />
<glyph unicode="." horiz-adv-x="532" d="M66 92q0 72 41.5 123t115.5 51q54 0 83.5 -28t29.5 -84q0 -71 -41.5 -122.5t-118.5 -51.5q-110 0 -110 112z" />
<glyph unicode="/" horiz-adv-x="917" d="M1051 1434l-893 -1434h-209l891 1434h211z" />
<glyph unicode="0" horiz-adv-x="1292" d="M786 1454q215 0 319.5 -120.5t104.5 -329.5q0 -93 -9 -186.5t-31 -195.5t-55.5 -193t-86.5 -174.5t-119.5 -143.5t-159 -95.5t-200.5 -35.5q-221 0 -328.5 112.5t-107.5 337.5q0 96 10 192.5t34 198.5t59.5 193t90 172.5t122 140t159.5 93t198 34.5zM756 1280 q-88 0 -162 -55t-122 -142t-81.5 -198.5t-48 -221t-14.5 -212.5q0 -158 56 -227.5t198 -69.5q102 0 184.5 82.5t130.5 210.5t73 267t25 269q0 153 -53 225t-186 72z" />
<glyph unicode="1" horiz-adv-x="1011" d="M385 174l164 1024l-387 -231l-60 147l516 320h175l-203 -1260h309l-27 -174h-821l29 174h305z" />
<glyph unicode="2" horiz-adv-x="1189" d="M29 174l260 211q319 258 444 413t125 298q0 83 -59.5 133.5t-171.5 50.5q-45 0 -101 -8t-90 -16l-33 -9l-49 -203h-161l40 336q28 8 74.5 20.5t159.5 33t190 20.5q100 0 175.5 -15t134.5 -49.5t89.5 -95.5t30.5 -147q0 -191 -143.5 -386.5t-435.5 -426.5l-201 -160h672 l-29 -174h-950z" />
<glyph unicode="3" horiz-adv-x="1083" d="M147 1061l39 319q26 8 69 20.5t155.5 33t199.5 20.5q184 0 294 -78t110 -221q0 -145 -81 -251t-243 -150q113 -27 178.5 -106t65.5 -175q0 -141 -79 -254.5t-213 -176t-296 -62.5q-61 0 -123 10.5t-106 25.5t-79 30t-53 26l-18 10l80 158q20 -10 53 -24t119.5 -38 t153.5 -24q142 0 240 82.5t98 212.5q0 109 -68.5 163t-196.5 54h-155l26 163h144q88 0 155 24.5t105 66t56 89.5t18 101q0 78 -57.5 124t-166.5 46q-51 0 -105 -8t-82 -16l-28 -9l-45 -186h-164z" />
<glyph unicode="4" horiz-adv-x="1212" d="M807 1464l207 -30l-148 -922h244l-29 -164h-239l-56 -348h-194l55 348h-647l10 144zM672 512l108 684l-561 -684h453z" />
<glyph unicode="5" horiz-adv-x="1118" d="M10 82l80 156q21 -9 56.5 -23t125.5 -37.5t158 -23.5q140 0 240 89t100 218q0 246 -371 246h-202l129 727h751l-28 -174h-564l-67 -390h65q246 0 378 -100.5t132 -267.5q0 -145 -79 -265.5t-212 -188.5t-290 -68q-68 0 -134.5 10.5t-113 25.5t-83 30t-53.5 26z" />
<glyph unicode="6" horiz-adv-x="1234" d="M1163 1434l-28 -164q-72 10 -156 10q-76 0 -144.5 -17t-120 -46t-96.5 -67t-76.5 -79.5t-57.5 -83t-41.5 -79.5t-26.5 -67t-15 -46l-4 -17q6 4 18 11t49.5 25t77 31.5t98 24.5t114.5 11q157 0 263.5 -91.5t106.5 -254.5q0 -149 -75 -277t-204.5 -203t-283.5 -75 q-117 0 -203 38.5t-133 105t-68.5 143t-21.5 165.5q0 81 13 170t44 189.5t76.5 194t116 179.5t157.5 149.5t206 101.5t256 38q33 0 72.5 -5t63.5 -10zM362 614q-20 -122 -20 -184q0 -125 66.5 -200.5t181.5 -75.5q145 0 232 98.5t87 245.5q0 209 -241 209 q-71 0 -147.5 -23.5t-117.5 -46.5z" />
<glyph unicode="7" horiz-adv-x="1052" d="M1077 1280l-735 -1280h-231l731 1249h-539l-72 -194h-149l61 379h961z" />
<glyph unicode="8" horiz-adv-x="1290" d="M1188 1155q0 -145 -86.5 -244.5t-229.5 -150.5q51 -23 87.5 -46.5t71 -58t52 -81.5t17.5 -105q0 -140 -79.5 -253t-212 -174.5t-290.5 -61.5q-108 0 -190 26t-130 71t-72 101t-24 121q0 303 340 453q-90 49 -140 110.5t-50 155.5q0 193 146.5 314.5t402.5 121.5 q189 0 288 -81t99 -218zM752 1280q-118 0 -202.5 -61.5t-84.5 -171.5q0 -32 8.5 -58.5t29 -48.5t39 -37.5t53.5 -32.5t56.5 -26t63.5 -25q103 37 180.5 115t77.5 178q0 78 -57.5 123t-163.5 45zM563 156q144 0 227.5 79.5t83.5 198.5q0 27 -8.5 51.5t-20 43t-34.5 37.5 t-41.5 31.5t-52 29t-54 25.5t-59.5 26q-60 -28 -104 -56t-86 -67.5t-64 -92t-22 -114.5q0 -92 61 -142t174 -50z" />
<glyph unicode="9" horiz-adv-x="1273" d="M102 0l27 164q74 -10 158 -10q79 0 149.5 17.5t123 47t97.5 68t76 81t56 85t39.5 81t24.5 68t13 46.5l4 18q-6 -4 -18 -11t-49.5 -25t-76.5 -31.5t-97.5 -24.5t-114.5 -11q-164 0 -268.5 90t-104.5 254q0 110 44 210.5t119 174.5t180 118t221 44q66 0 125.5 -14 t115 -47.5t96 -84.5t64.5 -131t24 -180q0 -91 -14.5 -185.5t-46.5 -195t-80 -192t-119 -173t-158.5 -141.5t-204 -95t-249.5 -35q-36 0 -75 5t-60 10zM905 829q19 100 19 168q0 143 -68.5 213t-179.5 70q-144 0 -232 -98t-88 -248q0 -197 244 -197q71 0 147.5 23t116.5 46z " />
<glyph unicode=":" horiz-adv-x="589" d="M186 758q0 72 42 123t116 51q54 0 83.5 -28.5t29.5 -84.5q0 -71 -41.5 -122.5t-118.5 -51.5q-111 0 -111 113zM82 92q0 72 42 123t116 51q112 0 112 -112q0 -71 -41 -122.5t-118 -51.5q-111 0 -111 112z" />
<glyph unicode=";" horiz-adv-x="608" d="M195 758q0 72 41.5 123t115.5 51q54 0 83.5 -28.5t29.5 -84.5q0 -71 -41.5 -122.5t-118.5 -51.5q-110 0 -110 113zM-20 -238l77 -77q12 11 32.5 30.5t72.5 77.5t91.5 112.5t72 124t32.5 124.5q0 112 -110 112q-67 0 -110.5 -49t-43.5 -113q0 -27 14.5 -63t14.5 -55 q0 -26 -35.5 -82t-71.5 -99z" />
<glyph unicode="&#x3c;" horiz-adv-x="1253" d="M1044 -10l-942 481l25 143l1100 471l-29 -178l-860 -368l735 -379z" />
<glyph unicode="=" horiz-adv-x="1228" d="M1151 840l-27 -164h-983l27 164h983zM1085 440l-26 -164h-983l26 164h983z" />
<glyph unicode="&#x3e;" horiz-adv-x="1247" d="M203 1085l942 -481l-25 -143l-1100 -471l29 178l860 369l-735 378z" />
<glyph unicode="?" horiz-adv-x="937" d="M262 471v131q0 56 25 108t64.5 92.5t88 79t96.5 76.5t87.5 76.5t64.5 87t25 101.5q0 70 -52 101.5t-137 31.5q-45 0 -99 -6t-85 -12l-31 -7l-10 148q148 47 281 47q73 0 132.5 -13t109.5 -42.5t78 -83t28 -127.5q0 -71 -27 -136t-70 -115.5t-95 -97.5t-104 -88.5 t-95 -80.5t-70 -82t-27 -85v-92zM444 154q0 -72 -41.5 -123t-115.5 -51q-54 0 -83.5 28t-29.5 84q0 71 41.5 122.5t118.5 51.5q110 0 110 -112z" />
<glyph unicode="@" horiz-adv-x="1679" d="M965 184l61 -123q-16 -9 -45.5 -22.5t-120 -36t-180.5 -22.5q-269 0 -413 141.5t-144 404.5q0 152 34 290t103.5 254.5t168 202t233.5 133.5t294 48q288 0 444 -148.5t156 -414.5q0 -106 -24.5 -204.5t-71.5 -180t-124 -131t-173 -49.5q-43 0 -75.5 15t-50 36t-28 50.5 t-13.5 52.5t-3 48l2 39q-4 -10 -11 -26t-33.5 -57.5t-57.5 -73.5t-82.5 -58t-108.5 -26q-96 0 -151 71t-55 176q0 129 35.5 234t95 171t134 101t154.5 35q44 0 85.5 -12t61.5 -24l19 -11l37 31h88l-73 -465q-9 -74 -9 -80q0 -51 17.5 -72.5t52.5 -21.5q51 0 91 39.5 t62.5 101.5t34 128t11.5 128q0 210 -121 327t-350 117q-144 0 -263.5 -59t-198 -160t-122 -235t-43.5 -285q0 -209 108.5 -318.5t311.5 -109.5q58 0 120.5 12.5t96.5 25.5zM1008 825l30 142q-51 22 -125 22q-46 0 -91 -24.5t-82.5 -70t-61 -119t-23.5 -161.5q0 -71 21 -111 t61 -40q46 0 91 37.5t76 90.5t55.5 106t36.5 91z" />
<glyph unicode="A" horiz-adv-x="1458" d="M430 389l-113 -227l172 -39l-20 -123h-543l19 123l174 41l655 1259l203 11l246 -1276l139 -35l-21 -123h-542l18 123l176 41l-41 225h-522zM924 553l-105 616l-309 -616h414z" />
<glyph unicode="B" horiz-adv-x="1288" d="M207 1311l18 112l379 11h213q172 0 286 -80.5t114 -233.5q0 -83 -29 -151t-78 -112.5t-102 -72.5t-111 -41q270 -61 270 -276q0 -112 -42.5 -201.5t-117 -147t-175 -88t-218.5 -30.5h-618l20 123l183 41l174 1106zM506 819h149q55 0 110 13t110 42.5t89.5 87.5t34.5 138 q0 81 -55.5 125.5t-146.5 44.5h-219zM403 164h191q167 0 260.5 81.5t93.5 200.5q0 121 -76.5 170.5t-236.5 49.5h-154z" />
<glyph unicode="C" horiz-adv-x="1306" d="M1303 1004l55 348q-8 4 -23.5 11t-63.5 24.5t-96.5 31t-117 24.5t-131.5 11q-171 0 -319.5 -70.5t-255 -195.5t-167.5 -303t-61 -385q0 -239 136 -379.5t372 -140.5q96 0 191.5 24.5t172 64.5t121.5 69.5t84 60.5l-74 120q-32 -24 -72.5 -46.5t-100 -49t-133.5 -43 t-148 -16.5q-146 0 -235 103t-89 272q0 142 38.5 275.5t106.5 237t170.5 166t221.5 62.5q147 0 274 -51l25 -225h119z" />
<glyph unicode="D" horiz-adv-x="1441" d="M215 1311l18 112l379 11h265q229 0 368 -129.5t139 -352.5q0 -227 -59 -407t-167.5 -299.5t-263 -182.5t-345.5 -63h-543l21 123l176 39l178 1108zM412 164h168q186 0 320 97t201.5 267.5t67.5 397.5q0 164 -82 254t-241 90h-258z" />
<glyph unicode="E" d="M225 1311l19 112l381 11h616l-55 -349h-115l-20 185h-453l-72 -441h467l-24 -163h-467l-80 -502h465l76 209h135l-64 -373h-1018l21 123l180 41l176 1106z" />
<glyph unicode="F" horiz-adv-x="1120" d="M981 809l-25 -164h-467l-77 -481l200 -41l-20 -123h-586l21 123l180 41l178 1106l-170 41l18 112l381 11h617l-55 -349h-115l-21 185h-452l-76 -461h469z" />
<glyph unicode="G" horiz-adv-x="1486" d="M1303 1022l55 330q-8 4 -23.5 11t-63.5 24.5t-96.5 31t-117 24.5t-131.5 11q-171 0 -319.5 -70.5t-255 -195t-167.5 -302.5t-61 -386q0 -236 144 -378t395 -142q285 0 550 122l72 451l158 31l20 123l-532 -11l-19 -112l174 -31l-55 -342q-145 -55 -317 -55 q-182 0 -273.5 101.5t-91.5 281.5q0 142 39.5 275.5t108.5 237t172.5 166t222.5 62.5q152 0 268 -45l25 -213h119z" />
<glyph unicode="H" horiz-adv-x="1587" d="M1063 162l80 493h-668l-78 -491l178 -41l-20 -123h-559l20 123l177 39l178 1108l-168 41l18 112l563 11l-20 -123l-189 -41l-73 -451h667l72 451l-186 41l18 112l572 11l-21 -123l-178 -41l-178 -1106l172 -41l-21 -123h-569l20 123z" />
<glyph unicode="I" horiz-adv-x="743" d="M215 1311l18 112l560 11l-21 -123l-180 -41l-178 -1106l172 -41l-21 -123h-559l21 123l184 41l176 1106z" />
<glyph unicode="J" horiz-adv-x="710" d="M203 1311l18 112l559 11l-20 -123l-178 -41l-189 -1178q-29 -186 -145 -292.5t-295 -106.5q-22 0 -53.5 2.5t-52.5 4.5l-21 3l43 154h100q181 0 213 194l195 1219z" />
<glyph unicode="K" horiz-adv-x="1329" d="M965 162l-267 493h-209l-77 -491l174 -41l-21 -123h-559l21 123l180 41l178 1106l-172 41l18 112l562 11l-21 -123l-182 -41l-74 -451h189l442 604l303 11l-20 -123l-175 -41l-387 -518l322 -588l145 -41l-20 -123h-533l21 123z" />
<glyph unicode="L" horiz-adv-x="1067" d="M6 123l182 41l177 1106l-170 41l16 112l571 11l-20 -123l-193 -41l-176 -1106h422l80 235h139l-67 -399h-981z" />
<glyph unicode="M" horiz-adv-x="1781" d="M1470 164l175 1106l174 41l20 123l-428 -11l-500 -811l-243 822l-445 -11l-18 -112l170 -41l-178 -1106l-181 -41l-20 -123h551l20 123l-180 41l158 983l231 -789l168 11l479 770l-155 -975l-172 -41l-21 -123h539l20 123z" />
<glyph unicode="N" horiz-adv-x="1597" d="M207 1311l170 -41l-176 -1106l-183 -41l-22 -123h532l23 123l-168 41l158 989l499 -1153h232l201 1270l174 41l20 123l-522 -11l-19 -112l164 -41l-155 -981l-480 1145l-430 -11z" />
<glyph unicode="O" horiz-adv-x="1505" d="M612 -20q175 0 327 68.5t263 192.5t174.5 307.5t63.5 403.5q0 226 -137 364t-381 138q-170 0 -318 -71.5t-255 -198.5t-168.5 -309.5t-61.5 -395.5q0 -232 132 -365.5t361 -133.5zM1214 926q0 -217 -70 -393t-198 -277.5t-289 -101.5q-147 0 -230 88.5t-83 257.5 q0 210 66 387t191.5 285t285.5 108q153 0 240 -86.5t87 -267.5z" />
<glyph unicode="P" horiz-adv-x="1169" d="M602 1434h215q75 0 141.5 -16t127.5 -51.5t97 -102t36 -158.5q0 -130 -38.5 -232.5t-100 -165t-145.5 -103.5t-167.5 -57t-173.5 -16h-135l-60 -370l176 -39l-20 -123h-559l20 123l179 41l176 1106l-166 41l18 112zM483 696h138q106 0 183.5 30.5t119.5 84t61 116 t19 136.5q0 61 -23 104.5t-60 64t-71.5 29.5t-69.5 9h-205z" />
<glyph unicode="Q" horiz-adv-x="1517" d="M1038 -127l-184 141q265 84 425.5 336.5t160.5 622.5q0 216 -137 348.5t-381 132.5q-170 0 -318 -71.5t-255 -198.5t-168.5 -309.5t-61.5 -395.5q0 -218 117 -350t321 -147l361 -246q160 -109 245 -109q49 0 131.5 29t140.5 58l58 30l-59 123q-133 -72 -203 -72 q-92 0 -193 78zM1214 946q0 -227 -70.5 -407.5t-197.5 -282.5t-289 -102q-147 0 -230 88.5t-83 257.5q0 210 66 387t191.5 285t285.5 108q327 0 327 -334z" />
<glyph unicode="R" horiz-adv-x="1290" d="M909 0l-114 379q-44 149 -98.5 197.5t-161.5 48.5h-60l-72 -461l177 -41l-21 -123h-563l20 123l181 41l176 1106l-166 41l16 112l381 11h221q107 0 195 -32t146.5 -104.5t58.5 -175.5q0 -176 -98.5 -294.5t-260.5 -168.5q28 -23 61.5 -86.5t59.5 -142.5l90 -266l148 -41 l-21 -123h-295zM500 778h151q159 0 259 80.5t100 226.5q0 94 -59 139.5t-163 45.5h-210z" />
<glyph unicode="S" horiz-adv-x="1183" d="M125 420l-57 -359q20 -9 55.5 -22.5t136.5 -36t191 -22.5q110 0 211 32.5t182.5 94t130.5 160.5t49 222q0 78 -32 138.5t-83 98t-112.5 67t-123 55t-112.5 53t-83 69t-32 95.5q0 91 77 153t204 62q43 0 93 -9t79 -19l29 -9l28 -219h115l66 348q-23 9 -61 22.5t-138 36.5 t-178 23q-102 0 -194.5 -27.5t-169.5 -81.5t-123 -145t-46 -207q0 -84 32 -148t83 -102.5t112.5 -69t123 -55.5t112.5 -52t83 -68.5t32 -96.5q0 -77 -51 -135t-123.5 -85t-149.5 -27q-54 0 -107.5 11t-80.5 21l-27 11l-6 223h-135z" />
<glyph unicode="T" horiz-adv-x="1124" d="M1196 1065h-131l-21 205h-264l-176 -1106l197 -41l-21 -123h-612l20 123l211 41l176 1106h-266l-84 -205h-133l62 369h1101z" />
<glyph unicode="U" horiz-adv-x="1566" d="M1444 1270l-107 -666q-18 -118 -49.5 -211t-83 -172t-122.5 -131t-170.5 -81t-223.5 -29t-213 29.5t-140 85t-74 128t-23 166.5q0 64 14 164l115 717l-174 41l18 112l561 11l-20 -123l-179 -41l-114 -717q-13 -80 -13 -141q0 -124 62.5 -191t218.5 -67q183 0 272.5 98.5 t126.5 331.5l111 686l-184 41l18 112l565 11l-20 -123z" />
<glyph unicode="V" horiz-adv-x="1376" d="M90 1311l19 112l362 11l197 -1137l444 973l-164 41l21 112l549 11l-21 -123l-168 -41l-622 -1270h-195l-248 1270z" />
<glyph unicode="W" horiz-adv-x="1980" d="M90 1311l19 112l362 11v-2l2 2l154 -1055l454 1044l129 11l164 -1069l385 905l-176 41l21 112l548 11l-20 -123l-158 -39l-588 -1272h-129l-178 993l-86 -209l-372 -784h-134l-225 1270z" />
<glyph unicode="X" horiz-adv-x="1282" d="M1067 164l-283 577l422 525l219 45l21 123l-543 -11l-20 -112l108 -29l-305 -387l-178 383l129 33l20 123l-546 -11l-21 -112l172 -39l273 -553l-437 -557l-190 -39l-21 -123h543l21 123l-129 37l315 403l192 -413l-131 -27l-20 -123h547l20 123z" />
<glyph unicode="Y" horiz-adv-x="1241" d="M272 1270l-172 41l19 112l317 11l205 -750l344 588l-184 39l20 112l551 11l-20 -123l-164 -41l-506 -797l-49 -309l170 -41l-21 -123h-559l21 123l184 41l57 373z" />
<glyph unicode="Z" horiz-adv-x="1202" d="M1184 1298l-858 -1134h548l74 209h135l-59 -373h-965l11 143l852 1125h-541l-82 -183h-115l49 349h961z" />
<glyph unicode="[" horiz-adv-x="706" d="M45 -471l326 2048l430 -10l-21 -133l-245 -23l-273 -1716l242 -23l-21 -133z" />
<glyph unicode="\" horiz-adv-x="1036" d="M621 0l-439 1434h183l438 -1434h-182z" />
<glyph unicode="]" horiz-adv-x="706" d="M682 1577l-326 -2048l-430 10l19 133l248 23l272 1716l-242 23l23 133z" />
<glyph unicode="^" horiz-adv-x="1167" d="M68 655l507 779h140l256 -779h-170l-191 574l-366 -574h-176z" />
<glyph unicode="_" horiz-adv-x="1019" d="M889 -164v-143h-1024v143h1024z" />
<glyph unicode="`" horiz-adv-x="509" d="M88 1645l422 -302l-64 -108l-446 256z" />
<glyph unicode="a" horiz-adv-x="1214" d="M1090 20l-381 -20l82 377q-7 -14 -15.5 -30.5t-34 -58.5t-52 -78.5t-68 -80.5t-83.5 -75t-96.5 -52.5t-109.5 -21.5q-116 0 -192.5 102t-76.5 256q0 146 34 272t92.5 216t136.5 154t166.5 95t181.5 31q59 0 116.5 -15.5t85.5 -30.5l27 -16l62 41h112l-147 -921l178 -31z M817 707l41 215q-78 30 -184 30q-60 0 -117 -21t-110 -67t-92.5 -112.5t-63 -165t-23.5 -217.5q0 -104 34.5 -159.5t90.5 -55.5q50 0 100.5 30.5t91 79.5t78 107.5t65 117.5t48 108t30.5 79z" />
<glyph unicode="b" horiz-adv-x="1191" d="M467 1085l-82 -376q6 16 22.5 51t58 98t90.5 115.5t124 92.5t154 40q131 0 202.5 -106.5t71.5 -262.5q0 -170 -52.5 -314.5t-141 -240t-202.5 -149t-237 -53.5q-88 0 -180.5 15t-141.5 31l-49 15l220 1372l-170 41l18 113l375 10zM367 379l-43 -215q80 -31 172 -31 q54 0 109.5 21.5t109 68t95.5 112t67.5 162.5t25.5 210q0 96 -35 160.5t-106 64.5q-51 0 -100.5 -30.5t-87.5 -79.5t-72 -107.5t-58 -117.5t-42 -108t-26 -79z" />
<glyph unicode="c" horiz-adv-x="931" d="M913 748l45 276q-5 3 -14 8.5t-39 20t-61.5 25t-78.5 19.5t-93 9q-173 0 -310 -92t-215.5 -263t-78.5 -393q0 -179 99.5 -278.5t258.5 -99.5q57 0 120.5 16t113 38t90.5 44.5t64 38.5l22 16l-62 103q-18 -10 -49.5 -25.5t-112.5 -41.5t-145 -26q-94 0 -144.5 56.5 t-50.5 169.5q0 151 42.5 280t128.5 211t198 82q37 0 70.5 -5t48.5 -10l14 -5l6 -174h133z" />
<glyph unicode="d" horiz-adv-x="1189" d="M1085 20l-374 -20l90 377q-7 -17 -25 -52t-62 -98t-94.5 -115.5t-125 -92t-150.5 -39.5q-119 0 -194.5 101t-75.5 257q0 145 33.5 270t91 215t134.5 155t165.5 96.5t181.5 31.5q110 0 197 -45l57 352l-174 41l18 113l379 10l-229 -1413l176 -31zM821 707l33 215 q-72 30 -174 30q-176 0 -288.5 -162t-112.5 -411q0 -109 34 -167t93 -58q50 0 100 30.5t90 79.5t76.5 107.5t63 117.5t46 108t29.5 79z" />
<glyph unicode="e" horiz-adv-x="1015" d="M827 236l62 -105q-9 -6 -25 -16.5t-66.5 -36.5t-102 -45.5t-124.5 -36t-141 -16.5q-169 0 -269 99.5t-100 268.5q0 156 47 297t126.5 241.5t189 160t229.5 59.5q155 0 246.5 -72t91.5 -194q0 -117 -91 -207t-254.5 -139.5t-373.5 -49.5q-6 -47 -6 -88q0 -109 55.5 -161 t170.5 -52q67 0 150.5 23.5t133.5 46.5zM291 588q219 0 362.5 65t143.5 166q0 133 -154 133q-113 0 -213 -102t-139 -262z" />
<glyph unicode="f" horiz-adv-x="720" d="M858 1434h-100q-100 0 -145 -50t-60 -145l-27 -164h289l-27 -153h-286l-154 -963q-72 -451 -420 -451q-32 0 -74.5 7t-69.5 13l-26 7l35 131h146q167 0 208 252l158 1004h-192l20 133l197 20l20 123q63 399 408 399q64 0 135.5 -10.5t110.5 -20.5l40 -10l-53 -286h-133 v164z" />
<glyph unicode="g" horiz-adv-x="1142" d="M1085 1085l-182 -1134q-35 -219 -159.5 -336t-323.5 -117q-79 0 -173.5 21t-148.5 42l-55 21l49 148q20 -7 53 -17.5t115 -28.5t139 -18q135 0 208.5 70.5t101.5 202.5l92 438q-7 -14 -15.5 -30.5t-34 -58.5t-52.5 -78.5t-68.5 -80.5t-84 -75t-97.5 -52.5t-111 -21.5 q-114 0 -189 101t-75 257q0 146 33.5 272t92 216t135.5 154t165 95t180 31q62 0 119.5 -15.5t84.5 -30.5l27 -16l62 41h112zM825 707l39 215q-73 30 -184 30q-60 0 -116.5 -21t-108.5 -67t-91 -112.5t-62 -164t-23 -214.5q0 -108 34 -163.5t90 -55.5q69 0 138 57t118 138 t88 162.5t59 138.5z" />
<glyph unicode="h" horiz-adv-x="1282" d="M567 1577l-157 -889q3 9 12.5 30.5t32.5 62t50.5 82t69.5 86t87.5 79t106 56.5t124.5 22q223 0 223 -248q0 -49 -10 -121l-92 -573l172 -31l-19 -113l-374 -20l116 707q9 70 9 90q0 135 -107 135q-54 0 -107 -31t-94.5 -80.5t-78.5 -109.5t-63.5 -120.5t-46 -110 t-29.5 -80.5l-9 -31l-68 -369h-194l225 1413l-172 41l19 113z" />
<glyph unicode="i" horiz-adv-x="634" d="M420 1280q68 0 105.5 53.5t37.5 130.5q0 49 -30.5 76t-81.5 27q-68 0 -106 -54t-38 -131q0 -48 31 -75t82 -27zM510 20l18 113l-174 31l148 921l-375 -10l-21 -112l175 -41l-148 -922z" />
<glyph unicode="j" horiz-adv-x="604" d="M410 1280q68 0 105.5 53.5t37.5 130.5q0 48 -31 75.5t-82 27.5q-68 0 -105.5 -54t-37.5 -131q0 -48 31 -75t82 -27zM270 922l-159 -994q-24 -144 -73.5 -205t-156.5 -61q-32 0 -63 2.5t-46 5.5l-14 2l-41 -133q82 -31 164 -31q176 0 282 105.5t138 294.5l193 1177 l-379 -10l-21 -112z" />
<glyph unicode="k" horiz-adv-x="1105" d="M584 674l198 264l-86 25l17 112l438 10l-21 -122l-149 -27l-264 -320l190 -452l162 -51l-20 -113h-279l-207 522h-176l-82 -522h-194l227 1413l-174 41l18 113l375 10l-145 -903h172z" />
<glyph unicode="l" horiz-adv-x="595" d="M492 20l18 113l-174 31l225 1413l-379 -10l-18 -113l172 -41l-225 -1413z" />
<glyph unicode="m" horiz-adv-x="1929" d="M784 0l115 707q8 62 8 90q0 135 -106 135q-53 0 -104 -31t-91.5 -80.5t-76.5 -109.5t-61.5 -120.5t-44.5 -110t-29 -80.5l-9 -31l-59 -369h-195l148 922l-173 41l19 112l373 10l-88 -397q4 10 12.5 30.5t30.5 62t48.5 82t67.5 86t85.5 79t104.5 56t124 22.5 q117 0 168 -64t51 -186q0 -52 -10 -127q19 46 41.5 88t64 97.5t87.5 95.5t112.5 68t140.5 28q225 0 225 -252q0 -49 -10 -117l-94 -573l174 -31l-18 -113l-377 -20l116 707q9 70 9 88q0 137 -107 137q-53 0 -105.5 -32t-93 -83t-77.5 -112.5t-63 -123t-45 -112.5t-28 -83 l-10 -32l-55 -354h-195z" />
<glyph unicode="n" horiz-adv-x="1298" d="M807 0l115 707q8 62 8 90q0 135 -107 135q-54 0 -107.5 -31t-96 -80.5t-80.5 -109.5t-65.5 -120.5t-48 -110t-30.5 -80.5l-10 -31l-59 -369h-195l148 922l-173 41l19 112l375 10l-92 -397q6 13 14.5 31t34 61.5t53.5 82.5t72 85t90.5 79.5t107.5 56t125 22.5 q228 0 228 -252q0 -42 -11 -117l-94 -573l174 -31l-18 -113z" />
<glyph unicode="o" horiz-adv-x="1126" d="M446 -20q131 0 243.5 50.5t194 142.5t127.5 228.5t46 300.5q0 181 -100.5 292.5t-284.5 111.5q-266 0 -434 -200t-168 -521q0 -185 101 -295t275 -110zM854 707q0 -165 -42.5 -291.5t-127.5 -199.5t-201 -73q-97 0 -153 58.5t-56 177.5q0 153 39 278t123 205t199 80 q100 0 159.5 -56t59.5 -179z" />
<glyph unicode="p" horiz-adv-x="1208" d="M485 1085l-82 -376q6 17 22 51t58 97.5t92 116t127.5 92.5t161.5 40q87 0 149.5 -52.5t92 -134.5t29.5 -182q0 -170 -51 -314.5t-137 -240t-197.5 -149t-233.5 -53.5q-113 0 -201 49l-53 -336l156 -51l-21 -113h-522l19 113l174 51l196 1229l-168 41l19 112zM379 379 l-41 -215q86 -31 188 -31q67 0 135.5 35.5t129.5 103t100 181.5t39 254q0 95 -34 160t-103 65q-52 0 -103 -30.5t-91 -79.5t-76 -107.5t-62 -117.5t-44.5 -108t-28.5 -79z" />
<glyph unicode="q" horiz-adv-x="1142" d="M864 -307l156 -51l-19 -113h-530l18 113l181 51l47 307l90 379q-4 -8 -11.5 -22.5t-32.5 -56t-52.5 -79t-70 -83.5t-86 -79.5t-99 -56t-111.5 -22.5q-116 0 -193 101.5t-77 256.5q0 147 34 273t93 215.5t136.5 153.5t166 95t180.5 31q64 0 122.5 -15.5t85.5 -30.5l26 -16 l63 41h106zM831 707l41 215q-86 30 -188 30q-76 0 -146 -34.5t-129 -102.5t-94.5 -183.5t-35.5 -262.5q0 -104 35 -159.5t92 -55.5q50 0 100.5 30.5t91.5 79.5t78.5 107.5t65 117.5t48 108t30.5 79z" />
<glyph unicode="r" horiz-adv-x="872" d="M760 778v144q-44 0 -88 -29.5t-79.5 -76.5t-68 -103.5t-56 -113.5t-41.5 -104t-27 -77l-9 -29l-65 -389h-195l150 922l-175 41l19 112l377 10l-80 -356q5 13 12 30t27.5 56t43.5 74t60.5 76.5t77.5 71t95 49.5t114 20q23 0 48.5 -5t39.5 -11l14 -5l-61 -307h-133z" />
<glyph unicode="s" horiz-adv-x="942" d="M92 328l-49 -297q16 -6 44.5 -14.5t109 -22.5t153.5 -14q209 0 335 94t126 254q0 58 -25.5 105.5t-66 79.5t-90 59.5t-98.5 52t-89.5 49.5t-66 59.5t-25.5 75.5q0 74 53 110.5t142 36.5q39 0 72.5 -4.5t46.5 -9.5l14 -4l12 -160h133l49 277q-153 51 -303 51 q-86 0 -159.5 -20t-131 -59t-90 -103t-32.5 -146q0 -62 25 -112.5t64.5 -83.5t87.5 -60.5t96 -50.5t87.5 -46.5t64.5 -56t25 -71.5q0 -82 -61 -125t-164 -43q-26 0 -51 2.5t-43 6.5t-32 7.5t-22 6.5l-8 2v174h-133z" />
<glyph unicode="t" horiz-adv-x="749" d="M633 184l33 -110q-17 -11 -46 -26.5t-100.5 -41.5t-122.5 -26q-207 0 -207 243q0 55 13 131l90 568h-203l23 133l204 20l41 258l203 41l-49 -299h283l-25 -153h-283l-88 -547q-12 -79 -12 -129q0 -55 18.5 -79t61.5 -24q25 0 66.5 10.5t70.5 20.5z" />
<glyph unicode="u" horiz-adv-x="1302" d="M801 0l84 397q-4 -11 -14 -31.5t-34 -62t-52.5 -81.5t-71.5 -85t-89 -79t-107 -56t-124 -22q-227 0 -227 249q0 61 17.5 177t86.5 516l-174 41l19 112l374 10q-78 -471 -99 -612.5t-21 -183.5q0 -135 106 -135q56 0 110 31t96 80.5t79.5 109.5t64.5 120.5t47 110t30 80.5 l9 31l62 368h194l-147 -921l176 -31l-18 -113z" />
<glyph unicode="v" horiz-adv-x="1075" d="M571 0h-221l-192 924l-144 39l19 112l311 10l135 -737l21 -153l338 731l-164 37l18 112l459 10l-21 -122l-102 -33z" />
<glyph unicode="w" horiz-adv-x="1589" d="M1133 0h-236l-94 696l-27 -102l-229 -594h-232l-147 932l-143 31l18 112l322 10l102 -890l334 880l145 10l105 -890l301 729l-174 39l18 112l469 10l-20 -122l-101 -25z" />
<glyph unicode="x" horiz-adv-x="1116" d="M725 0l315 20l19 113l-178 31l-197 403l287 353l176 43l20 122l-290 -10l-291 -379l-174 389l-322 -10l-18 -112l174 -41l192 -385l-284 -367l-187 -57l-18 -113h289l297 406z" />
<glyph unicode="y" horiz-adv-x="1079" d="M1020 930l-365 -862q-48 -113 -81 -185t-71 -141.5t-70.5 -108.5t-72.5 -70t-83.5 -43t-98.5 -12q-52 0 -109.5 8t-89.5 16l-32 9l41 131q81 -10 153 -10q103 0 160 55t121 203l-266 1004l-142 39l23 112l309 10l172 -751l19 -139l303 731l-154 37l19 112l450 10 l-20 -122z" />
<glyph unicode="z" horiz-adv-x="946" d="M922 952l-654 -792h385l66 168h123l-43 -328h-789l10 143l656 789h-357l-65 -154h-133l47 307h764z" />
<glyph unicode="{" horiz-adv-x="757" d="M553 1239l-59 -350q-36 -217 -226 -285q140 -57 140 -215q0 -26 -7 -70l-69 -432q-6 -41 -6 -69q0 -81 50 -113.5t171 -32.5l-23 -133h-75q-163 0 -237.5 55.5t-74.5 184.5q0 40 10 108l70 432q6 37 6 72q0 69 -34.5 105t-120.5 36l24 144q105 0 152.5 55t64.5 158 l58 350q31 191 124.5 269.5t286.5 78.5h74l-18 -133q-145 0 -202 -45t-79 -170z" />
<glyph unicode="|" horiz-adv-x="542" d="M352 1546h160l-322 -2017h-159z" />
<glyph unicode="}" horiz-adv-x="768" d="M725 676l-23 -144q-107 0 -157.5 -55.5t-65.5 -157.5l-67 -432q-30 -189 -125.5 -268.5t-280.5 -79.5h-84l23 133q141 0 202 46t80 169l68 432q31 215 229 285q-147 58 -147 219q0 31 6 66l59 350q7 44 7 68q0 83 -49.5 115t-172.5 32l23 133h86q155 0 228 -55.5 t73 -183.5q0 -41 -10 -109l-60 -350q-6 -37 -6 -68q0 -69 37.5 -107t126.5 -38z" />
<glyph unicode="~" horiz-adv-x="1282" d="M205 428l-82 72q5 8 14.5 22t42.5 50t69.5 63t93.5 49.5t116 22.5q51 0 97.5 -15t81.5 -36t69 -42t75.5 -36t85.5 -15q49 0 100.5 30.5t77.5 60.5l27 30l84 -72q-6 -9 -16.5 -23t-44.5 -51t-70 -65t-88.5 -51t-103.5 -23q-62 0 -123 22.5t-102.5 49.5t-97.5 49.5 t-108 22.5q-31 0 -63 -12t-55 -28.5t-42 -33.5t-29 -29z" />
<glyph unicode="&#xa1;" horiz-adv-x="624" d="M242 952q0 72 41.5 123t115.5 51q54 0 83.5 -28t29.5 -84q0 -71 -41.5 -122.5t-118.5 -51.5q-110 0 -110 112zM408 604l-136 -1034h-231l197 1024z" />
<glyph unicode="&#xa2;" horiz-adv-x="978" d="M942 893l51 276q-13 9 -36.5 22t-95.5 35.5t-142 24.5l31 181l-152 -11l-31 -184q-212 -41 -338.5 -207.5t-126.5 -435.5q0 -136 84.5 -237t214.5 -124l-36 -233h149l37 233q78 14 163 51t131 67l46 30l-62 102q-5 -3 -26.5 -16t-32 -18t-33 -16.5t-41.5 -17t-45 -12 t-56 -9.5t-63 -3q-98 0 -161.5 67t-63.5 171q0 199 99.5 328.5t269.5 129.5q37 0 70.5 -5t47.5 -10l15 -5v-174h133z" />
<glyph unicode="&#xa3;" horiz-adv-x="1232" d="M27 123l116 31q69 18 100.5 74.5t53.5 191.5q8 46 29 266h-209l20 129l203 23q9 102 25 206q31 192 146.5 301t319.5 109q108 0 208.5 -15t146.5 -31l47 -15l-55 -351h-115l-27 236q-111 12 -221 12q-108 0 -168 -54t-76 -151l-30 -247h333l-24 -152h-322 q-18 -181 -28 -246q-9 -57 -26 -106.5t-35 -79.5t-34.5 -51.5t-26.5 -30.5l-11 -8h505l76 209h135l-61 -373h-1014z" />
<glyph unicode="&#xa4;" horiz-adv-x="1185" d="M53 225l176 158q-20 50 -20 121q0 183 104 319l-139 172l117 107l139 -170q115 72 248 72q118 0 196 -56l179 154l80 -107l-170 -151q24 -56 24 -127q0 -190 -108 -330l133 -162l-117 -106l-133 160q-106 -64 -234 -64q-132 0 -215 59l-180 -155zM645 862 q-115 0 -186.5 -90t-71.5 -242q0 -84 48 -129t130 -45q107 0 175.5 89t68.5 233q0 89 -42 136.5t-122 47.5z" />
<glyph unicode="&#xa5;" horiz-adv-x="1288" d="M293 1270l-193 41l19 112l338 11l205 -750l344 588l-154 39l20 112l527 11l-21 -123l-170 -41l-340 -533h244l-22 -143h-904l23 143h240zM449 164l24 153h-330l23 144h903l-22 -144h-369l-25 -153l170 -41l-20 -123h-559l20 123z" />
<glyph unicode="&#xa6;" horiz-adv-x="557" d="M367 1567h159l-131 -819h-159zM164 297h160l-134 -840h-159z" />
<glyph unicode="&#xa7;" horiz-adv-x="1126" d="M895 1208l-14 215q-64 11 -115 11q-101 0 -172.5 -60t-71.5 -153q0 -46 26 -88.5t68 -77t93 -69.5t101.5 -72.5t92.5 -78.5t68 -96t26 -116q0 -229 -206 -361q32 -62 32 -133q0 -124 -63 -224.5t-168 -156t-227 -55.5q-73 0 -146 15.5t-110 30.5l-37 15l61 328h129 l8 -215q51 -10 125 -10q86 0 158 59.5t72 153.5q0 46 -26.5 89t-68.5 78t-93 70t-102 73.5t-93 80.5t-68.5 98t-26.5 119q0 65 21 126t54 105t67 74t65 45q-30 72 -30 135q0 128 66.5 228.5t171.5 153t226 52.5q71 0 143 -15.5t108 -30.5l36 -15l-59 -328h-121zM709 371 q92 80 92 188q0 54 -40 104.5t-91 84.5t-121.5 83t-110.5 89q-33 -21 -63.5 -71t-30.5 -120q0 -52 40.5 -102t92 -84t122.5 -83.5t110 -88.5z" />
<glyph unicode="&#xa8;" horiz-adv-x="1054" d="M209 1403q0 64 36.5 108.5t94.5 44.5q44 0 69 -25t25 -69q0 -62 -38.5 -106.5t-94.5 -44.5q-43 0 -67.5 24.5t-24.5 67.5zM621 1403q0 64 36.5 108.5t94.5 44.5q44 0 69 -25t25 -69q0 -62 -38.5 -106.5t-94.5 -44.5q-43 0 -67.5 24.5t-24.5 67.5z" />
<glyph unicode="&#xa9;" horiz-adv-x="1679" d="M92 707q0 159 57 298t155.5 237.5t237.5 155t298 56.5q213 0 383.5 -91.5t267 -257.5t96.5 -378q0 -158 -60 -297.5t-162.5 -238t-244.5 -155t-301 -56.5t-294.5 53.5t-230.5 148.5t-148.5 230.5t-53.5 294.5zM256 717q0 -263 157 -426.5t416 -163.5q261 0 427.5 164.5 t166.5 425.5t-166.5 425.5t-427.5 164.5q-259 0 -416 -163.5t-157 -426.5zM1069 541l55 -95l-14 -14t-38.5 -31t-61 -39t-78 -31t-92.5 -14q-173 0 -271 98.5t-98 286.5q0 194 102.5 310t280.5 116q57 0 122 -16t102 -32l36 -15l-4 -217h-115l-28 139q-57 17 -127 17 q-98 0 -146.5 -75t-48.5 -216q0 -133 54.5 -197.5t150.5 -64.5q49 0 104 22.5t85 44.5z" />
<glyph unicode="&#xaa;" horiz-adv-x="978" d="M897 672l-301 -8l59 270q-7 -15 -18.5 -37.5t-43.5 -70t-67.5 -84.5t-88.5 -66t-107 -29q-90 0 -144.5 80.5t-54.5 190.5q0 126 37.5 229t100.5 169t142.5 102t166.5 36q43 0 84 -12t61 -24l20 -11l43 33h101l-113 -652l135 -28zM682 1167l29 144q-59 20 -133 20 q-38 0 -76 -12.5t-76 -42.5t-66.5 -74.5t-46.5 -114t-18 -155.5q0 -74 25 -112t61 -38q34 0 69 21t63.5 55t55.5 75t47 82.5t35 75.5t23 55zM817 481l-22 -143h-703l23 143h702z" />
<glyph unicode="&#xab;" horiz-adv-x="1105" d="M360 164l-237 334l18 123l328 297l104 -93l-260 -274l162 -305zM803 164l-248 334l18 123l338 297l105 -93l-271 -274l173 -305z" />
<glyph unicode="&#xac;" horiz-adv-x="1259" d="M1180 727l-88 -553h-170l61 389h-833l26 164h1004z" />
<glyph unicode="&#xad;" horiz-adv-x="782" d="M649 645l-28 -174h-521l29 174h520z" />
<glyph unicode="&#xae;" horiz-adv-x="1474" d="M154 922q0 268 178 446t446 178q178 0 320 -75.5t223.5 -214t81.5 -314.5t-86 -319.5t-234 -224.5t-325 -81q-268 0 -436 168t-168 437zM307 932q0 -218 124 -349.5t337 -131.5q215 0 348 133t133 348t-133 348t-348 133q-213 0 -337 -131.5t-124 -349.5zM563 707v475 l-82 16v76l307 6q104 0 172 -49.5t68 -138.5q0 -133 -127 -181l2 -1q2 -2 5 -4.5t6.5 -6.5t8.5 -9.5t10.5 -13t12 -18t12.5 -22.5l66 -129l82 -21v-82h-176l-82 174q-33 71 -52.5 89t-60.5 18h-39v-178l82 -21v-82h-297v82zM696 979h72q55 0 89 27t34 75q0 45 -30 71t-83 26 h-82v-199z" />
<glyph unicode="&#xaf;" horiz-adv-x="563" d="M563 1505l-22 -153h-541l23 153h540z" />
<glyph unicode="&#xb0;" horiz-adv-x="839" d="M115 1176q0 134 94 231.5t237 97.5q122 0 199.5 -70t77.5 -202q0 -135 -95 -238.5t-237 -103.5q-119 0 -197.5 74.5t-78.5 210.5zM434 1372q-75 0 -123.5 -53t-48.5 -131q0 -82 38.5 -123t102.5 -41q76 0 124 55t48 140q0 74 -38.5 113.5t-102.5 39.5z" />
<glyph unicode="&#xb1;" horiz-adv-x="1261" d="M575 778l54 328h176l-53 -328h417l-26 -160h-416l-53 -331h-176l53 331h-420l25 160h419zM1069 160l-25 -160h-1013l24 160h1014z" />
<glyph unicode="&#xb2;" horiz-adv-x="765" d="M45 573l23 142q53 39 123 90.5t107.5 79t85.5 64.5t72 59t51.5 51t39.5 52t20 50t8 56q0 94 -133 94q-32 0 -63.5 -5.5t-47.5 -10.5l-16 -5l-30 -123h-121l26 224q154 53 279 53q291 0 291 -197q0 -43 -12 -85t-30 -76.5t-49 -71t-59.5 -64t-71 -62t-74 -57t-79.5 -57 t-76 -55.5h393l-24 -146h-633z" />
<glyph unicode="&#xb3;" horiz-adv-x="706" d="M129 1194l27 211q165 39 286 39q129 0 198 -48.5t69 -140.5q0 -90 -57 -150.5t-152 -82.5q67 -6 114.5 -48t47.5 -108q0 -76 -32 -135t-86.5 -95t-123.5 -54.5t-148 -18.5q-63 0 -129.5 19.5t-101.5 39.5l-35 19l57 121q12 -7 34 -17.5t84 -27.5t118 -17q85 0 136.5 38 t51.5 106q0 104 -163 104h-93l19 125h94q91 0 143 36.5t52 109.5q0 92 -129 92q-38 0 -73 -4.5t-51 -9.5l-16 -5l-24 -98h-117z" />
<glyph unicode="&#xb4;" horiz-adv-x="487" d="M127 1327l422 301l88 -153l-447 -256z" />
<glyph unicode="&#xb5;" horiz-adv-x="1298" d="M225 -471l82 471q42 -20 84 -20q87 0 169 42t135.5 96.5t100 122t64 102.5t25.5 54l-84 -397l370 10l21 113l-176 41l151 921h-194l-68 -368q-3 -12 -10 -32t-29.5 -78.5t-47 -112t-63.5 -118.5t-80 -111.5t-94.5 -78.5t-107.5 -32q-108 0 -108 137q0 36 131 794 l-379 -10l-21 -112l178 -41l-237 -1393h188z" />
<glyph unicode="&#xb6;" horiz-adv-x="1290" d="M360 -184l129 811q-127 19 -205.5 109.5t-78.5 226.5q0 200 137 335.5t342 135.5h256l346 -11l-18 -112l-176 -41l-261 -1618h-176l260 1618h-159l-260 -1618h-344l18 123z" />
<glyph unicode="&#xb7;" horiz-adv-x="563" d="M143 590q0 72 45 127t119 55q54 0 83.5 -28.5t29.5 -84.5q0 -72 -42 -127t-118 -55q-54 0 -85.5 28.5t-31.5 84.5z" />
<glyph unicode="&#xb8;" horiz-adv-x="892" d="M414 0l-27 -162q72 0 111 -23.5t39 -64.5q0 -44 -35.5 -72t-83.5 -28q-32 0 -66 8t-52 16l-17 9l-62 -84q8 -5 24.5 -13t71.5 -21.5t117 -13.5q94 0 164 61.5t70 151.5q0 58 -39.5 97t-108.5 51l15 88h-121z" />
<glyph unicode="&#xb9;" horiz-adv-x="659" d="M98 573l21 134h176l86 550l-225 -131l-45 113l323 195h139l-114 -727h176l-23 -134h-514z" />
<glyph unicode="&#xba;" horiz-adv-x="1013" d="M610 1454q149 0 228.5 -76.5t79.5 -216.5q0 -226 -124.5 -371t-332.5 -145q-154 0 -236 74.5t-82 220.5q0 228 130.5 371t336.5 143zM580 1319q-124 0 -196.5 -93.5t-72.5 -256.5q0 -95 51 -143t136 -48q114 0 183 95.5t69 246.5q0 94 -44 146.5t-126 52.5zM791 481 l-23 -143h-702l22 143h703z" />
<glyph unicode="&#xbb;" horiz-adv-x="1107" d="M305 918l248 -334l-18 -123l-338 -297l-105 90l270 276l-172 306zM748 918l237 -334l-18 -123l-328 -297l-104 90l260 276l-162 306z" />
<glyph unicode="&#xbc;" horiz-adv-x="1986" d="M1729 860l-87 -541h146l-23 -133h-145l-29 -186h-172l29 186h-416l6 121l498 574zM1571 1434l-1041 -1434h-188l1040 1434h189zM1473 319l57 367l-316 -367h259zM164 573l20 134h187l86 542l-232 -133l-49 123l334 195h149l-114 -727h184l-22 -134h-543z" />
<glyph unicode="&#xbd;" horiz-adv-x="1888" d="M102 573l21 134h186l86 542l-231 -133l-49 123l334 195h149l-115 -727h185l-23 -134h-543zM1516 1434l-1041 -1434h-188l1040 1434h189zM1018 0l22 141q57 43 138.5 102.5t119.5 87.5t90 69t74 64.5t46 56t32 61t8 61.5q0 94 -133 94q-32 0 -63.5 -5t-47.5 -10l-16 -5 l-31 -123h-120l26 223q154 53 279 53q291 0 291 -196q0 -42 -12 -83t-29.5 -74.5t-49.5 -71.5t-59 -64.5t-71.5 -63t-74 -58.5t-80 -58.5t-75.5 -55.5h393l-24 -145h-633z" />
<glyph unicode="&#xbe;" horiz-adv-x="1939" d="M1753 860l-86 -541h145l-22 -133h-145l-29 -186h-172l29 186h-416l6 121l498 574zM1595 1434l-1040 -1434h-188l1040 1434h188zM1497 319l57 367l-315 -367h258zM225 1194l27 211q166 39 287 39q129 0 197.5 -48.5t68.5 -140.5q0 -90 -57 -150.5t-152 -82.5 q67 -6 114.5 -48t47.5 -108q0 -76 -31.5 -135t-86.5 -95t-123.5 -54.5t-147.5 -18.5q-63 0 -129.5 19.5t-101.5 39.5l-36 19l58 121q12 -7 34 -17.5t83.5 -27.5t117.5 -17q85 0 137 38t52 106q0 104 -164 104h-92l18 125h94q91 0 143 36.5t52 109.5q0 92 -129 92 q-38 0 -73 -4.5t-51 -9.5l-15 -5l-25 -98h-117z" />
<glyph unicode="&#xbf;" horiz-adv-x="927" d="M504 952q0 72 42 123t116 51q112 0 112 -112q0 -71 -41.5 -122.5t-118.5 -51.5q-110 0 -110 112zM686 635v-131q0 -55 -25 -106.5t-64.5 -91.5t-87.5 -79t-96 -77t-87.5 -77.5t-64.5 -88t-25 -101.5q0 -70 52 -101.5t136 -31.5q45 0 99 6t85 12l31 7l10 -148 q-147 -47 -280 -47q-73 0 -133 13t-110 42.5t-78 83t-28 127.5q0 71 27 136t70 115.5t95 97.5t104 88t95 80t70 82t27 85v93z" />
<glyph unicode="&#xc0;" horiz-adv-x="1458" d="M639 1716l76 162l446 -250l-55 -112zM430 389l-113 -227l172 -39l-20 -123h-543l19 123l174 41l655 1259l203 11l246 -1276l139 -35l-21 -123h-542l18 123l176 41l-41 225h-522zM924 553l-105 616l-309 -616h414z" />
<glyph unicode="&#xc1;" horiz-adv-x="1458" d="M819 1528l-53 108l444 248l76 -162zM430 389l-113 -227l172 -39l-20 -123h-543l19 123l174 41l655 1259l203 11l246 -1276l139 -35l-21 -123h-542l18 123l176 41l-41 225h-522zM924 553l-105 616l-309 -616h414z" />
<glyph unicode="&#xc2;" horiz-adv-x="1458" d="M938 1706l-305 -170l-66 92l330 225l121 11l252 -236l-96 -92zM430 389l-113 -227l172 -39l-20 -123h-543l19 123l174 41l655 1259l203 11l246 -1276l139 -35l-21 -123h-542l18 123l176 41l-41 225h-522zM924 553l-105 616l-309 -616h414z" />
<glyph unicode="&#xc3;" horiz-adv-x="1458" d="M612 1569l-59 61q5 8 13 21t35 46t54.5 58.5t69 46.5t80.5 21q58 0 117.5 -23.5t114.5 -47t104 -23.5q36 0 72 21.5t53 43.5l18 21l62 -62q-4 -7 -11.5 -19.5t-32.5 -44.5t-52 -56t-67 -44t-79 -20q-58 0 -117 22.5t-114 45t-105 22.5q-36 0 -75 -22.5t-60 -44.5z M430 389l-113 -227l172 -39l-20 -123h-543l19 123l174 41l655 1259l203 11l246 -1276l139 -35l-21 -123h-542l18 123l176 41l-41 225h-522zM924 553l-105 616l-309 -616h414z" />
<glyph unicode="&#xc4;" horiz-adv-x="1458" d="M430 389l-113 -227l172 -39l-20 -123h-543l19 123l174 41l655 1259l203 11l246 -1276l139 -35l-21 -123h-542l18 123l176 41l-41 225h-522zM924 553l-105 616l-309 -616h414zM616 1659q0 63 37 108t95 45q44 0 69 -25t25 -69q0 -62 -38.5 -106.5t-94.5 -44.5 q-43 0 -68 24.5t-25 67.5zM1028 1659q0 64 36.5 108.5t94.5 44.5q44 0 69 -25t25 -69q0 -62 -38.5 -106.5t-94.5 -44.5q-43 0 -67.5 24.5t-24.5 67.5z" />
<glyph unicode="&#xc5;" horiz-adv-x="1458" d="M1362 123l-21 -123h-542l18 123l176 41l-41 225h-522l-113 -227l172 -39l-20 -123h-543l19 123l174 41l653 1257q-92 52 -92 160t81.5 191t188.5 83q83 0 141 -49.5t58 -136.5q0 -80 -47.5 -149.5t-120.5 -102.5l242 -1259zM936 1753q-59 0 -97 -48t-38 -112 q0 -46 24 -71t70 -25q59 0 96 47.5t37 112.5q0 96 -92 96zM924 553l-105 616l-309 -616h414z" />
<glyph unicode="&#xc6;" horiz-adv-x="1916" d="M688 1311l19 112l391 11h823l-55 -349h-115l-20 185h-453l-72 -441h467l-24 -163h-467l-80 -502h465l75 209h136l-64 -373h-1018l21 123l180 41l41 256h-444l-170 -262l153 -35l-20 -123h-533l21 123l174 41l731 1106zM598 584h365l110 686h-35z" />
<glyph unicode="&#xc7;" horiz-adv-x="1306" d="M1184 1004l-25 225q-128 51 -274 51q-119 0 -221.5 -62.5t-170.5 -166t-106.5 -237t-38.5 -275.5q0 -169 89 -272t235 -103q74 0 148 16.5t133.5 43t100 49t72.5 46.5l74 -120q-242 -189 -493 -215l-13 -72q69 -12 108.5 -51t39.5 -97q0 -90 -70 -151.5t-164 -61.5 q-62 0 -115 12t-75 24l-23 12l62 84q63 -33 135 -33q48 0 83.5 28t35.5 72q0 41 -39 64.5t-111 23.5l23 144q-216 13 -338.5 152t-122.5 366q0 207 61 385t167.5 303t255 195.5t319.5 70.5q100 0 208 -25.5t166 -50.5l58 -26l-55 -348h-119z" />
<glyph unicode="&#xc8;" d="M500 1724l75 162l447 -250l-55 -112zM225 1311l19 112l381 11h616l-55 -349h-115l-20 185h-453l-72 -441h467l-24 -163h-467l-80 -502h465l76 209h135l-64 -373h-1018l21 123l180 41l176 1106z" />
<glyph unicode="&#xc9;" d="M674 1528l-53 108l444 248l76 -162zM225 1311l19 112l381 11h616l-55 -349h-115l-20 185h-453l-72 -441h467l-24 -163h-467l-80 -502h465l76 209h135l-64 -373h-1018l21 123l180 41l176 1106z" />
<glyph unicode="&#xca;" d="M825 1706l-305 -170l-65 92l329 225l121 11l252 -236l-96 -92zM225 1311l19 112l381 11h616l-55 -349h-115l-20 185h-453l-72 -441h467l-24 -163h-467l-80 -502h465l76 209h135l-64 -373h-1018l21 123l180 41l176 1106z" />
<glyph unicode="&#xcb;" d="M492 1659q0 64 36.5 108.5t94.5 44.5q44 0 69 -25t25 -69q0 -62 -38.5 -106.5t-94.5 -44.5q-43 0 -67.5 24.5t-24.5 67.5zM903 1659q0 64 36.5 108.5t94.5 44.5q44 0 69 -25t25 -69q0 -62 -38.5 -106.5t-94.5 -44.5q-43 0 -67.5 24.5t-24.5 67.5zM225 1311l19 112l381 11 h616l-55 -349h-115l-20 185h-453l-72 -441h467l-24 -163h-467l-80 -502h465l76 209h135l-64 -373h-1018l21 123l180 41l176 1106z" />
<glyph unicode="&#xcc;" horiz-adv-x="743" d="M231 1724l76 162l447 -250l-56 -112zM215 1311l18 112l560 11l-21 -123l-180 -41l-178 -1106l172 -41l-21 -123h-559l21 123l184 41l176 1106z" />
<glyph unicode="&#xcd;" horiz-adv-x="743" d="M428 1528l-53 108l444 248l76 -162zM215 1311l18 112l560 11l-21 -123l-180 -41l-178 -1106l172 -41l-21 -123h-559l21 123l184 41l176 1106z" />
<glyph unicode="&#xce;" horiz-adv-x="743" d="M573 1706l-294 -170l-66 92l319 225l121 11l242 -236l-96 -92zM215 1311l18 112l560 11l-21 -123l-180 -41l-178 -1106l172 -41l-21 -123h-559l21 123l184 41l176 1106z" />
<glyph unicode="&#xcf;" horiz-adv-x="743" d="M248 1659q0 64 36.5 108.5t94.5 44.5q44 0 69 -25t25 -69q0 -62 -38.5 -106.5t-94.5 -44.5q-43 0 -67.5 24.5t-24.5 67.5zM659 1659q0 63 37 108t95 45q44 0 69 -25t25 -69q0 -62 -38.5 -106.5t-94.5 -44.5q-43 0 -68 24.5t-25 67.5zM215 1311l18 112l560 11l-21 -123 l-180 -41l-178 -1106l172 -41l-21 -123h-559l21 123l184 41l176 1106z" />
<glyph unicode="&#xd0;" horiz-adv-x="1456" d="M309 829l72 441l-166 41l18 112l379 11h265q229 0 370.5 -129.5t141.5 -352.5q0 -454 -226 -703t-614 -249h-543l21 123l176 39l82 504h-172l26 163h170zM412 164h168q186 0 321.5 97t204 268t68.5 397q0 163 -84.5 253.5t-243.5 90.5h-258l-72 -441h311l-22 -163h-313z " />
<glyph unicode="&#xd1;" horiz-adv-x="1597" d="M606 1569l-59 61q5 8 13 21t35 46t54.5 58.5t69 46.5t80.5 21q58 0 117.5 -23.5t114.5 -47t104 -23.5q36 0 72 21.5t53 43.5l18 21l61 -62q-4 -7 -11.5 -19.5t-32.5 -44.5t-51.5 -56t-66.5 -44t-79 -20q-58 0 -117 22.5t-114 45t-105 22.5q-36 0 -75 -22.5t-60 -44.5z M207 1311l170 -41l-176 -1106l-183 -41l-22 -123h532l23 123l-168 41l158 989l499 -1153h232l201 1270l174 41l20 123l-522 -11l-19 -112l164 -41l-155 -981l-480 1145l-430 -11z" />
<glyph unicode="&#xd2;" horiz-adv-x="1505" d="M618 1724l76 162l447 -250l-56 -112zM612 -20q175 0 327 68.5t263 192.5t174.5 307.5t63.5 403.5q0 226 -137 364t-381 138q-170 0 -318 -71.5t-255 -198.5t-168.5 -309.5t-61.5 -395.5q0 -232 132 -365.5t361 -133.5zM1214 926q0 -217 -70 -393t-198 -277.5t-289 -101.5 q-147 0 -230 88.5t-83 257.5q0 210 66 387t191.5 285t285.5 108q153 0 240 -86.5t87 -267.5z" />
<glyph unicode="&#xd3;" horiz-adv-x="1505" d="M854 1528l-53 108l444 248l76 -162zM612 -20q175 0 327 68.5t263 192.5t174.5 307.5t63.5 403.5q0 226 -137 364t-381 138q-170 0 -318 -71.5t-255 -198.5t-168.5 -309.5t-61.5 -395.5q0 -232 132 -365.5t361 -133.5zM1214 926q0 -217 -70 -393t-198 -277.5t-289 -101.5 q-147 0 -230 88.5t-83 257.5q0 210 66 387t191.5 285t285.5 108q153 0 240 -86.5t87 -267.5z" />
<glyph unicode="&#xd4;" horiz-adv-x="1505" d="M926 1706l-305 -170l-66 92l330 225l121 11l251 -236l-96 -92zM612 -20q175 0 327 68.5t263 192.5t174.5 307.5t63.5 403.5q0 226 -137 364t-381 138q-170 0 -318 -71.5t-255 -198.5t-168.5 -309.5t-61.5 -395.5q0 -232 132 -365.5t361 -133.5zM1214 926q0 -217 -70 -393 t-198 -277.5t-289 -101.5q-147 0 -230 88.5t-83 257.5q0 210 66 387t191.5 285t285.5 108q153 0 240 -86.5t87 -267.5z" />
<glyph unicode="&#xd5;" horiz-adv-x="1505" d="M612 1569l-59 61q5 8 13 21t35 46t54.5 58.5t69 46.5t80.5 21q58 0 117.5 -23.5t114.5 -47t104 -23.5q36 0 72 21.5t53 43.5l18 21l62 -62q-4 -7 -11.5 -19.5t-32.5 -44.5t-52 -56t-67 -44t-79 -20q-58 0 -117 22.5t-114 45t-105 22.5q-36 0 -75 -22.5t-60 -44.5z M612 -20q175 0 327 68.5t263 192.5t174.5 307.5t63.5 403.5q0 226 -137 364t-381 138q-170 0 -318 -71.5t-255 -198.5t-168.5 -309.5t-61.5 -395.5q0 -232 132 -365.5t361 -133.5zM1214 926q0 -217 -70 -393t-198 -277.5t-289 -101.5q-147 0 -230 88.5t-83 257.5 q0 210 66 387t191.5 285t285.5 108q153 0 240 -86.5t87 -267.5z" />
<glyph unicode="&#xd6;" horiz-adv-x="1505" d="M612 -20q175 0 327 68.5t263 192.5t174.5 307.5t63.5 403.5q0 226 -137 364t-381 138q-170 0 -318 -71.5t-255 -198.5t-168.5 -309.5t-61.5 -395.5q0 -232 132 -365.5t361 -133.5zM629 1659q0 64 36.5 108.5t94.5 44.5q44 0 69 -25t25 -69q0 -62 -38.5 -106.5 t-94.5 -44.5q-43 0 -67.5 24.5t-24.5 67.5zM1040 1659q0 64 36.5 108.5t94.5 44.5q44 0 69.5 -25t25.5 -69q0 -62 -38.5 -106.5t-94.5 -44.5q-43 0 -68 24.5t-25 67.5zM1214 926q0 -217 -70 -393t-198 -277.5t-289 -101.5q-147 0 -230 88.5t-83 257.5q0 210 66 387 t191.5 285t285.5 108q153 0 240 -86.5t87 -267.5z" />
<glyph unicode="&#xd7;" horiz-adv-x="1288" d="M662 657l430 377l94 -114l-428 -377l307 -377l-131 -115l-307 377l-430 -377l-95 115l430 377l-309 377l131 114z" />
<glyph unicode="&#xd8;" horiz-adv-x="1505" d="M1477 1536l-170 -227q125 -128 125 -336q0 -227 -62 -415t-171 -314t-259.5 -195t-325.5 -69q-147 0 -256 59l-190 -254l-119 72l201 268q-119 135 -119 354q0 213 60 395.5t165 309.5t251.5 198.5t316.5 71.5q157 0 274 -63l162 217zM385 305l696 932q-71 43 -192 43 q-160 0 -285.5 -108t-191.5 -285t-66 -387q0 -115 39 -195zM1178 1135l-701 -934q70 -47 182 -47q162 0 289.5 102t198 282.5t70.5 407.5q0 113 -39 189z" />
<glyph unicode="&#xd9;" horiz-adv-x="1566" d="M606 1724l76 162l446 -250l-55 -112zM1444 1270l-107 -666q-18 -118 -49.5 -211t-83 -172t-122.5 -131t-170.5 -81t-223.5 -29t-213 29.5t-140 85t-74 128t-23 166.5q0 64 14 164l115 717l-174 41l18 112l561 11l-20 -123l-179 -41l-114 -717q-13 -80 -13 -141 q0 -124 62.5 -191t218.5 -67q183 0 272.5 98.5t126.5 331.5l111 686l-184 41l18 112l565 11l-20 -123z" />
<glyph unicode="&#xda;" horiz-adv-x="1566" d="M821 1528l-53 108l444 248l76 -162zM1444 1270l-107 -666q-18 -118 -49.5 -211t-83 -172t-122.5 -131t-170.5 -81t-223.5 -29t-213 29.5t-140 85t-74 128t-23 166.5q0 64 14 164l115 717l-174 41l18 112l561 11l-20 -123l-179 -41l-114 -717q-13 -80 -13 -141 q0 -124 62.5 -191t218.5 -67q183 0 272.5 98.5t126.5 331.5l111 686l-184 41l18 112l565 11l-20 -123z" />
<glyph unicode="&#xdb;" horiz-adv-x="1566" d="M944 1706l-305 -170l-66 92l330 225l121 11l252 -236l-96 -92zM1444 1270l-107 -666q-18 -118 -49.5 -211t-83 -172t-122.5 -131t-170.5 -81t-223.5 -29t-213 29.5t-140 85t-74 128t-23 166.5q0 64 14 164l115 717l-174 41l18 112l561 11l-20 -123l-179 -41l-114 -717 q-13 -80 -13 -141q0 -124 62.5 -191t218.5 -67q183 0 272.5 98.5t126.5 331.5l111 686l-184 41l18 112l565 11l-20 -123z" />
<glyph unicode="&#xdc;" horiz-adv-x="1566" d="M645 1659q0 64 36.5 108.5t94.5 44.5q44 0 69 -25t25 -69q0 -62 -38.5 -106.5t-94.5 -44.5q-43 0 -67.5 24.5t-24.5 67.5zM1057 1659q0 64 36.5 108.5t94.5 44.5q44 0 69 -25t25 -69q0 -62 -38.5 -106.5t-94.5 -44.5q-43 0 -67.5 24.5t-24.5 67.5zM1444 1270l-107 -666 q-18 -118 -49.5 -211t-83 -172t-122.5 -131t-170.5 -81t-223.5 -29t-213 29.5t-140 85t-74 128t-23 166.5q0 64 14 164l115 717l-174 41l18 112l561 11l-20 -123l-179 -41l-114 -717q-13 -80 -13 -141q0 -124 62.5 -191t218.5 -67q183 0 272.5 98.5t126.5 331.5l111 686 l-184 41l18 112l565 11l-20 -123z" />
<glyph unicode="&#xdd;" horiz-adv-x="1241" d="M719 1528l-53 108l444 248l76 -162zM272 1270l-172 41l19 112l317 11l205 -750l344 588l-184 39l20 112l551 11l-20 -123l-164 -41l-506 -797l-49 -309l170 -41l-21 -123h-559l21 123l184 41l57 373z" />
<glyph unicode="&#xde;" horiz-adv-x="1196" d="M563 1157h213q192 0 296 -80t104 -227q0 -245 -166.5 -389t-438.5 -144h-143l-25 -153l168 -41l-20 -123h-553l18 123l181 41l176 1106l-166 41l16 112l557 11l-20 -123l-178 -41zM455 481h147q173 0 271 83.5t98 236.5q0 192 -232 192h-202z" />
<glyph unicode="&#xdf;" horiz-adv-x="1380" d="M88 922l21 133l217 20l10 58q40 220 175.5 342t342.5 122q118 0 206 -25.5t144 -87.5t56 -157q0 -59 -19 -110.5t-48.5 -88t-66 -69t-73 -60.5t-66 -55t-48.5 -59.5t-19 -67.5q0 -38 21.5 -68.5t56 -52t76.5 -42t83.5 -44.5t76 -53t56 -74t21.5 -102q0 -110 -71 -204 t-180 -145.5t-224 -51.5q-76 0 -149.5 11t-108.5 23l-35 11l47 294h129l6 -165q37 -21 133 -21q101 0 167.5 52t66.5 132q0 38 -21.5 68.5t-55.5 52.5t-75.5 43.5t-82.5 45.5t-75 53t-55.5 72.5t-21.5 97.5q0 66 19 120t50 90.5t68 68t74 58.5t68 55.5t50 65.5t19 82 q0 154 -213 154q-110 0 -195.5 -75t-107.5 -214l-195 -1196q-16 -101 -46 -179t-79.5 -141.5t-126 -97t-176.5 -33.5q-36 0 -75 5t-60 11l-21 5l27 145h115q103 0 162 60t79 184l160 1004h-213z" />
<glyph unicode="&#xe0;" horiz-adv-x="1214" d="M467 1645l422 -302l-64 -108l-446 256zM1090 20l-381 -20l82 377q-7 -14 -15.5 -30.5t-34 -58.5t-52 -78.5t-68 -80.5t-83.5 -75t-96.5 -52.5t-109.5 -21.5q-116 0 -192.5 102t-76.5 256q0 146 34 272t92.5 216t136.5 154t166.5 95t181.5 31q59 0 116.5 -15.5t85.5 -30.5 l27 -16l62 41h112l-147 -921l178 -31zM817 707l41 215q-78 30 -184 30q-60 0 -117 -21t-110 -67t-92.5 -112.5t-63 -165t-23.5 -217.5q0 -104 34.5 -159.5t90.5 -55.5q50 0 100.5 30.5t91 79.5t78 107.5t65 117.5t48 108t30.5 79z" />
<glyph unicode="&#xe1;" horiz-adv-x="1214" d="M526 1327l422 301l88 -153l-446 -256zM1090 20l-381 -20l82 377q-7 -14 -15.5 -30.5t-34 -58.5t-52 -78.5t-68 -80.5t-83.5 -75t-96.5 -52.5t-109.5 -21.5q-116 0 -192.5 102t-76.5 256q0 146 34 272t92.5 216t136.5 154t166.5 95t181.5 31q59 0 116.5 -15.5t85.5 -30.5 l27 -16l62 41h112l-147 -921l178 -31zM817 707l41 215q-78 30 -184 30q-60 0 -117 -21t-110 -67t-92.5 -112.5t-63 -165t-23.5 -217.5q0 -104 34.5 -159.5t90.5 -55.5q50 0 100.5 30.5t91 79.5t78 107.5t65 117.5t48 108t30.5 79z" />
<glyph unicode="&#xe2;" horiz-adv-x="1214" d="M424 1264l-68 92l332 266l121 10l250 -276l-94 -92l-236 200zM1090 20l-381 -20l82 377q-7 -14 -15.5 -30.5t-34 -58.5t-52 -78.5t-68 -80.5t-83.5 -75t-96.5 -52.5t-109.5 -21.5q-116 0 -192.5 102t-76.5 256q0 146 34 272t92.5 216t136.5 154t166.5 95t181.5 31 q59 0 116.5 -15.5t85.5 -30.5l27 -16l62 41h112l-147 -921l178 -31zM817 707l41 215q-78 30 -184 30q-60 0 -117 -21t-110 -67t-92.5 -112.5t-63 -165t-23.5 -217.5q0 -104 34.5 -159.5t90.5 -55.5q50 0 100.5 30.5t91 79.5t78 107.5t65 117.5t48 108t30.5 79z" />
<glyph unicode="&#xe3;" horiz-adv-x="1214" d="M393 1300l-57 72q5 8 13 21t35 46t54.5 58.5t69 46.5t80.5 21q47 0 92.5 -15t76 -32.5t72.5 -32.5t82 -15q22 0 45.5 9t40.5 21.5t31 25t22 21.5l7 9l59 -71q-4 -8 -11.5 -20t-32.5 -44t-52 -56.5t-67 -44.5t-79 -20q-47 0 -93 14t-77 31.5t-73.5 31.5t-81.5 14 q-36 0 -75 -22.5t-60 -45.5zM1090 20l-381 -20l82 377q-7 -14 -15.5 -30.5t-34 -58.5t-52 -78.5t-68 -80.5t-83.5 -75t-96.5 -52.5t-109.5 -21.5q-116 0 -192.5 102t-76.5 256q0 146 34 272t92.5 216t136.5 154t166.5 95t181.5 31q59 0 116.5 -15.5t85.5 -30.5l27 -16l62 41 h112l-147 -921l178 -31zM817 707l41 215q-78 30 -184 30q-60 0 -117 -21t-110 -67t-92.5 -112.5t-63 -165t-23.5 -217.5q0 -104 34.5 -159.5t90.5 -55.5q50 0 100.5 30.5t91 79.5t78 107.5t65 117.5t48 108t30.5 79z" />
<glyph unicode="&#xe4;" horiz-adv-x="1214" d="M1090 20l-381 -20l82 377q-7 -14 -15.5 -30.5t-34 -58.5t-52 -78.5t-68 -80.5t-83.5 -75t-96.5 -52.5t-109.5 -21.5q-116 0 -192.5 102t-76.5 256q0 146 34 272t92.5 216t136.5 154t166.5 95t181.5 31q59 0 116.5 -15.5t85.5 -30.5l27 -16l62 41h112l-147 -921l178 -31z M817 707l41 215q-78 30 -184 30q-60 0 -117 -21t-110 -67t-92.5 -112.5t-63 -165t-23.5 -217.5q0 -104 34.5 -159.5t90.5 -55.5q50 0 100.5 30.5t91 79.5t78 107.5t65 117.5t48 108t30.5 79zM410 1403q0 64 36.5 108.5t94.5 44.5q44 0 69 -25t25 -69q0 -62 -38.5 -106.5 t-94.5 -44.5q-43 0 -67.5 24.5t-24.5 67.5zM821 1403q0 64 36.5 108.5t94.5 44.5q44 0 69.5 -25t25.5 -69q0 -62 -39 -106.5t-95 -44.5q-43 0 -67.5 24.5t-24.5 67.5z" />
<glyph unicode="&#xe5;" horiz-adv-x="1214" d="M594 1405q0 108 81.5 191t188.5 83q83 0 141 -49.5t58 -136.5q0 -108 -81.5 -191t-188.5 -83q-86 0 -142.5 51.5t-56.5 134.5zM850 1577q-59 0 -97 -48t-38 -112q0 -46 24 -71t70 -25q59 0 96 47.5t37 112.5q0 96 -92 96zM1090 20l-381 -20l82 377q-7 -14 -15.5 -30.5 t-34 -58.5t-52 -78.5t-68 -80.5t-83.5 -75t-96.5 -52.5t-109.5 -21.5q-116 0 -192.5 102t-76.5 256q0 146 34 272t92.5 216t136.5 154t166.5 95t181.5 31q59 0 116.5 -15.5t85.5 -30.5l27 -16l62 41h112l-147 -921l178 -31zM817 707l41 215q-78 30 -184 30q-60 0 -117 -21 t-110 -67t-92.5 -112.5t-63 -165t-23.5 -217.5q0 -104 34.5 -159.5t90.5 -55.5q50 0 100.5 30.5t91 79.5t78 107.5t65 117.5t48 108t30.5 79z" />
<glyph unicode="&#xe6;" horiz-adv-x="1595" d="M190 768l33 256q24 9 64.5 22.5t145 36.5t185.5 23q126 0 193 -37.5t84 -122.5q147 160 348 160q155 0 246.5 -72t91.5 -194q0 -181 -193.5 -282t-517.5 -101q-6 -50 -6 -92q0 -114 55 -168t171 -54q67 0 148.5 23.5t129.5 46.5l49 23l62 -105q-9 -6 -24.5 -16.5 t-64.5 -36.5t-99 -45.5t-122.5 -36t-140.5 -16.5q-127 0 -210 57t-116 160q-77 -96 -186 -156.5t-213 -60.5q-117 0 -186.5 65.5t-69.5 179.5q0 186 134 279.5t368 93.5h156l26 170q4 28 4 41q0 70 -42 106.5t-120 36.5q-56 0 -108 -7.5t-76 -14.5l-24 -8l-58 -154h-117z M889 600q225 0 361 56.5t136 162.5q0 133 -153 133q-112 0 -208 -99.5t-136 -252.5zM684 465h-137q-305 0 -305 -199q0 -53 39 -88t94 -35q73 0 142.5 50.5t113 124t53.5 147.5z" />
<glyph unicode="&#xe7;" horiz-adv-x="931" d="M780 748l-6 174q-49 20 -133 20q-112 0 -198 -82t-128.5 -211t-42.5 -280q0 -113 50.5 -169.5t144.5 -56.5q64 0 140.5 23.5t121.5 46.5l45 23l62 -103q-17 -12 -46.5 -31.5t-113.5 -58.5t-160 -55l-12 -76q69 -12 108 -51t39 -97q0 -90 -69.5 -151.5t-163.5 -61.5 q-62 0 -115 12t-75 24l-23 12l61 84q63 -33 135 -33q48 0 83.5 28t35.5 72q0 42 -39 65t-110 23l22 144q-146 9 -235.5 107.5t-89.5 268.5q0 222 78.5 393t215.5 263t310 92q73 0 144.5 -20.5t106.5 -41.5l35 -20l-45 -276h-133z" />
<glyph unicode="&#xe8;" horiz-adv-x="1015" d="M461 1645l422 -302l-64 -108l-446 256zM827 236l62 -105q-9 -6 -25 -16.5t-66.5 -36.5t-102 -45.5t-124.5 -36t-141 -16.5q-169 0 -269 99.5t-100 268.5q0 156 47 297t126.5 241.5t189 160t229.5 59.5q155 0 246.5 -72t91.5 -194q0 -117 -91 -207t-254.5 -139.5 t-373.5 -49.5q-6 -47 -6 -88q0 -109 55.5 -161t170.5 -52q67 0 150.5 23.5t133.5 46.5zM291 588q219 0 362.5 65t143.5 166q0 133 -154 133q-113 0 -213 -102t-139 -262z" />
<glyph unicode="&#xe9;" horiz-adv-x="1015" d="M487 1327l422 301l88 -153l-446 -256zM827 236l62 -105q-9 -6 -25 -16.5t-66.5 -36.5t-102 -45.5t-124.5 -36t-141 -16.5q-169 0 -269 99.5t-100 268.5q0 156 47 297t126.5 241.5t189 160t229.5 59.5q155 0 246.5 -72t91.5 -194q0 -117 -91 -207t-254.5 -139.5 t-373.5 -49.5q-6 -47 -6 -88q0 -109 55.5 -161t170.5 -52q67 0 150.5 23.5t133.5 46.5zM291 588q219 0 362.5 65t143.5 166q0 133 -154 133q-113 0 -213 -102t-139 -262z" />
<glyph unicode="&#xea;" horiz-adv-x="1015" d="M354 1264l-67 92l331 266l121 10l250 -276l-94 -92l-236 200zM827 236l62 -105q-9 -6 -25 -16.5t-66.5 -36.5t-102 -45.5t-124.5 -36t-141 -16.5q-169 0 -269 99.5t-100 268.5q0 156 47 297t126.5 241.5t189 160t229.5 59.5q155 0 246.5 -72t91.5 -194q0 -117 -91 -207 t-254.5 -139.5t-373.5 -49.5q-6 -47 -6 -88q0 -109 55.5 -161t170.5 -52q67 0 150.5 23.5t133.5 46.5zM291 588q219 0 362.5 65t143.5 166q0 133 -154 133q-113 0 -213 -102t-139 -262z" />
<glyph unicode="&#xeb;" horiz-adv-x="1015" d="M827 236l62 -105q-9 -6 -25 -16.5t-66.5 -36.5t-102 -45.5t-124.5 -36t-141 -16.5q-169 0 -269 99.5t-100 268.5q0 156 47 297t126.5 241.5t189 160t229.5 59.5q155 0 246.5 -72t91.5 -194q0 -117 -91 -207t-254.5 -139.5t-373.5 -49.5q-6 -47 -6 -88q0 -109 55.5 -161 t170.5 -52q67 0 150.5 23.5t133.5 46.5zM291 588q219 0 362.5 65t143.5 166q0 133 -154 133q-113 0 -213 -102t-139 -262zM383 1403q0 64 36.5 108.5t94.5 44.5q44 0 69 -25t25 -69q0 -62 -38.5 -106.5t-94.5 -44.5q-43 0 -67.5 24.5t-24.5 67.5zM795 1403q0 64 36.5 108.5 t94.5 44.5q44 0 69 -25t25 -69q0 -62 -38.5 -106.5t-94.5 -44.5q-43 0 -67.5 24.5t-24.5 67.5z" />
<glyph unicode="&#xec;" horiz-adv-x="585" d="M217 1645l422 -302l-64 -108l-446 256zM516 20l19 113l-175 31l148 921l-375 -10l-20 -112l174 -41l-148 -922z" />
<glyph unicode="&#xed;" horiz-adv-x="585" d="M266 1327l422 301l88 -153l-446 -256zM516 20l19 113l-175 31l148 921l-375 -10l-20 -112l174 -41l-148 -922z" />
<glyph unicode="&#xee;" horiz-adv-x="585" d="M147 1253l-65 93l332 276l121 10l243 -286l-94 -93l-229 222zM516 20l19 113l-175 31l148 921l-375 -10l-20 -112l174 -41l-148 -922z" />
<glyph unicode="&#xef;" horiz-adv-x="585" d="M127 1403q0 64 36.5 108.5t94.5 44.5q44 0 69 -25t25 -69q0 -62 -38.5 -106.5t-94.5 -44.5q-43 0 -67.5 24.5t-24.5 67.5zM518 1403q0 64 36.5 108.5t94.5 44.5q44 0 69 -25t25 -69q0 -62 -38.5 -106.5t-94.5 -44.5q-43 0 -67.5 24.5t-24.5 67.5zM516 20l19 113l-175 31 l148 921l-375 -10l-20 -112l174 -41l-148 -922z" />
<glyph unicode="&#xf0;" horiz-adv-x="1163" d="M1090 1493l-203 -109q205 -218 205 -598q0 -137 -23.5 -257t-73.5 -221.5t-124 -174t-179.5 -113t-234.5 -40.5q-183 0 -286 106.5t-103 292.5q0 192 74.5 346.5t208 242t300.5 87.5q68 0 129 -21.5t88 -43.5l27 -21q-43 205 -172 331l-283 -153l-61 110l239 132 q-60 38 -192 86l80 129q155 -39 278 -125l242 127zM631 891q-114 0 -194 -68.5t-117 -177.5t-37 -246q0 -120 56.5 -188t168.5 -68q93 0 164 42t112.5 113.5t62.5 159.5t21 187q0 246 -237 246z" />
<glyph unicode="&#xf1;" horiz-adv-x="1298" d="M459 1300l-58 72q5 8 13 21t35 46t54.5 58.5t69 46.5t80.5 21q47 0 92.5 -15t76.5 -32.5t73 -32.5t82 -15q36 0 72 21.5t55 42.5l18 22l60 -71q-4 -8 -11.5 -20t-32.5 -44t-52 -56.5t-67 -44.5t-79 -20q-58 0 -115 23t-109.5 45.5t-101.5 22.5q-23 0 -47.5 -9.5 t-43 -22.5t-33.5 -26.5t-23 -22.5zM807 0l115 707q8 62 8 90q0 135 -107 135q-54 0 -107.5 -31t-96 -80.5t-80.5 -109.5t-65.5 -120.5t-48 -110t-30.5 -80.5l-10 -31l-59 -369h-195l148 922l-173 41l19 112l375 10l-92 -397q6 13 14.5 31t34 61.5t53.5 82.5t72 85t90.5 79.5 t107.5 56t125 22.5q228 0 228 -252q0 -42 -11 -117l-94 -573l174 -31l-18 -113z" />
<glyph unicode="&#xf2;" horiz-adv-x="1126" d="M485 1645l422 -302l-63 -108l-447 256zM446 -20q131 0 243.5 50.5t194 142.5t127.5 228.5t46 300.5q0 181 -100.5 292.5t-284.5 111.5q-266 0 -434 -200t-168 -521q0 -185 101 -295t275 -110zM854 707q0 -165 -42.5 -291.5t-127.5 -199.5t-201 -73q-97 0 -153 58.5 t-56 177.5q0 153 39 278t123 205t199 80q100 0 159.5 -56t59.5 -179z" />
<glyph unicode="&#xf3;" horiz-adv-x="1126" d="M506 1327l422 301l88 -153l-447 -256zM446 -20q131 0 243.5 50.5t194 142.5t127.5 228.5t46 300.5q0 181 -100.5 292.5t-284.5 111.5q-266 0 -434 -200t-168 -521q0 -185 101 -295t275 -110zM854 707q0 -165 -42.5 -291.5t-127.5 -199.5t-201 -73q-97 0 -153 58.5 t-56 177.5q0 153 39 278t123 205t199 80q100 0 159.5 -56t59.5 -179z" />
<glyph unicode="&#xf4;" horiz-adv-x="1126" d="M430 1264l-68 92l332 266l121 10l250 -276l-94 -92l-236 200zM446 -20q131 0 243.5 50.5t194 142.5t127.5 228.5t46 300.5q0 181 -100.5 292.5t-284.5 111.5q-266 0 -434 -200t-168 -521q0 -185 101 -295t275 -110zM854 707q0 -165 -42.5 -291.5t-127.5 -199.5t-201 -73 q-97 0 -153 58.5t-56 177.5q0 153 39 278t123 205t199 80q100 0 159.5 -56t59.5 -179z" />
<glyph unicode="&#xf5;" horiz-adv-x="1126" d="M387 1300l-57 72q5 8 13 21t35 46t54.5 58.5t69 46.5t80.5 21q47 0 92.5 -15t76 -32.5t72.5 -32.5t82 -15q22 0 45.5 9t40.5 21.5t31 25t22 21.5l7 9l59 -71q-4 -8 -11.5 -20t-32.5 -44t-52 -56.5t-67 -44.5t-79 -20q-47 0 -93 14t-77 31.5t-73.5 31.5t-81.5 14 q-36 0 -75 -22.5t-60 -45.5zM446 -20q131 0 243.5 50.5t194 142.5t127.5 228.5t46 300.5q0 181 -100.5 292.5t-284.5 111.5q-266 0 -434 -200t-168 -521q0 -185 101 -295t275 -110zM854 707q0 -165 -42.5 -291.5t-127.5 -199.5t-201 -73q-97 0 -153 58.5t-56 177.5 q0 153 39 278t123 205t199 80q100 0 159.5 -56t59.5 -179z" />
<glyph unicode="&#xf6;" horiz-adv-x="1126" d="M391 1403q0 64 36.5 108.5t94.5 44.5q44 0 69 -25t25 -69q0 -62 -38.5 -106.5t-94.5 -44.5q-43 0 -67.5 24.5t-24.5 67.5zM803 1403q0 64 36.5 108.5t94.5 44.5q44 0 69 -25t25 -69q0 -62 -38.5 -106.5t-94.5 -44.5q-43 0 -67.5 24.5t-24.5 67.5zM446 -20 q131 0 243.5 50.5t194 142.5t127.5 228.5t46 300.5q0 181 -100.5 292.5t-284.5 111.5q-266 0 -434 -200t-168 -521q0 -185 101 -295t275 -110zM854 707q0 -165 -42.5 -291.5t-127.5 -199.5t-201 -73q-97 0 -153 58.5t-56 177.5q0 153 39 278t123 205t199 80q100 0 159.5 -56 t59.5 -179z" />
<glyph unicode="&#xf7;" horiz-adv-x="1273" d="M567 932q0 72 42 123t116 51q54 0 83.5 -28.5t29.5 -84.5q0 -71 -41.5 -122.5t-118.5 -51.5q-111 0 -111 113zM1171 625l-24 -164h-1045l27 164h1042zM434 92q0 72 42 123t116 51q54 0 83.5 -28t29.5 -84q0 -71 -41.5 -122.5t-118.5 -51.5q-111 0 -111 112z" />
<glyph unicode="&#xf8;" horiz-adv-x="1187" d="M1171 1208l-163 -221q90 -104 90 -250q0 -173 -48 -316.5t-132 -239.5t-200 -148.5t-251 -52.5q-100 0 -178 38l-174 -233l-111 72l178 241q-90 104 -90 271q0 327 172 532t438 205q112 0 199 -41l160 215zM311 272l480 643q-53 27 -119 27q-116 0 -203 -79.5 t-129.5 -206t-42.5 -277.5q0 -66 14 -107zM877 811l-478 -643q48 -25 109 -25q176 0 280.5 157t104.5 407q0 58 -16 104z" />
<glyph unicode="&#xf9;" horiz-adv-x="1302" d="M498 1645l422 -302l-64 -108l-446 256zM801 0l84 397q-4 -11 -14 -31.5t-34 -62t-52.5 -81.5t-71.5 -85t-89 -79t-107 -56t-124 -22q-227 0 -227 249q0 61 17.5 177t86.5 516l-174 41l19 112l374 10q-78 -471 -99 -612.5t-21 -183.5q0 -135 106 -135q56 0 110 31t96 80.5 t79.5 109.5t64.5 120.5t47 110t30 80.5l9 31l62 368h194l-147 -921l176 -31l-18 -113z" />
<glyph unicode="&#xfa;" horiz-adv-x="1302" d="M537 1327l421 301l89 -153l-447 -256zM801 0l84 397q-4 -11 -14 -31.5t-34 -62t-52.5 -81.5t-71.5 -85t-89 -79t-107 -56t-124 -22q-227 0 -227 249q0 61 17.5 177t86.5 516l-174 41l19 112l374 10q-78 -471 -99 -612.5t-21 -183.5q0 -135 106 -135q56 0 110 31t96 80.5 t79.5 109.5t64.5 120.5t47 110t30 80.5l9 31l62 368h194l-147 -921l176 -31l-18 -113z" />
<glyph unicode="&#xfb;" horiz-adv-x="1302" d="M416 1264l-68 92l332 266l121 10l250 -276l-95 -92l-235 200zM801 0l84 397q-4 -11 -14 -31.5t-34 -62t-52.5 -81.5t-71.5 -85t-89 -79t-107 -56t-124 -22q-227 0 -227 249q0 61 17.5 177t86.5 516l-174 41l19 112l374 10q-78 -471 -99 -612.5t-21 -183.5 q0 -135 106 -135q56 0 110 31t96 80.5t79.5 109.5t64.5 120.5t47 110t30 80.5l9 31l62 368h194l-147 -921l176 -31l-18 -113z" />
<glyph unicode="&#xfc;" horiz-adv-x="1302" d="M406 1403q0 64 36.5 108.5t94.5 44.5q44 0 69 -25t25 -69q0 -62 -38.5 -106.5t-94.5 -44.5q-43 0 -67.5 24.5t-24.5 67.5zM817 1403q0 64 36.5 108.5t94.5 44.5q44 0 69 -25t25 -69q0 -62 -38.5 -106.5t-94.5 -44.5q-43 0 -67.5 24.5t-24.5 67.5zM801 0l84 397 q-4 -11 -14 -31.5t-34 -62t-52.5 -81.5t-71.5 -85t-89 -79t-107 -56t-124 -22q-227 0 -227 249q0 61 17.5 177t86.5 516l-174 41l19 112l374 10q-78 -471 -99 -612.5t-21 -183.5q0 -135 106 -135q56 0 110 31t96 80.5t79.5 109.5t64.5 120.5t47 110t30 80.5l9 31l62 368h194 l-147 -921l176 -31l-18 -113z" />
<glyph unicode="&#xfd;" horiz-adv-x="1079" d="M506 1327l422 301l88 -153l-447 -256zM1020 930l-365 -862q-48 -113 -81 -185t-71 -141.5t-70.5 -108.5t-72.5 -70t-83.5 -43t-98.5 -12q-52 0 -109.5 8t-89.5 16l-32 9l41 131q81 -10 153 -10q103 0 160 55t121 203l-266 1004l-142 39l23 112l309 10l172 -751l19 -139 l303 731l-154 37l19 112l450 10l-20 -122z" />
<glyph unicode="&#xfe;" horiz-adv-x="1183" d="M477 1085l-82 -376q6 16 22.5 51t58 98t90.5 115.5t124 92.5t154 40q67 0 120.5 -30t87 -81.5t51 -117.5t17.5 -140q0 -170 -53 -314.5t-141.5 -240t-203 -149t-237.5 -53.5q-69 0 -178 28l-49 -325l205 -41l-19 -113h-573l18 113l168 41l277 1730l-170 41l18 113l375 10 zM377 379l-43 -215q80 -31 172 -31q54 0 109.5 21.5t109.5 68t96 112t68 162.5t26 210q0 95 -35.5 160t-107.5 65q-51 0 -100.5 -30.5t-87.5 -79.5t-72 -107.5t-58 -117.5t-42 -108t-26 -79z" />
<glyph unicode="&#xff;" horiz-adv-x="1079" d="M315 1403q0 64 36.5 108.5t94.5 44.5q44 0 69.5 -25t25.5 -69q0 -62 -38.5 -106.5t-94.5 -44.5q-43 0 -68 24.5t-25 67.5zM727 1403q0 64 36.5 108.5t94.5 44.5q44 0 69 -25t25 -69q0 -62 -38.5 -106.5t-94.5 -44.5q-43 0 -67.5 24.5t-24.5 67.5zM1020 930l-365 -862 q-48 -113 -81 -185t-71 -141.5t-70.5 -108.5t-72.5 -70t-83.5 -43t-98.5 -12q-52 0 -109.5 8t-89.5 16l-32 9l41 131q81 -10 153 -10q103 0 160 55t121 203l-266 1004l-142 39l23 112l309 10l172 -751l19 -139l303 731l-154 37l19 112l450 10l-20 -122z" />
<glyph unicode="&#x100;" horiz-adv-x="1458" d="M1188 1751l-23 -154h-540l22 154h541zM430 389l-113 -227l172 -39l-20 -123h-543l19 123l174 41l655 1259l203 11l246 -1276l139 -35l-21 -123h-542l18 123l176 41l-41 225h-522zM924 553l-105 616l-309 -616h414z" />
<glyph unicode="&#x101;" horiz-adv-x="1214" d="M1008 1505l-23 -153h-541l23 153h541zM1090 20l-381 -20l82 377q-7 -14 -15.5 -30.5t-34 -58.5t-52 -78.5t-68 -80.5t-83.5 -75t-96.5 -52.5t-109.5 -21.5q-116 0 -192.5 102t-76.5 256q0 146 34 272t92.5 216t136.5 154t166.5 95t181.5 31q59 0 116.5 -15.5t85.5 -30.5 l27 -16l62 41h112l-147 -921l178 -31zM817 707l41 215q-78 30 -184 30q-60 0 -117 -21t-110 -67t-92.5 -112.5t-63 -165t-23.5 -217.5q0 -104 34.5 -159.5t90.5 -55.5q50 0 100.5 30.5t91 79.5t78 107.5t65 117.5t48 108t30.5 79z" />
<glyph unicode="&#x102;" horiz-adv-x="1458" d="M1112 1853l121 11q-21 -136 -118.5 -222t-219.5 -86q-98 0 -162.5 71t-64.5 173l4 53l121 11q0 -66 37 -110t100 -44q42 0 76 14.5t53 36t32 42.5t17 35zM430 389l-113 -227l172 -39l-20 -123h-543l19 123l174 41l655 1259l203 11l246 -1276l139 -35l-21 -123h-542 l18 123l176 41l-41 225h-522zM924 553l-105 616l-309 -616h414z" />
<glyph unicode="&#x103;" horiz-adv-x="1214" d="M967 1556l120 11q-21 -136 -118 -221.5t-219 -85.5q-98 0 -163 71t-65 172l4 53l121 11q0 -66 37 -110t100 -44q42 0 76.5 14.5t53 35.5t31.5 42.5t17 36.5zM1090 20l-381 -20l82 377q-7 -14 -15.5 -30.5t-34 -58.5t-52 -78.5t-68 -80.5t-83.5 -75t-96.5 -52.5 t-109.5 -21.5q-116 0 -192.5 102t-76.5 256q0 146 34 272t92.5 216t136.5 154t166.5 95t181.5 31q59 0 116.5 -15.5t85.5 -30.5l27 -16l62 41h112l-147 -921l178 -31zM817 707l41 215q-78 30 -184 30q-60 0 -117 -21t-110 -67t-92.5 -112.5t-63 -165t-23.5 -217.5 q0 -104 34.5 -159.5t90.5 -55.5q50 0 100.5 30.5t91 79.5t78 107.5t65 117.5t48 108t30.5 79z" />
<glyph unicode="&#x104;" horiz-adv-x="1458" d="M1362 123l-21 -123h-14q-10 -6 -26 -15.5t-58 -39.5t-74 -59t-58 -68t-26 -72q0 -34 21.5 -54t56.5 -20q18 0 41.5 4t37.5 8l15 3l5 -97q-86 -41 -166 -41q-76 0 -125 41t-49 113q0 38 13.5 74.5t35 65t47.5 54.5t52.5 44.5t48 32t35.5 20.5l13 6h-368l18 123l176 41 l-41 225h-522l-113 -227l172 -39l-20 -123h-543l19 123l174 41l655 1259l203 11l246 -1276zM924 553l-105 616l-309 -616h414z" />
<glyph unicode="&#x105;" horiz-adv-x="1214" d="M1108 133l-18 -113q-4 -2 -33.5 -16t-49 -24.5t-51.5 -29.5t-54 -39t-44 -45.5t-33.5 -56t-11.5 -63.5q0 -35 22.5 -54.5t57.5 -19.5q49 0 94 15v-97q-86 -41 -166 -41q-74 0 -123 44t-49 116q0 51 22 99.5t59 86t73 65t74 48.5l-168 -8l82 377q-7 -14 -15.5 -30.5 t-34 -58.5t-52 -78.5t-68 -80.5t-83.5 -75t-96.5 -52.5t-109.5 -21.5q-116 0 -192.5 102t-76.5 256q0 146 34 272t92.5 216t136.5 154t166.5 95t181.5 31q59 0 116.5 -15.5t85.5 -30.5l27 -16l62 41h112l-147 -921zM817 707l41 215q-78 30 -184 30q-60 0 -117 -21t-110 -67 t-92.5 -112.5t-63 -165t-23.5 -217.5q0 -104 34.5 -159.5t90.5 -55.5q50 0 100.5 30.5t91 79.5t78 107.5t65 117.5t48 108t30.5 79z" />
<glyph unicode="&#x106;" horiz-adv-x="1306" d="M854 1528l-53 108l444 248l76 -162zM1303 1004l55 348q-8 4 -23.5 11t-63.5 24.5t-96.5 31t-117 24.5t-131.5 11q-171 0 -319.5 -70.5t-255 -195.5t-167.5 -303t-61 -385q0 -239 136 -379.5t372 -140.5q96 0 191.5 24.5t172 64.5t121.5 69.5t84 60.5l-74 120 q-32 -24 -72.5 -46.5t-100 -49t-133.5 -43t-148 -16.5q-146 0 -235 103t-89 272q0 142 38.5 275.5t106.5 237t170.5 166t221.5 62.5q147 0 274 -51l25 -225h119z" />
<glyph unicode="&#x107;" horiz-adv-x="931" d="M469 1327l422 301l88 -153l-447 -256zM913 748l45 276q-5 3 -14 8.5t-39 20t-61.5 25t-78.5 19.5t-93 9q-173 0 -310 -92t-215.5 -263t-78.5 -393q0 -179 99.5 -278.5t258.5 -99.5q57 0 120.5 16t113 38t90.5 44.5t64 38.5l22 16l-62 103q-18 -10 -49.5 -25.5 t-112.5 -41.5t-145 -26q-94 0 -144.5 56.5t-50.5 169.5q0 151 42.5 280t128.5 211t198 82q37 0 70.5 -5t48.5 -10l14 -5l6 -174h133z" />
<glyph unicode="&#x108;" horiz-adv-x="1306" d="M965 1706l-306 -170l-65 92l330 225l120 11l252 -236l-96 -92zM1303 1004l55 348q-8 4 -23.5 11t-63.5 24.5t-96.5 31t-117 24.5t-131.5 11q-171 0 -319.5 -70.5t-255 -195.5t-167.5 -303t-61 -385q0 -239 136 -379.5t372 -140.5q96 0 191.5 24.5t172 64.5t121.5 69.5 t84 60.5l-74 120q-32 -24 -72.5 -46.5t-100 -49t-133.5 -43t-148 -16.5q-146 0 -235 103t-89 272q0 142 38.5 275.5t106.5 237t170.5 166t221.5 62.5q147 0 274 -51l25 -225h119z" />
<glyph unicode="&#x109;" horiz-adv-x="931" d="M395 1264l-67 92l331 266l121 10l250 -276l-94 -92l-236 200zM913 748l45 276q-5 3 -14 8.5t-39 20t-61.5 25t-78.5 19.5t-93 9q-173 0 -310 -92t-215.5 -263t-78.5 -393q0 -179 99.5 -278.5t258.5 -99.5q57 0 120.5 16t113 38t90.5 44.5t64 38.5l22 16l-62 103 q-18 -10 -49.5 -25.5t-112.5 -41.5t-145 -26q-94 0 -144.5 56.5t-50.5 169.5q0 151 42.5 280t128.5 211t198 82q37 0 70.5 -5t48.5 -10l14 -5l6 -174h133z" />
<glyph unicode="&#x10a;" horiz-adv-x="1306" d="M850 1661q0 58 36.5 104.5t96.5 46.5q43 0 67.5 -25t24.5 -69q0 -68 -39.5 -109.5t-93.5 -41.5q-44 0 -68 24t-24 70zM1303 1004l55 348q-8 4 -23.5 11t-63.5 24.5t-96.5 31t-117 24.5t-131.5 11q-171 0 -319.5 -70.5t-255 -195.5t-167.5 -303t-61 -385 q0 -239 136 -379.5t372 -140.5q96 0 191.5 24.5t172 64.5t121.5 69.5t84 60.5l-74 120q-32 -24 -72.5 -46.5t-100 -49t-133.5 -43t-148 -16.5q-146 0 -235 103t-89 272q0 142 38.5 275.5t106.5 237t170.5 166t221.5 62.5q147 0 274 -51l25 -225h119z" />
<glyph unicode="&#x10b;" horiz-adv-x="931" d="M598 1405q0 58 36.5 104.5t96.5 46.5q43 0 67.5 -25t24.5 -69q0 -68 -39.5 -109.5t-93.5 -41.5q-44 0 -68 24t-24 70zM913 748l45 276q-5 3 -14 8.5t-39 20t-61.5 25t-78.5 19.5t-93 9q-173 0 -310 -92t-215.5 -263t-78.5 -393q0 -179 99.5 -278.5t258.5 -99.5 q57 0 120.5 16t113 38t90.5 44.5t64 38.5l22 16l-62 103q-18 -10 -49.5 -25.5t-112.5 -41.5t-145 -26q-94 0 -144.5 56.5t-50.5 169.5q0 151 42.5 280t128.5 211t198 82q37 0 70.5 -5t48.5 -10l14 -5l6 -174h133z" />
<glyph unicode="&#x10c;" horiz-adv-x="1306" d="M1253 1868l56 -92l-326 -228l-119 -10l-250 238l99 92l235 -176zM1303 1004l55 348q-8 4 -23.5 11t-63.5 24.5t-96.5 31t-117 24.5t-131.5 11q-171 0 -319.5 -70.5t-255 -195.5t-167.5 -303t-61 -385q0 -239 136 -379.5t372 -140.5q96 0 191.5 24.5t172 64.5t121.5 69.5 t84 60.5l-74 120q-32 -24 -72.5 -46.5t-100 -49t-133.5 -43t-148 -16.5q-146 0 -235 103t-89 272q0 142 38.5 275.5t106.5 237t170.5 166t221.5 62.5q147 0 274 -51l25 -225h119z" />
<glyph unicode="&#x10d;" horiz-adv-x="931" d="M1067 1505l-326 -266l-118 -10l-250 276l98 92l227 -215l314 215zM913 748l45 276q-5 3 -14 8.5t-39 20t-61.5 25t-78.5 19.5t-93 9q-173 0 -310 -92t-215.5 -263t-78.5 -393q0 -179 99.5 -278.5t258.5 -99.5q57 0 120.5 16t113 38t90.5 44.5t64 38.5l22 16l-62 103 q-18 -10 -49.5 -25.5t-112.5 -41.5t-145 -26q-94 0 -144.5 56.5t-50.5 169.5q0 151 42.5 280t128.5 211t198 82q37 0 70.5 -5t48.5 -10l14 -5l6 -174h133z" />
<glyph unicode="&#x10e;" horiz-adv-x="1441" d="M1128 1868l56 -92l-326 -228l-119 -10l-250 238l99 92l235 -176zM215 1311l18 112l379 11h265q229 0 368 -129.5t139 -352.5q0 -227 -59 -407t-167.5 -299.5t-263 -182.5t-345.5 -63h-543l21 123l176 39l178 1108zM412 164h168q186 0 320 97t201.5 267.5t67.5 397.5 q0 164 -82 254t-241 90h-258z" />
<glyph unicode="&#x10f;" horiz-adv-x="1374" d="M1346 1130l-109 44q119 251 139 413l197 10q-29 -154 -227 -467zM1085 20l-374 -20l90 377q-7 -17 -25 -52t-62 -98t-94.5 -115.5t-125 -92t-150.5 -39.5q-119 0 -194.5 101t-75.5 257q0 145 33.5 270t91 215t134.5 155t165.5 96.5t181.5 31.5q110 0 197 -45l57 352 l-174 41l18 113l379 10l-229 -1413l176 -31zM821 707l33 215q-72 30 -174 30q-176 0 -288.5 -162t-112.5 -411q0 -109 34 -167t93 -58q50 0 100 30.5t90 79.5t76.5 107.5t63 117.5t46 108t29.5 79z" />
<glyph unicode="&#x110;" horiz-adv-x="1456" d="M309 829l72 441l-166 41l18 112l379 11h265q229 0 370.5 -129.5t141.5 -352.5q0 -454 -226 -703t-614 -249h-543l21 123l176 39l82 504h-172l26 163h170zM412 164h168q186 0 321.5 97t204 268t68.5 397q0 163 -84.5 253.5t-243.5 90.5h-258l-72 -441h311l-22 -163h-313z " />
<glyph unicode="&#x111;" horiz-adv-x="1216" d="M1092 1178l-164 -1014l176 -31l-19 -113l-374 -20l90 377q-7 -17 -25 -52t-62 -98t-94.5 -115.5t-125 -92t-150.5 -39.5q-119 0 -194.5 101t-75.5 257q0 145 33.5 270t91 215t134.5 155t165.5 96.5t181.5 31.5q110 0 197 -45l18 117h-182l22 153h185l14 82l-174 41 l18 113l379 10l-39 -246h201l-23 -153h-204zM821 707l33 215q-72 30 -174 30q-176 0 -288.5 -162t-112.5 -411q0 -109 34 -167t93 -58q50 0 100 30.5t90 79.5t76.5 107.5t63 117.5t46 108t29.5 79z" />
<glyph unicode="&#x112;" d="M1106 1751l-23 -154h-540l22 154h541zM225 1311l19 112l381 11h616l-55 -349h-115l-20 185h-453l-72 -441h467l-24 -163h-467l-80 -502h465l76 209h135l-64 -373h-1018l21 123l180 41l176 1106z" />
<glyph unicode="&#x113;" horiz-adv-x="1015" d="M920 1505l-23 -153h-541l23 153h541zM827 236l62 -105q-9 -6 -25 -16.5t-66.5 -36.5t-102 -45.5t-124.5 -36t-141 -16.5q-169 0 -269 99.5t-100 268.5q0 156 47 297t126.5 241.5t189 160t229.5 59.5q155 0 246.5 -72t91.5 -194q0 -117 -91 -207t-254.5 -139.5 t-373.5 -49.5q-6 -47 -6 -88q0 -109 55.5 -161t170.5 -52q67 0 150.5 23.5t133.5 46.5zM291 588q219 0 362.5 65t143.5 166q0 133 -154 133q-113 0 -213 -102t-139 -262z" />
<glyph unicode="&#x114;" d="M1047 1853l120 11q-21 -136 -118.5 -222t-219.5 -86q-98 0 -162.5 71t-64.5 173l4 53l121 11q0 -66 37 -110t100 -44q42 0 76.5 14.5t53.5 36t31.5 42.5t16.5 35zM225 1311l19 112l381 11h616l-55 -349h-115l-20 185h-453l-72 -441h467l-24 -163h-467l-80 -502h465 l76 209h135l-64 -373h-1018l21 123l180 41l176 1106z" />
<glyph unicode="&#x115;" horiz-adv-x="1015" d="M889 1556l121 11q-21 -136 -118.5 -221.5t-219.5 -85.5q-98 0 -163 71t-65 172l5 53l120 11q0 -66 37.5 -110t100.5 -44q42 0 76 14.5t53 35.5t32 42.5t17 36.5zM827 236l62 -105q-9 -6 -25 -16.5t-66.5 -36.5t-102 -45.5t-124.5 -36t-141 -16.5q-169 0 -269 99.5 t-100 268.5q0 156 47 297t126.5 241.5t189 160t229.5 59.5q155 0 246.5 -72t91.5 -194q0 -117 -91 -207t-254.5 -139.5t-373.5 -49.5q-6 -47 -6 -88q0 -109 55.5 -161t170.5 -52q67 0 150.5 23.5t133.5 46.5zM291 588q219 0 362.5 65t143.5 166q0 133 -154 133 q-113 0 -213 -102t-139 -262z" />
<glyph unicode="&#x116;" d="M754 1661q0 58 36.5 104.5t96.5 46.5q43 0 67.5 -25t24.5 -69q0 -68 -39.5 -109.5t-93.5 -41.5q-44 0 -68 24t-24 70zM225 1311l19 112l381 11h616l-55 -349h-115l-20 185h-453l-72 -441h467l-24 -163h-467l-80 -502h465l76 209h135l-64 -373h-1018l21 123l180 41 l176 1106z" />
<glyph unicode="&#x117;" horiz-adv-x="1015" d="M590 1405q0 58 36.5 104.5t96.5 46.5q43 0 67.5 -25t24.5 -69q0 -68 -39.5 -109.5t-93.5 -41.5q-44 0 -68 24t-24 70zM827 236l62 -105q-9 -6 -25 -16.5t-66.5 -36.5t-102 -45.5t-124.5 -36t-141 -16.5q-169 0 -269 99.5t-100 268.5q0 156 47 297t126.5 241.5t189 160 t229.5 59.5q155 0 246.5 -72t91.5 -194q0 -117 -91 -207t-254.5 -139.5t-373.5 -49.5q-6 -47 -6 -88q0 -109 55.5 -161t170.5 -52q67 0 150.5 23.5t133.5 46.5zM291 588q219 0 362.5 65t143.5 166q0 133 -154 133q-113 0 -213 -102t-139 -262z" />
<glyph unicode="&#x118;" d="M598 1270l-72 -441h467l-24 -163h-467l-80 -502h465l76 209h135l-64 -373q-10 -6 -26 -15.5t-57.5 -39.5t-73.5 -59t-58 -68t-26 -72q0 -35 21.5 -54.5t55.5 -19.5q18 0 42 4t38 8l15 3l4 -97q-86 -41 -166 -41q-76 0 -125 41t-49 113q0 52 25 101.5t61.5 83t72.5 60.5 t61 40l25 12h-858l21 123l180 41l176 1106l-168 41l19 112l381 11h616l-55 -349h-115l-20 185h-453z" />
<glyph unicode="&#x119;" horiz-adv-x="1032" d="M524 -14l2 2q-41 -8 -96 -8q-169 0 -269 99.5t-100 268.5q0 156 47 297t126.5 241.5t189 160t229.5 59.5q155 0 246.5 -72t91.5 -194q0 -117 -91 -207t-254.5 -139.5t-373.5 -49.5q-6 -47 -6 -88q0 -109 55.5 -161t170.5 -52q67 0 150.5 23.5t133.5 46.5l51 23l62 -105 q-25 -16 -66 -39q-37 -25 -71.5 -50.5t-80.5 -65t-79 -76t-56.5 -78.5t-23.5 -78q0 -34 21.5 -53t56.5 -19q18 0 41 4t37 8l14 3l4 -97q-86 -41 -168 -41q-76 0 -124 42.5t-48 117.5q0 133 178 277zM643 952q-113 0 -213 -102t-139 -262q219 0 362.5 65t143.5 166 q0 133 -154 133z" />
<glyph unicode="&#x11a;" d="M1130 1868l56 -92l-326 -228l-119 -10l-249 238l98 92l235 -176zM225 1311l19 112l381 11h616l-55 -349h-115l-20 185h-453l-72 -441h467l-24 -163h-467l-80 -502h465l76 209h135l-64 -373h-1018l21 123l180 41l176 1106z" />
<glyph unicode="&#x11b;" horiz-adv-x="1015" d="M1096 1505l-326 -266l-119 -10l-250 276l99 92l227 -215l313 215zM827 236l62 -105q-9 -6 -25 -16.5t-66.5 -36.5t-102 -45.5t-124.5 -36t-141 -16.5q-169 0 -269 99.5t-100 268.5q0 156 47 297t126.5 241.5t189 160t229.5 59.5q155 0 246.5 -72t91.5 -194 q0 -117 -91 -207t-254.5 -139.5t-373.5 -49.5q-6 -47 -6 -88q0 -109 55.5 -161t170.5 -52q67 0 150.5 23.5t133.5 46.5zM291 588q219 0 362.5 65t143.5 166q0 133 -154 133q-113 0 -213 -102t-139 -262z" />
<glyph unicode="&#x11c;" horiz-adv-x="1486" d="M1001 1706l-305 -170l-65 92l330 225l120 11l252 -236l-96 -92zM1303 1022l55 330q-8 4 -23.5 11t-63.5 24.5t-96.5 31t-117 24.5t-131.5 11q-171 0 -319.5 -70.5t-255 -195t-167.5 -302.5t-61 -386q0 -236 144 -378t395 -142q285 0 550 122l72 451l158 31l20 123 l-532 -11l-19 -112l174 -31l-55 -342q-145 -55 -317 -55q-182 0 -273.5 101.5t-91.5 281.5q0 142 39.5 275.5t108.5 237t172.5 166t222.5 62.5q152 0 268 -45l25 -213h119z" />
<glyph unicode="&#x11d;" horiz-adv-x="1142" d="M434 1264l-67 92l331 266l121 10l250 -276l-94 -92l-236 200zM1085 1085l-182 -1134q-35 -219 -159.5 -336t-323.5 -117q-79 0 -173.5 21t-148.5 42l-55 21l49 148q20 -7 53 -17.5t115 -28.5t139 -18q135 0 208.5 70.5t101.5 202.5l92 438q-7 -14 -15.5 -30.5t-34 -58.5 t-52.5 -78.5t-68.5 -80.5t-84 -75t-97.5 -52.5t-111 -21.5q-114 0 -189 101t-75 257q0 146 33.5 272t92 216t135.5 154t165 95t180 31q62 0 119.5 -15.5t84.5 -30.5l27 -16l62 41h112zM825 707l39 215q-73 30 -184 30q-60 0 -116.5 -21t-108.5 -67t-91 -112.5t-62 -164 t-23 -214.5q0 -108 34 -163.5t90 -55.5q69 0 138 57t118 138t88 162.5t59 138.5z" />
<glyph unicode="&#x11e;" horiz-adv-x="1486" d="M1135 1853l120 11q-21 -136 -118 -222t-219 -86q-98 0 -163 71.5t-65 172.5l4 53l121 11q0 -66 37 -110t100 -44q42 0 76.5 14.5t53 36t31.5 42.5t17 35zM1303 1022l55 330q-8 4 -23.5 11t-63.5 24.5t-96.5 31t-117 24.5t-131.5 11q-171 0 -319.5 -70.5t-255 -195 t-167.5 -302.5t-61 -386q0 -236 144 -378t395 -142q285 0 550 122l72 451l158 31l20 123l-532 -11l-19 -112l174 -31l-55 -342q-145 -55 -317 -55q-182 0 -273.5 101.5t-91.5 281.5q0 142 39.5 275.5t108.5 237t172.5 166t222.5 62.5q152 0 268 -45l25 -213h119z" />
<glyph unicode="&#x11f;" horiz-adv-x="1142" d="M891 1556l121 11q-21 -136 -118.5 -221.5t-219.5 -85.5q-98 0 -163 71t-65 172l5 53l120 11q0 -66 37.5 -110t100.5 -44q42 0 76 14.5t53 35.5t32 42.5t17 36.5zM1085 1085l-182 -1134q-35 -219 -159.5 -336t-323.5 -117q-79 0 -173.5 21t-148.5 42l-55 21l49 148 q20 -7 53 -17.5t115 -28.5t139 -18q135 0 208.5 70.5t101.5 202.5l92 438q-7 -14 -15.5 -30.5t-34 -58.5t-52.5 -78.5t-68.5 -80.5t-84 -75t-97.5 -52.5t-111 -21.5q-114 0 -189 101t-75 257q0 146 33.5 272t92 216t135.5 154t165 95t180 31q62 0 119.5 -15.5t84.5 -30.5 l27 -16l62 41h112zM825 707l39 215q-73 30 -184 30q-60 0 -116.5 -21t-108.5 -67t-91 -112.5t-62 -164t-23 -214.5q0 -108 34 -163.5t90 -55.5q69 0 138 57t118 138t88 162.5t59 138.5z" />
<glyph unicode="&#x120;" horiz-adv-x="1486" d="M829 1661q0 58 37 104.5t97 46.5q43 0 67.5 -25t24.5 -69q0 -68 -39.5 -109.5t-93.5 -41.5q-44 0 -68.5 24.5t-24.5 69.5zM1303 1022l55 330q-8 4 -23.5 11t-63.5 24.5t-96.5 31t-117 24.5t-131.5 11q-171 0 -319.5 -70.5t-255 -195t-167.5 -302.5t-61 -386 q0 -236 144 -378t395 -142q285 0 550 122l72 451l158 31l20 123l-532 -11l-19 -112l174 -31l-55 -342q-145 -55 -317 -55q-182 0 -273.5 101.5t-91.5 281.5q0 142 39.5 275.5t108.5 237t172.5 166t222.5 62.5q152 0 268 -45l25 -213h119z" />
<glyph unicode="&#x121;" horiz-adv-x="1142" d="M621 1405q0 58 36.5 104.5t96.5 46.5q43 0 67.5 -25t24.5 -69q0 -68 -39.5 -109.5t-93.5 -41.5q-44 0 -68 24t-24 70zM1085 1085l-182 -1134q-35 -219 -159.5 -336t-323.5 -117q-79 0 -173.5 21t-148.5 42l-55 21l49 148q20 -7 53 -17.5t115 -28.5t139 -18 q135 0 208.5 70.5t101.5 202.5l92 438q-7 -14 -15.5 -30.5t-34 -58.5t-52.5 -78.5t-68.5 -80.5t-84 -75t-97.5 -52.5t-111 -21.5q-114 0 -189 101t-75 257q0 146 33.5 272t92 216t135.5 154t165 95t180 31q62 0 119.5 -15.5t84.5 -30.5l27 -16l62 41h112zM825 707l39 215 q-73 30 -184 30q-60 0 -116.5 -21t-108.5 -67t-91 -112.5t-62 -164t-23 -214.5q0 -108 34 -163.5t90 -55.5q69 0 138 57t118 138t88 162.5t59 138.5z" />
<glyph unicode="&#x122;" horiz-adv-x="1482" d="M1303 1022l55 330q-8 4 -23.5 11t-63.5 24.5t-96.5 31t-117 24.5t-131.5 11q-171 0 -319.5 -70.5t-255 -195t-167.5 -302.5t-61 -386q0 -236 144 -378t395 -142q285 0 550 122l72 451l158 31l20 123l-532 -11l-19 -112l174 -31l-55 -342q-145 -55 -317 -55 q-182 0 -273.5 101.5t-91.5 281.5q0 142 39.5 275.5t108.5 237t172.5 166t222.5 62.5q152 0 268 -45l25 -213h119zM512 -584l-72 82q13 12 31.5 31t50 59t31.5 58q0 17 -10.5 49t-10.5 59q0 61 40.5 102.5t95.5 41.5q51 0 80.5 -30.5t29.5 -82.5q0 -41 -17 -84t-40 -77.5 t-63 -75.5t-70 -67.5t-76 -64.5z" />
<glyph unicode="&#x123;" horiz-adv-x="1142" d="M643 1180l-72 82q13 12 31.5 30.5t50 58.5t31.5 58q0 17 -10 49.5t-10 59.5q0 61 40 102t95 41q51 0 80.5 -30.5t29.5 -82.5q0 -51 -22 -101t-67 -100.5t-81 -84t-96 -82.5zM1085 1085l-182 -1134q-35 -219 -159.5 -336t-323.5 -117q-79 0 -173.5 21t-148.5 42l-55 21 l49 148q20 -7 53 -17.5t115 -28.5t139 -18q135 0 208.5 70.5t101.5 202.5l92 438q-7 -14 -15.5 -30.5t-34 -58.5t-52.5 -78.5t-68.5 -80.5t-84 -75t-97.5 -52.5t-111 -21.5q-114 0 -189 101t-75 257q0 146 33.5 272t92 216t135.5 154t165 95t180 31q62 0 119.5 -15.5 t84.5 -30.5l27 -16l62 41h112zM825 707l39 215q-73 30 -184 30q-60 0 -116.5 -21t-108.5 -67t-91 -112.5t-62 -164t-23 -214.5q0 -108 34 -163.5t90 -55.5q69 0 138 57t118 138t88 162.5t59 138.5z" />
<glyph unicode="&#x124;" horiz-adv-x="1587" d="M1006 1706l-306 -170l-65 92l330 225l120 11l252 -236l-96 -92zM1063 162l80 493h-668l-78 -491l178 -41l-20 -123h-559l20 123l177 39l178 1108l-168 41l18 112l563 11l-20 -123l-189 -41l-73 -451h667l72 451l-186 41l18 112l572 11l-21 -123l-178 -41l-178 -1106 l172 -41l-21 -123h-569l20 123z" />
<glyph unicode="&#x125;" horiz-adv-x="1282" d="M164 1620l-66 92l344 277l121 10l256 -287l-94 -92l-242 221zM567 1577l-157 -889q3 9 12.5 30.5t32.5 62t50.5 82t69.5 86t87.5 79t106 56.5t124.5 22q223 0 223 -248q0 -49 -10 -121l-92 -573l172 -31l-19 -113l-374 -20l116 707q9 70 9 90q0 135 -107 135 q-54 0 -107 -31t-94.5 -80.5t-78.5 -109.5t-63.5 -120.5t-46 -110t-29.5 -80.5l-9 -31l-68 -369h-194l225 1413l-172 41l19 113z" />
<glyph unicode="&#x126;" horiz-adv-x="1630" d="M371 1147l18 123l-164 41l19 112l563 11l-19 -123l-192 -41l-21 -123h666l21 123l-185 41l17 112l567 11l-19 -123l-176 -41l-20 -123h172l-25 -154h-172l-131 -829l170 -41l-18 -123h-572l23 123l192 41l78 491h-665l-80 -491l178 -41l-21 -123h-559l21 123l176 41 l133 829h-170l23 154h172zM1219 993h-670l-25 -174h666z" />
<glyph unicode="&#x127;" horiz-adv-x="1282" d="M1186 133l-19 -113l-374 -20l116 707q9 70 9 90q0 135 -107 135q-54 0 -107 -31t-94.5 -80.5t-78.5 -109.5t-63.5 -120.5t-46 -110t-29.5 -80.5l-9 -31l-68 -369h-194l188 1178h-182l23 153h184l12 82l-172 41l19 113l374 10l-43 -246h209l-22 -153h-215l-86 -490 q3 9 12.5 30.5t32.5 62t50.5 82t69.5 86t87.5 79t106 56.5t124.5 22q223 0 223 -248q0 -49 -10 -121l-92 -573z" />
<glyph unicode="&#x128;" horiz-adv-x="743" d="M203 1569l-60 61q5 8 13 21t35 46t54.5 58.5t69 46.5t80.5 21q58 0 117.5 -23.5t114.5 -47t104 -23.5q36 0 72 21.5t53 43.5l18 21l62 -62q-4 -7 -11.5 -19.5t-32.5 -44.5t-52 -56t-67 -44t-79 -20q-58 0 -117 22.5t-114 45t-105 22.5q-36 0 -74.5 -22.5t-59.5 -44.5z M215 1311l18 112l560 11l-21 -123l-180 -41l-178 -1106l172 -41l-21 -123h-559l21 123l184 41l176 1106z" />
<glyph unicode="&#x129;" horiz-adv-x="585" d="M68 1300l-58 72q4 8 12 21t34 46t53 58.5t67.5 46.5t79.5 21q43 0 86 -15t72.5 -32.5t68.5 -32.5t76 -15q36 0 70.5 21.5t51.5 42.5l17 22l60 -71q-4 -8 -11 -20t-31 -44t-50 -56.5t-65.5 -44.5t-78.5 -20q-43 0 -86.5 14t-73.5 31.5t-69.5 31.5t-75.5 14q-23 0 -47 -9.5 t-41.5 -22.5t-31.5 -26.5t-21 -22.5zM516 20l19 113l-175 31l148 921l-375 -10l-20 -112l174 -41l-148 -922z" />
<glyph unicode="&#x12a;" horiz-adv-x="743" d="M838 1751l-23 -154h-541l23 154h541zM215 1311l18 112l560 11l-21 -123l-180 -41l-178 -1106l172 -41l-21 -123h-559l21 123l184 41l176 1106z" />
<glyph unicode="&#x12b;" horiz-adv-x="585" d="M686 1505l-22 -153h-541l22 153h541zM516 20l19 113l-175 31l148 921l-375 -10l-20 -112l174 -41l-148 -922z" />
<glyph unicode="&#x12c;" horiz-adv-x="743" d="M745 1853l121 11q-21 -136 -118.5 -222t-219.5 -86q-98 0 -162.5 71t-64.5 173l4 53l121 11q0 -66 37 -110t100 -44q42 0 76 14.5t53 36t32 42.5t17 35zM215 1311l18 112l560 11l-21 -123l-180 -41l-178 -1106l172 -41l-21 -123h-559l21 123l184 41l176 1106z" />
<glyph unicode="&#x12d;" horiz-adv-x="585" d="M616 1556l121 11q-21 -136 -118.5 -221.5t-219.5 -85.5q-98 0 -162.5 71t-64.5 172l4 53l121 11q0 -66 37 -110t100 -44q42 0 76 14.5t53 35.5t32 42.5t17 36.5zM516 20l19 113l-175 31l148 921l-375 -10l-20 -112l174 -41l-148 -922z" />
<glyph unicode="&#x12e;" horiz-adv-x="743" d="M793 1434l-21 -123l-180 -41l-178 -1106l172 -41l-21 -123q-30 -10 -56 -19.5t-71.5 -27.5t-81 -39t-70 -47t-54 -57t-19.5 -64q0 -34 21.5 -54t56.5 -20q18 0 41.5 4t37.5 8l15 3l4 -97q-86 -41 -166 -41q-76 0 -125 41t-49 113q0 41 13 78.5t37.5 67t49 52t58 42 t52.5 29.5t45 22q3 2 5 2.5t4 1.5l4 2h-311l21 123l184 41l176 1106l-172 41l18 112z" />
<glyph unicode="&#x12f;" horiz-adv-x="673" d="M422 1280q68 0 105.5 53.5t37.5 130.5q0 49 -30.5 76t-81.5 27q-68 0 -106 -54t-38 -131q0 -48 31 -75t82 -27zM512 20l18 113l-174 31l148 921l-375 -10l-20 -112l174 -41l-148 -922zM305 12l207 8q-4 -2 -33.5 -16t-48.5 -24.5t-51.5 -29.5t-54 -39t-43.5 -45.5 t-33.5 -56t-11.5 -63.5q0 -36 22 -55t57 -19q50 0 95 15v-97q-86 -41 -166 -41q-74 0 -123 44t-49 116q0 52 23 101.5t60.5 88t74 65.5t75.5 48z" />
<glyph unicode="&#x130;" horiz-adv-x="743" d="M438 1661q0 58 36.5 104.5t96.5 46.5q43 0 68 -25t25 -69q0 -68 -40 -109.5t-94 -41.5q-44 0 -68 24t-24 70zM215 1311l18 112l560 11l-21 -123l-180 -41l-178 -1106l172 -41l-21 -123h-559l21 123l184 41l176 1106z" />
<glyph unicode="&#x131;" horiz-adv-x="585" d="M516 20l19 113l-175 31l148 921l-375 -10l-20 -112l174 -41l-148 -922z" />
<glyph unicode="&#x132;" horiz-adv-x="1361" d="M813 1311l-221 -41l-178 -1106l172 -41l-21 -123h-559l21 123l184 41l176 1106l-172 41l18 123h1199l-21 -123l-178 -41l-189 -1178q-29 -186 -145 -292.5t-295 -106.5q-22 0 -53.5 2.5t-52.5 4.5l-21 3l43 154h101q185 0 213 194l194 1219z" />
<glyph unicode="&#x133;" d="M408 1280q68 0 105.5 53.5t37.5 130.5q0 48 -31 75.5t-82 27.5q-68 0 -105.5 -54t-37.5 -131q0 -48 31 -75t82 -27zM1083 1280q68 0 106 53.5t38 130.5q0 48 -31 75.5t-82 27.5q-68 0 -105.5 -54t-37.5 -131q0 -48 30.5 -75t81.5 -27zM944 922l-35 -209q-3 -16 -17.5 -59 t-40 -107.5t-64.5 -131.5t-84.5 -126.5t-105.5 -97t-122 -37.5q-106 0 -106 135q0 24 8 90l112 706l-374 -10l-19 -112l174 -41l-94 -574q-10 -72 -10 -119q0 -249 227 -249q66 0 130 25t111.5 61.5t92 86t71.5 90t50 83.5l-64 -398q-24 -144 -73 -205t-156 -61 q-32 0 -63 2.5t-46 5.5l-14 2l-41 -133q82 -31 164 -31q176 0 282 105.5t138 294.5l192 1177l-379 -10l-20 -112z" />
<glyph unicode="&#x134;" horiz-adv-x="710" d="M543 1706l-305 -170l-66 92l330 225l121 11l251 -236l-96 -92zM203 1311l18 112l559 11l-20 -123l-178 -41l-189 -1178q-29 -186 -145 -292.5t-295 -106.5q-22 0 -53.5 2.5t-52.5 4.5l-21 3l43 154h100q181 0 213 194l195 1219z" />
<glyph unicode="&#x135;" horiz-adv-x="540" d="M96 1264l-67 92l331 266l121 10l250 -276l-94 -92l-236 200zM258 922l-166 -994q-24 -143 -72 -204.5t-149 -61.5q-32 0 -63 2.5t-46 5.5l-14 2l-41 -133q82 -31 164 -31q175 0 279.5 105t136.5 295l196 1177l-381 -10l-20 -112z" />
<glyph unicode="&#x136;" horiz-adv-x="1329" d="M965 162l-267 493h-209l-77 -491l174 -41l-21 -123h-559l21 123l180 41l178 1106l-172 41l18 112l562 11l-21 -123l-182 -41l-74 -451h189l442 604l303 11l-20 -123l-175 -41l-387 -518l322 -588l145 -41l-20 -123h-533l21 123zM498 -584l-72 82q13 12 31.5 31t50 59 t31.5 58q0 17 -10.5 49t-10.5 59q0 61 40 102.5t95 41.5q51 0 81 -30.5t30 -82.5q0 -41 -17 -84t-40 -77.5t-63 -75.5t-70 -67.5t-76 -64.5z" />
<glyph unicode="&#x137;" horiz-adv-x="1105" d="M584 674l198 264l-86 25l17 112l438 10l-21 -122l-149 -27l-264 -320l190 -452l162 -51l-20 -113h-279l-207 522h-176l-82 -522h-194l227 1413l-174 41l18 113l375 10l-145 -903h172zM375 -584l-72 82q13 12 31.5 31t50 59t31.5 58q0 17 -10.5 49t-10.5 59q0 61 40 102.5 t95 41.5q51 0 81 -30.5t30 -82.5q0 -41 -17 -84t-40 -77.5t-63 -75.5t-70 -67.5t-76 -64.5z" />
<glyph unicode="&#x138;" horiz-adv-x="1128" d="M604 674l201 266l-88 23l16 112l441 10l-21 -122l-154 -27l-262 -322l189 -450l166 -51l-21 -113h-283l-204 522h-174l-82 -522h-195l148 922l-175 41l19 112l375 10l-68 -411h172z" />
<glyph unicode="&#x139;" horiz-adv-x="1067" d="M397 1528l-53 108l444 248l76 -162zM6 123l182 41l177 1106l-170 41l16 112l571 11l-20 -123l-193 -41l-176 -1106h422l80 235h139l-67 -399h-981z" />
<glyph unicode="&#x13a;" horiz-adv-x="595" d="M301 1610l-53 108l444 248l76 -162zM492 20l18 113l-174 31l225 1413l-379 -10l-18 -113l172 -41l-225 -1413z" />
<glyph unicode="&#x13b;" horiz-adv-x="1067" d="M6 123l182 41l177 1106l-170 41l16 112l571 11l-20 -123l-193 -41l-176 -1106h422l80 235h139l-67 -399h-981zM358 -584l-71 82q13 12 31.5 31t49.5 59t31 58q0 17 -10 49t-10 59q0 61 40 102.5t95 41.5q51 0 81 -30.5t30 -82.5q0 -41 -17 -84t-40.5 -77t-64 -76 t-69.5 -67.5t-76 -64.5z" />
<glyph unicode="&#x13c;" horiz-adv-x="595" d="M492 20l18 113l-174 31l225 1413l-379 -10l-18 -113l172 -41l-225 -1413zM78 -584l-72 82q13 12 31.5 31t50 59t31.5 58q0 17 -10.5 49t-10.5 59q0 61 40 102.5t95 41.5q51 0 81 -30.5t30 -82.5q0 -41 -17 -84t-40 -77.5t-63 -75.5t-70 -67.5t-76 -64.5z" />
<glyph unicode="&#x13d;" horiz-adv-x="1091" d="M6 123l182 41l177 1106l-170 41l16 112l571 11l-20 -123l-193 -41l-176 -1106h422l80 235h139l-67 -399h-981zM1010 1423l196 11q-14 -86 -74 -202.5t-167 -279.5l-109 41q136 268 154 430z" />
<glyph unicode="&#x13e;" horiz-adv-x="745" d="M717 1130l-109 44q120 253 140 413l196 10q-29 -154 -227 -467zM492 20l18 113l-174 31l225 1413l-379 -10l-18 -113l172 -41l-225 -1413z" />
<glyph unicode="&#x13f;" horiz-adv-x="1067" d="M6 123l182 41l177 1106l-170 41l16 112l571 11l-20 -123l-193 -41l-176 -1106h422l80 235h139l-67 -399h-981zM655 702q0 72 45 127.5t119 55.5q54 0 83.5 -28.5t29.5 -84.5q0 -72 -42 -127t-118 -55q-54 0 -85.5 28.5t-31.5 83.5z" />
<glyph unicode="&#x140;" horiz-adv-x="817" d="M492 20l18 113l-174 31l225 1413l-379 -10l-18 -113l172 -41l-225 -1413zM549 608q0 72 45 127.5t119 55.5q54 0 83 -28.5t29 -84.5q0 -72 -41.5 -127t-117.5 -55q-54 0 -85.5 28.5t-31.5 83.5z" />
<glyph unicode="&#x141;" horiz-adv-x="1095" d="M1053 399l-68 -399h-981l21 123l182 41l61 387l-184 -74l-18 154l229 92l88 547l-170 41l16 112l572 11l-21 -123l-192 -41l-74 -461l399 158l19 -154l-445 -176l-75 -473h422l79 235h140z" />
<glyph unicode="&#x142;" horiz-adv-x="739" d="M336 164l174 -31l-18 -113l-381 -20l100 625l-207 -88l-18 151l252 109l98 616l-172 41l18 113l379 10l-110 -688l217 94l16 -154l-260 -112z" />
<glyph unicode="&#x143;" horiz-adv-x="1597" d="M877 1528l-54 108l445 248l75 -162zM207 1311l170 -41l-176 -1106l-183 -41l-22 -123h532l23 123l-168 41l158 989l499 -1153h232l201 1270l174 41l20 123l-522 -11l-19 -112l164 -41l-155 -981l-480 1145l-430 -11z" />
<glyph unicode="&#x144;" horiz-adv-x="1298" d="M616 1327l422 301l88 -153l-446 -256zM807 0l115 707q8 62 8 90q0 135 -107 135q-54 0 -107.5 -31t-96 -80.5t-80.5 -109.5t-65.5 -120.5t-48 -110t-30.5 -80.5l-10 -31l-59 -369h-195l148 922l-173 41l19 112l375 10l-92 -397q6 13 14.5 31t34 61.5t53.5 82.5t72 85 t90.5 79.5t107.5 56t125 22.5q228 0 228 -252q0 -42 -11 -117l-94 -573l174 -31l-18 -113z" />
<glyph unicode="&#x145;" horiz-adv-x="1597" d="M207 1311l170 -41l-176 -1106l-183 -41l-22 -123h532l23 123l-168 41l158 989l499 -1153h232l201 1270l174 41l20 123l-522 -11l-19 -112l164 -41l-155 -981l-480 1145l-430 -11zM567 -584l-71 82q13 12 31.5 31t49.5 59t31 58q0 17 -10 49t-10 59q0 61 40 102.5t95 41.5 q51 0 81 -30.5t30 -82.5q0 -41 -17 -84t-40.5 -77t-64 -76t-69.5 -67.5t-76 -64.5z" />
<glyph unicode="&#x146;" horiz-adv-x="1298" d="M807 0l115 707q8 62 8 90q0 135 -107 135q-54 0 -107.5 -31t-96 -80.5t-80.5 -109.5t-65.5 -120.5t-48 -110t-30.5 -80.5l-10 -31l-59 -369h-195l148 922l-173 41l19 112l375 10l-92 -397q6 13 14.5 31t34 61.5t53.5 82.5t72 85t90.5 79.5t107.5 56t125 22.5 q228 0 228 -252q0 -42 -11 -117l-94 -573l174 -31l-18 -113zM399 -584l-71 82q13 12 31.5 31t49.5 59t31 58q0 17 -10 49t-10 59q0 61 40 102.5t95 41.5q51 0 81 -30.5t30 -82.5q0 -41 -17 -84t-40.5 -77t-64 -76t-69.5 -67.5t-76 -64.5z" />
<glyph unicode="&#x147;" horiz-adv-x="1597" d="M1327 1868l55 -92l-325 -228l-119 -10l-250 238l98 92l236 -176zM207 1311l170 -41l-176 -1106l-183 -41l-22 -123h532l23 123l-168 41l158 989l499 -1153h232l201 1270l174 41l20 123l-522 -11l-19 -112l164 -41l-155 -981l-480 1145l-430 -11z" />
<glyph unicode="&#x148;" horiz-adv-x="1298" d="M1165 1505l-325 -266l-119 -10l-250 276l98 92l228 -215l313 215zM807 0l115 707q8 62 8 90q0 135 -107 135q-54 0 -107.5 -31t-96 -80.5t-80.5 -109.5t-65.5 -120.5t-48 -110t-30.5 -80.5l-10 -31l-59 -369h-195l148 922l-173 41l19 112l375 10l-92 -397q6 13 14.5 31 t34 61.5t53.5 82.5t72 85t90.5 79.5t107.5 56t125 22.5q228 0 228 -252q0 -42 -11 -117l-94 -573l174 -31l-18 -113z" />
<glyph unicode="&#x149;" horiz-adv-x="1298" d="M127 1180l-64 88q2 0 34 25.5t65 60.5t33 53q0 11 -16.5 42.5t-16.5 57.5q0 54 38.5 98t100.5 44q47 0 74.5 -26.5t27.5 -78.5q0 -172 -276 -364zM807 0l115 707q8 62 8 90q0 135 -107 135q-54 0 -107.5 -31t-96 -80.5t-80.5 -109.5t-65.5 -120.5t-48 -110t-30.5 -80.5 l-10 -31l-59 -369h-195l148 922l-173 41l19 112l375 10l-92 -397q6 13 14.5 31t34 61.5t53.5 82.5t72 85t90.5 79.5t107.5 56t125 22.5q228 0 228 -252q0 -42 -11 -117l-94 -573l174 -31l-18 -113z" />
<glyph unicode="&#x14a;" horiz-adv-x="1597" d="M754 -143h100q149 0 193 123l-508 1169l-160 -985l170 -41l-21 -123h-532l20 123l183 41l176 1106l-170 41l18 112l428 11l482 -1145l155 981l-164 41l19 112l522 11l-18 -123l-177 -41l-192 -1200q-27 -170 -144.5 -273.5t-293.5 -103.5q-22 0 -53.5 2.5t-52.5 4.5 l-21 3z" />
<glyph unicode="&#x14b;" horiz-adv-x="1286" d="M1122 737l-133 -829q-30 -187 -142 -293.5t-288 -106.5q-22 0 -53 3t-52 5l-20 3l39 143h100q99 0 148 52.5t65 152.5l136 840q8 62 8 90q0 135 -107 135q-54 0 -107.5 -31t-96 -80.5t-80.5 -109.5t-65.5 -120.5t-48 -110t-30.5 -80.5l-10 -31l-59 -369h-195l148 922 l-173 41l19 112l375 10l-92 -397q6 13 14.5 31t34 61.5t53.5 82.5t72 85t90.5 79.5t107.5 56t125 22.5q228 0 228 -252q0 -42 -11 -117z" />
<glyph unicode="&#x14c;" horiz-adv-x="1505" d="M1239 1751l-22 -154h-541l22 154h541zM612 -20q175 0 327 68.5t263 192.5t174.5 307.5t63.5 403.5q0 226 -137 364t-381 138q-170 0 -318 -71.5t-255 -198.5t-168.5 -309.5t-61.5 -395.5q0 -232 132 -365.5t361 -133.5zM1214 926q0 -217 -70 -393t-198 -277.5 t-289 -101.5q-147 0 -230 88.5t-83 257.5q0 210 66 387t191.5 285t285.5 108q153 0 240 -86.5t87 -267.5z" />
<glyph unicode="&#x14d;" horiz-adv-x="1126" d="M1006 1505l-23 -153h-541l23 153h541zM446 -20q131 0 243.5 50.5t194 142.5t127.5 228.5t46 300.5q0 181 -100.5 292.5t-284.5 111.5q-266 0 -434 -200t-168 -521q0 -185 101 -295t275 -110zM854 707q0 -165 -42.5 -291.5t-127.5 -199.5t-201 -73q-97 0 -153 58.5 t-56 177.5q0 153 39 278t123 205t199 80q100 0 159.5 -56t59.5 -179z" />
<glyph unicode="&#x14e;" horiz-adv-x="1505" d="M1186 1853l121 11q-21 -136 -118.5 -222t-219.5 -86q-98 0 -163 71.5t-65 172.5l4 53l121 11q0 -66 37.5 -110t100.5 -44q42 0 76 14.5t53 36t32 42.5t17 35zM612 -20q175 0 327 68.5t263 192.5t174.5 307.5t63.5 403.5q0 226 -137 364t-381 138q-170 0 -318 -71.5 t-255 -198.5t-168.5 -309.5t-61.5 -395.5q0 -232 132 -365.5t361 -133.5zM1214 926q0 -217 -70 -393t-198 -277.5t-289 -101.5q-147 0 -230 88.5t-83 257.5q0 210 66 387t191.5 285t285.5 108q153 0 240 -86.5t87 -267.5z" />
<glyph unicode="&#x14f;" horiz-adv-x="1126" d="M928 1556l121 11q-21 -136 -118.5 -221.5t-219.5 -85.5q-98 0 -163 71t-65 172l4 53l121 11q0 -66 37 -110t100 -44q31 0 57.5 8t44.5 20.5t33 27.5t23.5 30.5t14.5 28t8 20.5zM446 -20q131 0 243.5 50.5t194 142.5t127.5 228.5t46 300.5q0 181 -100.5 292.5 t-284.5 111.5q-266 0 -434 -200t-168 -521q0 -185 101 -295t275 -110zM854 707q0 -165 -42.5 -291.5t-127.5 -199.5t-201 -73q-97 0 -153 58.5t-56 177.5q0 153 39 278t123 205t199 80q100 0 159.5 -56t59.5 -179z" />
<glyph unicode="&#x150;" horiz-adv-x="1505" d="M612 -20q175 0 327 68.5t263 192.5t174.5 307.5t63.5 403.5q0 226 -137 364t-381 138q-170 0 -318 -71.5t-255 -198.5t-168.5 -309.5t-61.5 -395.5q0 -232 132 -365.5t361 -133.5zM623 1604l381 338l98 -134l-406 -307zM1022 1604l379 338l100 -134l-405 -307zM1214 926 q0 -217 -70 -393t-198 -277.5t-289 -101.5q-147 0 -230 88.5t-83 257.5q0 210 66 387t191.5 285t285.5 108q153 0 240 -86.5t87 -267.5z" />
<glyph unicode="&#x151;" horiz-adv-x="1126" d="M342 1307l381 338l98 -134l-405 -307zM741 1307l379 338l101 -134l-406 -307zM446 -20q131 0 243.5 50.5t194 142.5t127.5 228.5t46 300.5q0 181 -100.5 292.5t-284.5 111.5q-266 0 -434 -200t-168 -521q0 -185 101 -295t275 -110zM854 707q0 -165 -42.5 -291.5 t-127.5 -199.5t-201 -73q-97 0 -153 58.5t-56 177.5q0 153 39 278t123 205t199 80q100 0 159.5 -56t59.5 -179z" />
<glyph unicode="&#x152;" horiz-adv-x="1824" d="M1663 0h-729q-36 0 -154.5 -10t-173.5 -10q-220 0 -351.5 143.5t-131.5 376.5q0 212 61 392t167.5 302.5t252 191t311.5 68.5q59 0 150.5 -10t122.5 -10h682l-55 -349h-115l-21 185h-452l-72 -441h467l-25 -163h-467l-79 -502h465l75 209h135zM846 164l176 1106 q-59 10 -141 10q-160 0 -285.5 -108t-191.5 -285t-66 -387q0 -169 83 -257.5t230 -88.5q36 0 84.5 2.5t79.5 5.5z" />
<glyph unicode="&#x153;" horiz-adv-x="1748" d="M1632 131l-61 105q-20 -10 -53.5 -25.5t-120.5 -41.5t-154 -26q-116 0 -170.5 54t-54.5 168q0 43 6 92q324 0 517.5 101t193.5 282q0 122 -91.5 194t-246.5 72q-113 0 -211 -52.5t-172 -148.5q-41 92 -126.5 146.5t-215.5 54.5q-263 0 -433.5 -205t-170.5 -532 q0 -177 100 -283t268 -106q128 0 238 51t190 145q36 -94 116.5 -145t201.5 -51q68 0 139 15.5t124.5 37.5t97 44.5t66.5 38.5zM1042 600q40 153 136 252.5t208 99.5q154 0 154 -133q0 -106 -136.5 -162.5t-361.5 -56.5zM856 707q0 -164 -45.5 -291.5t-132.5 -200t-201 -72.5 q-96 0 -150.5 58.5t-54.5 177.5q0 151 42 277.5t127.5 206t199.5 79.5q99 0 157 -55.5t58 -179.5z" />
<glyph unicode="&#x154;" horiz-adv-x="1290" d="M670 1528l-54 108l445 248l76 -162zM909 0l-114 379q-44 149 -98.5 197.5t-161.5 48.5h-60l-72 -461l177 -41l-21 -123h-563l20 123l181 41l176 1106l-166 41l16 112l381 11h221q107 0 195 -32t146.5 -104.5t58.5 -175.5q0 -176 -98.5 -294.5t-260.5 -168.5 q28 -23 61.5 -86.5t59.5 -142.5l90 -266l148 -41l-21 -123h-295zM500 778h151q159 0 259 80.5t100 226.5q0 94 -59 139.5t-163 45.5h-210z" />
<glyph unicode="&#x155;" horiz-adv-x="872" d="M455 1327l422 301l88 -153l-447 -256zM760 778v144q-44 0 -88 -29.5t-79.5 -76.5t-68 -103.5t-56 -113.5t-41.5 -104t-27 -77l-9 -29l-65 -389h-195l150 922l-175 41l19 112l377 10l-80 -356q5 13 12 30t27.5 56t43.5 74t60.5 76.5t77.5 71t95 49.5t114 20q23 0 48.5 -5 t39.5 -11l14 -5l-61 -307h-133z" />
<glyph unicode="&#x156;" horiz-adv-x="1290" d="M909 0l-114 379q-44 149 -98.5 197.5t-161.5 48.5h-60l-72 -461l177 -41l-21 -123h-563l20 123l181 41l176 1106l-166 41l16 112l381 11h221q107 0 195 -32t146.5 -104.5t58.5 -175.5q0 -176 -98.5 -294.5t-260.5 -168.5q28 -23 61.5 -86.5t59.5 -142.5l90 -266l148 -41 l-21 -123h-295zM500 778h151q159 0 259 80.5t100 226.5q0 94 -59 139.5t-163 45.5h-210zM465 -584l-72 82q13 12 31.5 31t50 59t31.5 58q0 17 -10.5 49t-10.5 59q0 61 40.5 102.5t95.5 41.5q51 0 80.5 -30.5t29.5 -82.5q0 -41 -17 -84t-40 -77.5t-63 -75.5t-70 -67.5 t-76 -64.5z" />
<glyph unicode="&#x157;" horiz-adv-x="872" d="M760 778v144q-44 0 -88 -29.5t-79.5 -76.5t-68 -103.5t-56 -113.5t-41.5 -104t-27 -77l-9 -29l-65 -389h-195l150 922l-175 41l19 112l377 10l-80 -356q5 13 12 30t27.5 56t43.5 74t60.5 76.5t77.5 71t95 49.5t114 20q23 0 48.5 -5t39.5 -11l14 -5l-61 -307h-133z M72 -584l-72 82q13 12 31.5 31t50 59t31.5 58q0 17 -10.5 49t-10.5 59q0 61 40 102.5t95 41.5q51 0 81 -30.5t30 -82.5q0 -41 -17 -84t-40 -77.5t-63 -75.5t-70 -67.5t-76 -64.5z" />
<glyph unicode="&#x158;" horiz-adv-x="1290" d="M1096 1868l55 -92l-326 -228l-118 -10l-250 238l98 92l236 -176zM909 0l-114 379q-44 149 -98.5 197.5t-161.5 48.5h-60l-72 -461l177 -41l-21 -123h-563l20 123l181 41l176 1106l-166 41l16 112l381 11h221q107 0 195 -32t146.5 -104.5t58.5 -175.5q0 -176 -98.5 -294.5 t-260.5 -168.5q28 -23 61.5 -86.5t59.5 -142.5l90 -266l148 -41l-21 -123h-295zM500 778h151q159 0 259 80.5t100 226.5q0 94 -59 139.5t-163 45.5h-210z" />
<glyph unicode="&#x159;" horiz-adv-x="872" d="M991 1505l-325 -266l-119 -10l-250 276l98 92l228 -215l313 215zM760 778v144q-44 0 -88 -29.5t-79.5 -76.5t-68 -103.5t-56 -113.5t-41.5 -104t-27 -77l-9 -29l-65 -389h-195l150 922l-175 41l19 112l377 10l-80 -356q5 13 12 30t27.5 56t43.5 74t60.5 76.5t77.5 71 t95 49.5t114 20q23 0 48.5 -5t39.5 -11l14 -5l-61 -307h-133z" />
<glyph unicode="&#x15a;" horiz-adv-x="1183" d="M649 1528l-53 108l444 248l76 -162zM125 420l-57 -359q20 -9 55.5 -22.5t136.5 -36t191 -22.5q110 0 211 32.5t182.5 94t130.5 160.5t49 222q0 78 -32 138.5t-83 98t-112.5 67t-123 55t-112.5 53t-83 69t-32 95.5q0 91 77 153t204 62q43 0 93 -9t79 -19l29 -9l28 -219 h115l66 348q-23 9 -61 22.5t-138 36.5t-178 23q-102 0 -194.5 -27.5t-169.5 -81.5t-123 -145t-46 -207q0 -84 32 -148t83 -102.5t112.5 -69t123 -55.5t112.5 -52t83 -68.5t32 -96.5q0 -77 -51 -135t-123.5 -85t-149.5 -27q-54 0 -107.5 11t-80.5 21l-27 11l-6 223h-135z" />
<glyph unicode="&#x15b;" horiz-adv-x="942" d="M403 1327l422 301l88 -153l-446 -256zM92 328l-49 -297q16 -6 44.5 -14.5t109 -22.5t153.5 -14q209 0 335 94t126 254q0 58 -25.5 105.5t-66 79.5t-90 59.5t-98.5 52t-89.5 49.5t-66 59.5t-25.5 75.5q0 74 53 110.5t142 36.5q39 0 72.5 -4.5t46.5 -9.5l14 -4l12 -160h133 l49 277q-153 51 -303 51q-86 0 -159.5 -20t-131 -59t-90 -103t-32.5 -146q0 -62 25 -112.5t64.5 -83.5t87.5 -60.5t96 -50.5t87.5 -46.5t64.5 -56t25 -71.5q0 -82 -61 -125t-164 -43q-26 0 -51 2.5t-43 6.5t-32 7.5t-22 6.5l-8 2v174h-133z" />
<glyph unicode="&#x15c;" horiz-adv-x="1183" d="M791 1706l-306 -170l-65 92l330 225l120 11l252 -236l-96 -92zM125 420l-57 -359q20 -9 55.5 -22.5t136.5 -36t191 -22.5q110 0 211 32.5t182.5 94t130.5 160.5t49 222q0 78 -32 138.5t-83 98t-112.5 67t-123 55t-112.5 53t-83 69t-32 95.5q0 91 77 153t204 62 q43 0 93 -9t79 -19l29 -9l28 -219h115l66 348q-23 9 -61 22.5t-138 36.5t-178 23q-102 0 -194.5 -27.5t-169.5 -81.5t-123 -145t-46 -207q0 -84 32 -148t83 -102.5t112.5 -69t123 -55.5t112.5 -52t83 -68.5t32 -96.5q0 -77 -51 -135t-123.5 -85t-149.5 -27q-54 0 -107.5 11 t-80.5 21l-27 11l-6 223h-135z" />
<glyph unicode="&#x15d;" horiz-adv-x="942" d="M303 1264l-67 92l331 266l121 10l250 -276l-94 -92l-236 200zM92 328l-49 -297q16 -6 44.5 -14.5t109 -22.5t153.5 -14q209 0 335 94t126 254q0 58 -25.5 105.5t-66 79.5t-90 59.5t-98.5 52t-89.5 49.5t-66 59.5t-25.5 75.5q0 74 53 110.5t142 36.5q39 0 72.5 -4.5 t46.5 -9.5l14 -4l12 -160h133l49 277q-153 51 -303 51q-86 0 -159.5 -20t-131 -59t-90 -103t-32.5 -146q0 -62 25 -112.5t64.5 -83.5t87.5 -60.5t96 -50.5t87.5 -46.5t64.5 -56t25 -71.5q0 -82 -61 -125t-164 -43q-26 0 -51 2.5t-43 6.5t-32 7.5t-22 6.5l-8 2v174h-133z" />
<glyph unicode="&#x15e;" horiz-adv-x="1183" d="M956 1024l-28 219q-105 37 -201 37q-127 0 -204 -62t-77 -153q0 -54 32 -95.5t83 -69t112.5 -53t123 -55t112.5 -67t83 -98t32 -138.5q0 -110 -39 -201t-106.5 -152.5t-152 -99t-181.5 -50.5l-13 -74q69 -12 108.5 -51t39.5 -97q0 -90 -70 -151.5t-164 -61.5 q-62 0 -115 12t-75 24l-23 12l62 84q63 -33 135 -33q48 0 83.5 28t35.5 72q0 41 -39 64.5t-111 23.5l23 142q-84 4 -172.5 24t-135.5 38l-46 19l57 359h135l6 -223q94 -43 215 -43q77 0 149.5 27t123.5 85t51 135q0 55 -32 96.5t-83 68.5t-112.5 52t-123 55.5t-112.5 69 t-83 102.5t-32 148q0 116 46 207t123 145t169.5 81.5t194.5 27.5q78 0 172.5 -20.5t149.5 -41.5l55 -20l-66 -348h-115z" />
<glyph unicode="&#x15f;" horiz-adv-x="942" d="M690 778l-12 160q-45 18 -133 18q-89 0 -142 -36.5t-53 -110.5q0 -41 25.5 -75.5t66 -59.5t89.5 -49.5t98.5 -52t90 -59.5t66 -79.5t25.5 -105.5q0 -140 -97 -230t-265 -112l-13 -74q69 -12 108.5 -51t39.5 -97q0 -90 -70 -151.5t-164 -61.5q-62 0 -115 12t-75 24l-23 12 l62 84q63 -33 135 -33q48 0 83.5 28t35.5 72q0 41 -39 64.5t-111 23.5l23 142q-68 2 -139 14.5t-107 24.5l-37 12l49 297h135v-174q62 -25 154 -25q103 0 164 43t61 125q0 39 -25 71.5t-64.5 56t-87.5 46.5t-96 50.5t-87.5 60.5t-64.5 83.5t-25 112.5q0 82 32.5 146t90 103 t131 59t159.5 20q67 0 142.5 -13t118.5 -25l42 -13l-49 -277h-133z" />
<glyph unicode="&#x160;" horiz-adv-x="1183" d="M1139 1868l55 -92l-326 -228l-118 -10l-250 238l98 92l236 -176zM125 420l-57 -359q20 -9 55.5 -22.5t136.5 -36t191 -22.5q110 0 211 32.5t182.5 94t130.5 160.5t49 222q0 78 -32 138.5t-83 98t-112.5 67t-123 55t-112.5 53t-83 69t-32 95.5q0 91 77 153t204 62 q43 0 93 -9t79 -19l29 -9l28 -219h115l66 348q-23 9 -61 22.5t-138 36.5t-178 23q-102 0 -194.5 -27.5t-169.5 -81.5t-123 -145t-46 -207q0 -84 32 -148t83 -102.5t112.5 -69t123 -55.5t112.5 -52t83 -68.5t32 -96.5q0 -77 -51 -135t-123.5 -85t-149.5 -27q-54 0 -107.5 11 t-80.5 21l-27 11l-6 223h-135z" />
<glyph unicode="&#x161;" horiz-adv-x="942" d="M977 1505l-326 -266l-119 -10l-249 276l98 92l227 -215l314 215zM92 328l-49 -297q16 -6 44.5 -14.5t109 -22.5t153.5 -14q209 0 335 94t126 254q0 58 -25.5 105.5t-66 79.5t-90 59.5t-98.5 52t-89.5 49.5t-66 59.5t-25.5 75.5q0 74 53 110.5t142 36.5q39 0 72.5 -4.5 t46.5 -9.5l14 -4l12 -160h133l49 277q-153 51 -303 51q-86 0 -159.5 -20t-131 -59t-90 -103t-32.5 -146q0 -62 25 -112.5t64.5 -83.5t87.5 -60.5t96 -50.5t87.5 -46.5t64.5 -56t25 -71.5q0 -82 -61 -125t-164 -43q-26 0 -51 2.5t-43 6.5t-32 7.5t-22 6.5l-8 2v174h-133z" />
<glyph unicode="&#x162;" horiz-adv-x="1124" d="M1255 1434l-59 -369h-131l-21 205h-264l-176 -1106l197 -41l-21 -123h-245l-15 -88q69 -12 108.5 -51t39.5 -97q0 -90 -70 -151.5t-164 -61.5q-62 0 -115 12t-75 24l-23 12l62 84q63 -33 135 -33q48 0 83.5 28t35.5 72q0 41 -39 64.5t-111 23.5l27 162h-246l20 123 l211 41l176 1106h-266l-84 -205h-133l62 369h1101z" />
<glyph unicode="&#x163;" horiz-adv-x="755" d="M487 922l-88 -547q-12 -79 -12 -129q0 -55 18.5 -79t61.5 -24q25 0 66.5 10.5t70.5 20.5l29 10l33 -110q-17 -10 -44.5 -25t-97.5 -41t-121 -28l-10 -68q69 -12 108.5 -51t39.5 -97q0 -90 -70 -151.5t-164 -61.5q-62 0 -115 12t-76 24l-22 12l62 84q63 -33 135 -33 q48 0 83.5 28t35.5 72q0 41 -39 64.5t-111 23.5l27 166q-97 54 -97 219q0 55 13 131l90 568h-203l23 133l204 20l41 258l203 41l-49 -299h283l-25 -153h-283z" />
<glyph unicode="&#x164;" horiz-adv-x="1124" d="M1038 1868l56 -92l-326 -228l-119 -10l-250 238l99 92l235 -176zM1196 1065h-131l-21 205h-264l-176 -1106l197 -41l-21 -123h-612l20 123l211 41l176 1106h-266l-84 -205h-133l62 369h1101z" />
<glyph unicode="&#x165;" horiz-adv-x="753" d="M762 1171l-109 43q120 253 140 414l196 10q-29 -154 -227 -467zM633 184l33 -110q-17 -11 -46 -26.5t-100.5 -41.5t-122.5 -26q-207 0 -207 243q0 55 13 131l90 568h-203l23 133l204 20l41 258l203 41l-49 -299h283l-25 -153h-283l-88 -547q-12 -79 -12 -129 q0 -55 18.5 -79t61.5 -24q25 0 66.5 10.5t70.5 20.5z" />
<glyph unicode="&#x166;" horiz-adv-x="1124" d="M1255 1434l-59 -369h-131l-21 205h-264l-73 -461h297l-29 -162h-293l-78 -483l197 -41l-21 -123h-612l20 123l211 41l78 483h-289l29 162h285l73 461h-266l-84 -205h-133l62 369h1101z" />
<glyph unicode="&#x167;" horiz-adv-x="755" d="M487 922l-36 -226h290l-22 -153h-293l-27 -168q-12 -79 -12 -129q0 -55 18.5 -79t61.5 -24q25 0 66.5 10.5t70.5 20.5l29 10l33 -110q-17 -11 -46 -26.5t-100.5 -41.5t-122.5 -26q-207 0 -207 243q0 55 13 131l30 189h-194l22 153h197l35 226h-203l23 133l204 20l41 258 l203 41l-49 -299h283l-25 -153h-283z" />
<glyph unicode="&#x168;" horiz-adv-x="1566" d="M592 1569l-60 61q5 8 13 21t35 46t54.5 58.5t69 46.5t80.5 21q58 0 117.5 -23.5t114.5 -47t104 -23.5q36 0 72 21.5t54 43.5l18 21l61 -62q-4 -7 -11.5 -19.5t-32.5 -44.5t-52 -56t-67 -44t-79 -20q-58 0 -116.5 22.5t-113.5 45t-105 22.5q-36 0 -75 -22.5t-60 -44.5z M1444 1270l-107 -666q-18 -118 -49.5 -211t-83 -172t-122.5 -131t-170.5 -81t-223.5 -29t-213 29.5t-140 85t-74 128t-23 166.5q0 64 14 164l115 717l-174 41l18 112l561 11l-20 -123l-179 -41l-114 -717q-13 -80 -13 -141q0 -124 62.5 -191t218.5 -67q183 0 272.5 98.5 t126.5 331.5l111 686l-184 41l18 112l565 11l-20 -123z" />
<glyph unicode="&#x169;" horiz-adv-x="1302" d="M420 1300l-58 72q5 8 13 21t35 46t54.5 58.5t69 46.5t80.5 21q47 0 92.5 -15t76.5 -32.5t73 -32.5t82 -15q36 0 72 21.5t54 42.5l19 22l60 -71q-4 -8 -11.5 -20t-32.5 -44t-52 -56.5t-67 -44.5t-79 -20q-58 0 -115 23t-109.5 45.5t-101.5 22.5q-23 0 -47.5 -9.5 t-43 -22.5t-33.5 -26.5t-23 -22.5zM801 0l84 397q-4 -11 -14 -31.5t-34 -62t-52.5 -81.5t-71.5 -85t-89 -79t-107 -56t-124 -22q-227 0 -227 249q0 61 17.5 177t86.5 516l-174 41l19 112l374 10q-78 -471 -99 -612.5t-21 -183.5q0 -135 106 -135q56 0 110 31t96 80.5 t79.5 109.5t64.5 120.5t47 110t30 80.5l9 31l62 368h194l-147 -921l176 -31l-18 -113z" />
<glyph unicode="&#x16a;" horiz-adv-x="1566" d="M1200 1751l-22 -154h-541l22 154h541zM1444 1270l-107 -666q-18 -118 -49.5 -211t-83 -172t-122.5 -131t-170.5 -81t-223.5 -29t-213 29.5t-140 85t-74 128t-23 166.5q0 64 14 164l115 717l-174 41l18 112l561 11l-20 -123l-179 -41l-114 -717q-13 -80 -13 -141 q0 -124 62.5 -191t218.5 -67q183 0 272.5 98.5t126.5 331.5l111 686l-184 41l18 112l565 11l-20 -123z" />
<glyph unicode="&#x16b;" horiz-adv-x="1302" d="M1016 1505l-23 -153h-540l22 153h541zM801 0l84 397q-4 -11 -14 -31.5t-34 -62t-52.5 -81.5t-71.5 -85t-89 -79t-107 -56t-124 -22q-227 0 -227 249q0 61 17.5 177t86.5 516l-174 41l19 112l374 10q-78 -471 -99 -612.5t-21 -183.5q0 -135 106 -135q56 0 110 31t96 80.5 t79.5 109.5t64.5 120.5t47 110t30 80.5l9 31l62 368h194l-147 -921l176 -31l-18 -113z" />
<glyph unicode="&#x16c;" horiz-adv-x="1566" d="M1139 1853l121 11q-21 -136 -118.5 -222t-219.5 -86q-98 0 -163 71.5t-65 172.5l4 53l121 11q0 -66 37 -110t100 -44q42 0 76.5 14.5t53 36t31.5 42.5t17 35zM1444 1270l-107 -666q-18 -118 -49.5 -211t-83 -172t-122.5 -131t-170.5 -81t-223.5 -29t-213 29.5t-140 85 t-74 128t-23 166.5q0 64 14 164l115 717l-174 41l18 112l561 11l-20 -123l-179 -41l-114 -717q-13 -80 -13 -141q0 -124 62.5 -191t218.5 -67q183 0 272.5 98.5t126.5 331.5l111 686l-184 41l18 112l565 11l-20 -123z" />
<glyph unicode="&#x16d;" horiz-adv-x="1302" d="M938 1556l121 11q-21 -136 -118.5 -221.5t-219.5 -85.5q-98 0 -162.5 71t-64.5 172l4 53l120 11q0 -66 37.5 -110t100.5 -44q42 0 76 14.5t53 35.5t32 42.5t17 36.5zM801 0l84 397q-4 -11 -14 -31.5t-34 -62t-52.5 -81.5t-71.5 -85t-89 -79t-107 -56t-124 -22 q-227 0 -227 249q0 61 17.5 177t86.5 516l-174 41l19 112l374 10q-78 -471 -99 -612.5t-21 -183.5q0 -135 106 -135q56 0 110 31t96 80.5t79.5 109.5t64.5 120.5t47 110t30 80.5l9 31l62 368h194l-147 -921l176 -31l-18 -113z" />
<glyph unicode="&#x16e;" horiz-adv-x="1566" d="M735 1692q0 108 82 191t189 83q83 0 140.5 -49.5t57.5 -136.5q0 -108 -81.5 -191.5t-188.5 -83.5q-86 0 -142.5 51.5t-56.5 135.5zM991 1864q-59 0 -97 -48t-38 -112q0 -46 24 -71t70 -25q59 0 96 47.5t37 111.5q0 46 -23.5 71.5t-68.5 25.5zM1444 1270l-107 -666 q-18 -118 -49.5 -211t-83 -172t-122.5 -131t-170.5 -81t-223.5 -29t-213 29.5t-140 85t-74 128t-23 166.5q0 64 14 164l115 717l-174 41l18 112l561 11l-20 -123l-179 -41l-114 -717q-13 -80 -13 -141q0 -124 62.5 -191t218.5 -67q183 0 272.5 98.5t126.5 331.5l111 686 l-184 41l18 112l565 11l-20 -123z" />
<glyph unicode="&#x16f;" horiz-adv-x="1302" d="M508 1405q0 108 81.5 191t188.5 83q83 0 141 -49.5t58 -136.5q0 -108 -81.5 -191t-188.5 -83q-86 0 -142.5 51.5t-56.5 134.5zM764 1577q-59 0 -97 -48t-38 -112q0 -46 24 -71t70 -25q59 0 96 47.5t37 112.5q0 96 -92 96zM801 0l84 397q-4 -11 -14 -31.5t-34 -62 t-52.5 -81.5t-71.5 -85t-89 -79t-107 -56t-124 -22q-227 0 -227 249q0 61 17.5 177t86.5 516l-174 41l19 112l374 10q-78 -471 -99 -612.5t-21 -183.5q0 -135 106 -135q56 0 110 31t96 80.5t79.5 109.5t64.5 120.5t47 110t30 80.5l9 31l62 368h194l-147 -921l176 -31 l-18 -113z" />
<glyph unicode="&#x170;" horiz-adv-x="1566" d="M604 1604l381 338l98 -134l-405 -307zM1004 1604l378 338l101 -134l-406 -307zM1444 1270l-107 -666q-18 -118 -49.5 -211t-83 -172t-122.5 -131t-170.5 -81t-223.5 -29t-213 29.5t-140 85t-74 128t-23 166.5q0 64 14 164l115 717l-174 41l18 112l561 11l-20 -123 l-179 -41l-114 -717q-13 -80 -13 -141q0 -124 62.5 -191t218.5 -67q183 0 272.5 98.5t126.5 331.5l111 686l-184 41l18 112l565 11l-20 -123z" />
<glyph unicode="&#x171;" horiz-adv-x="1302" d="M360 1307l381 338l99 -134l-406 -307zM760 1307l379 338l100 -134l-405 -307zM801 0l84 397q-4 -11 -14 -31.5t-34 -62t-52.5 -81.5t-71.5 -85t-89 -79t-107 -56t-124 -22q-227 0 -227 249q0 61 17.5 177t86.5 516l-174 41l19 112l374 10q-78 -471 -99 -612.5t-21 -183.5 q0 -135 106 -135q56 0 110 31t96 80.5t79.5 109.5t64.5 120.5t47 110t30 80.5l9 31l62 368h194l-147 -921l176 -31l-18 -113z" />
<glyph unicode="&#x172;" horiz-adv-x="1566" d="M1616 1311l-172 -41l-107 -666q-18 -114 -51 -207t-70 -152.5t-85.5 -106.5t-88.5 -72t-88 -46q-313 -139 -313 -274q0 -34 21.5 -54t56.5 -20q18 0 41.5 4t37.5 8l15 3l4 -97q-86 -41 -166 -41q-76 0 -125 41t-49 113q0 152 207 277q-123 1 -211 30.5t-138.5 85 t-73.5 127.5t-23 166q0 64 14 164l115 717l-174 41l18 112l561 11l-20 -123l-179 -41l-114 -717q-13 -80 -13 -141q0 -124 62.5 -191t218.5 -67q183 0 272.5 98.5t126.5 331.5l111 686l-184 41l18 112l565 11z" />
<glyph unicode="&#x173;" horiz-adv-x="1294" d="M1196 133l-18 -113q-4 -2 -33.5 -16t-49 -24.5t-51.5 -29.5t-54 -39t-44 -45.5t-33.5 -56t-11.5 -63.5q0 -35 22.5 -54.5t57.5 -19.5q49 0 94 15v-97q-86 -41 -166 -41q-74 0 -123 44t-49 116q0 51 22 99.5t59 86t73 65t74 48.5l-164 -8l84 397q-4 -11 -14 -31.5t-34 -62 t-52.5 -81.5t-71.5 -85t-89 -79t-107 -56t-124 -22q-227 0 -227 249q0 61 17.5 177t86.5 516l-174 41l19 112l374 10q-78 -471 -99 -612.5t-21 -183.5q0 -135 106 -135q56 0 110 31t96 80.5t79.5 109.5t64.5 120.5t47 110t30 80.5l9 31l62 368h194l-147 -921z" />
<glyph unicode="&#x174;" horiz-adv-x="1980" d="M1165 1706l-305 -170l-65 92l329 225l121 11l252 -236l-96 -92zM90 1311l19 112l362 11v-2l2 2l154 -1055l454 1044l129 11l164 -1069l385 905l-176 41l21 112l548 11l-20 -123l-158 -39l-588 -1272h-129l-178 993l-86 -209l-372 -784h-134l-225 1270z" />
<glyph unicode="&#x175;" horiz-adv-x="1589" d="M709 1264l-68 92l332 266l121 10l249 -276l-94 -92l-235 200zM1133 0h-236l-94 696l-27 -102l-229 -594h-232l-147 932l-143 31l18 112l322 10l102 -890l334 880l145 10l105 -890l301 729l-174 39l18 112l469 10l-20 -122l-101 -25z" />
<glyph unicode="&#x176;" horiz-adv-x="1241" d="M709 1706l-306 -170l-65 92l330 225l120 11l252 -236l-96 -92zM272 1270l-172 41l19 112l317 11l205 -750l344 588l-184 39l20 112l551 11l-20 -123l-164 -41l-506 -797l-49 -309l170 -41l-21 -123h-559l21 123l184 41l57 373z" />
<glyph unicode="&#x177;" horiz-adv-x="1079" d="M326 1264l-68 92l332 266l121 10l250 -276l-95 -92l-235 200zM1020 930l-365 -862q-48 -113 -81 -185t-71 -141.5t-70.5 -108.5t-72.5 -70t-83.5 -43t-98.5 -12q-52 0 -109.5 8t-89.5 16l-32 9l41 131q81 -10 153 -10q103 0 160 55t121 203l-266 1004l-142 39l23 112 l309 10l172 -751l19 -139l303 731l-154 37l19 112l450 10l-20 -122z" />
<glyph unicode="&#x178;" horiz-adv-x="1241" d="M436 1659q0 64 36.5 108.5t94.5 44.5q44 0 69.5 -25t25.5 -69q0 -62 -39 -106.5t-95 -44.5q-43 0 -67.5 24.5t-24.5 67.5zM848 1659q0 64 36.5 108.5t94.5 44.5q44 0 69 -25t25 -69q0 -62 -38.5 -106.5t-94.5 -44.5q-43 0 -67.5 24.5t-24.5 67.5zM272 1270l-172 41 l19 112l317 11l205 -750l344 588l-184 39l20 112l551 11l-20 -123l-164 -41l-506 -797l-49 -309l170 -41l-21 -123h-559l21 123l184 41l57 373z" />
<glyph unicode="&#x179;" horiz-adv-x="1202" d="M578 1528l-54 108l445 248l75 -162zM1184 1298l-858 -1134h548l74 209h135l-59 -373h-965l11 143l852 1125h-541l-82 -183h-115l49 349h961z" />
<glyph unicode="&#x17a;" horiz-adv-x="946" d="M332 1327l422 301l88 -153l-447 -256zM922 952l-654 -792h385l66 168h123l-43 -328h-789l10 143l656 789h-357l-65 -154h-133l47 307h764z" />
<glyph unicode="&#x17b;" horiz-adv-x="1202" d="M594 1661q0 58 36.5 104.5t96.5 46.5q43 0 67.5 -25t24.5 -69q0 -68 -39.5 -109.5t-93.5 -41.5q-44 0 -68 24t-24 70zM1184 1298l-858 -1134h548l74 209h135l-59 -373h-965l11 143l852 1125h-541l-82 -183h-115l49 349h961z" />
<glyph unicode="&#x17c;" horiz-adv-x="946" d="M461 1405q0 58 36.5 104.5t96.5 46.5q43 0 67.5 -25t24.5 -69q0 -68 -39.5 -109.5t-93.5 -41.5q-44 0 -68 24t-24 70zM922 952l-654 -792h385l66 168h123l-43 -328h-789l10 143l656 789h-357l-65 -154h-133l47 307h764z" />
<glyph unicode="&#x17d;" horiz-adv-x="1202" d="M1055 1868l55 -92l-326 -228l-118 -10l-250 238l98 92l236 -176zM1184 1298l-858 -1134h548l74 209h135l-59 -373h-965l11 143l852 1125h-541l-82 -183h-115l49 349h961z" />
<glyph unicode="&#x17e;" horiz-adv-x="946" d="M975 1505l-326 -266l-119 -10l-249 276l98 92l227 -215l314 215zM922 952l-654 -792h385l66 168h123l-43 -328h-789l10 143l656 789h-357l-65 -154h-133l47 307h764z" />
<glyph unicode="&#x17f;" horiz-adv-x="720" d="M848 1434h-90q-100 0 -145 -50t-60 -145l-205 -1280q-72 -451 -420 -451q-32 0 -74.5 7t-69.5 13l-26 7l35 131h146q167 0 208 252l203 1280q63 399 408 399q64 0 133 -10.5t106 -20.5l37 -10l-53 -286h-133v164z" />
<glyph unicode="&#x192;" horiz-adv-x="907" d="M535 770l-191 -780q-24 -99 -55.5 -167.5t-81 -123.5t-124 -82t-175.5 -27q-29 0 -63.5 5t-54.5 11l-19 5l30 143h111q95 0 140.5 47t70.5 148l201 821h-172l22 129l186 23l70 276q52 210 151.5 304.5t284.5 94.5q31 0 72 -5t66 -10l26 -5l-33 -143h-133 q-96 0 -141.5 -47.5t-71.5 -147.5l-78 -317h283l-27 -152h-294z" />
<glyph unicode="&#x1fa;" horiz-adv-x="1458" d="M1362 123l-21 -123h-542l18 123l176 41l-41 225h-522l-113 -227l172 -39l-20 -123h-543l19 123l174 41l647 1245q-92 52 -92 160t81.5 191t188.5 83q83 0 141 -49.5t58 -136.5q0 -77 -45.5 -145.5t-116.5 -102.5l242 -1251zM930 1741q-59 0 -97 -48t-38 -112 q0 -46 24 -71t70 -25q59 0 96 47.5t37 112.5q0 96 -92 96zM924 553l-105 616l-309 -616h414zM768 1845l-45 113l465 209l61 -168z" />
<glyph unicode="&#x1fb;" horiz-adv-x="1214" d="M584 1374q0 108 81.5 191.5t188.5 83.5q83 0 141 -50t58 -137q0 -108 -82 -191t-189 -83q-86 0 -142 51t-56 135zM840 1546q-59 0 -97 -48t-38 -112q0 -46 24 -71t70 -25q59 0 96 47.5t37 112.5q0 96 -92 96zM1090 20l-381 -20l82 377q-7 -14 -15.5 -30.5t-34 -58.5 t-52 -78.5t-68 -80.5t-83.5 -75t-96.5 -52.5t-109.5 -21.5q-116 0 -192.5 102t-76.5 256q0 146 34 272t92.5 216t136.5 154t166.5 95t181.5 31q59 0 116.5 -15.5t85.5 -30.5l27 -16l62 41h112l-147 -921l178 -31zM817 707l41 215q-78 30 -184 30q-60 0 -117 -21t-110 -67 t-92.5 -112.5t-63 -165t-23.5 -217.5q0 -104 34.5 -159.5t90.5 -55.5q50 0 100.5 30.5t91 79.5t78 107.5t65 117.5t48 108t30.5 79zM621 1772l446 264l76 -162l-467 -215z" />
<glyph unicode="&#x1fc;" horiz-adv-x="1916" d="M1225 1528l-54 108l445 248l76 -162zM688 1311l19 112l391 11h823l-55 -349h-115l-20 185h-453l-72 -441h467l-24 -163h-467l-80 -502h465l75 209h136l-64 -373h-1018l21 123l180 41l41 256h-444l-170 -262l153 -35l-20 -123h-533l21 123l174 41l731 1106zM598 584h365 l110 686h-35z" />
<glyph unicode="&#x1fd;" horiz-adv-x="1595" d="M190 768l33 256q24 9 64.5 22.5t145 36.5t185.5 23q126 0 193 -37.5t84 -122.5q147 160 348 160q155 0 246.5 -72t91.5 -194q0 -181 -193.5 -282t-517.5 -101q-6 -50 -6 -92q0 -114 55 -168t171 -54q67 0 148.5 23.5t129.5 46.5l49 23l62 -105q-9 -6 -24.5 -16.5 t-64.5 -36.5t-99 -45.5t-122.5 -36t-140.5 -16.5q-127 0 -210 57t-116 160q-77 -96 -186 -156.5t-213 -60.5q-117 0 -186.5 65.5t-69.5 179.5q0 186 134 279.5t368 93.5h156l26 170q4 28 4 41q0 70 -42 106.5t-120 36.5q-56 0 -108 -7.5t-76 -14.5l-24 -8l-58 -154h-117z M889 600q225 0 361 56.5t136 162.5q0 133 -153 133q-112 0 -208 -99.5t-136 -252.5zM684 465h-137q-305 0 -305 -199q0 -53 39 -88t94 -35q73 0 142.5 50.5t113 124t53.5 147.5zM793 1327l421 301l89 -153l-447 -256z" />
<glyph unicode="&#x1fe;" horiz-adv-x="1505" d="M1477 1536l-170 -227q125 -128 125 -336q0 -227 -62 -415t-171 -314t-259.5 -195t-325.5 -69q-147 0 -256 59l-190 -254l-119 72l201 268q-119 135 -119 354q0 213 60 395.5t165 309.5t251.5 198.5t316.5 71.5q157 0 274 -63l162 217zM385 305l696 932q-71 43 -192 43 q-160 0 -285.5 -108t-191.5 -285t-66 -387q0 -115 39 -195zM1178 1135l-701 -934q70 -47 182 -47q162 0 289.5 102t198 282.5t70.5 407.5q0 113 -39 189zM844 1528l-53 108l444 248l76 -162z" />
<glyph unicode="&#x1ff;" horiz-adv-x="1187" d="M1171 1208l-163 -221q90 -104 90 -250q0 -173 -48 -316.5t-132 -239.5t-200 -148.5t-251 -52.5q-100 0 -178 38l-174 -233l-111 72l178 241q-90 104 -90 271q0 327 172 532t438 205q112 0 199 -41l160 215zM311 272l480 643q-53 27 -119 27q-116 0 -203 -79.5 t-129.5 -206t-42.5 -277.5q0 -66 14 -107zM877 811l-478 -643q48 -25 109 -25q176 0 280.5 157t104.5 407q0 58 -16 104zM506 1327l422 301l88 -153l-447 -256z" />
<glyph unicode="&#x218;" horiz-adv-x="1183" d="M125 420l-57 -359q20 -9 55.5 -22.5t136.5 -36t191 -22.5q110 0 211 32.5t182.5 94t130.5 160.5t49 222q0 78 -32 138.5t-83 98t-112.5 67t-123 55t-112.5 53t-83 69t-32 95.5q0 91 77 153t204 62q43 0 93 -9t79 -19l29 -9l28 -219h115l66 348q-23 9 -61 22.5t-138 36.5 t-178 23q-102 0 -194.5 -27.5t-169.5 -81.5t-123 -145t-46 -207q0 -84 32 -148t83 -102.5t112.5 -69t123 -55.5t112.5 -52t83 -68.5t32 -96.5q0 -77 -51 -135t-123.5 -85t-149.5 -27q-54 0 -107.5 11t-80.5 21l-27 11l-6 223h-135zM133 -584l-72 82q13 12 31.5 31t50 59 t31.5 58q0 17 -10 49t-10 59q0 61 40 102.5t95 41.5q51 0 80.5 -30.5t29.5 -82.5q0 -41 -17 -84t-40 -77.5t-63 -75.5t-70 -67.5t-76 -64.5z" />
<glyph unicode="&#x219;" horiz-adv-x="942" d="M92 328l-49 -297q16 -6 44.5 -14.5t109 -22.5t153.5 -14q209 0 335 94t126 254q0 58 -25.5 105.5t-66 79.5t-90 59.5t-98.5 52t-89.5 49.5t-66 59.5t-25.5 75.5q0 74 53 110.5t142 36.5q39 0 72.5 -4.5t46.5 -9.5l14 -4l12 -160h133l49 277q-153 51 -303 51 q-86 0 -159.5 -20t-131 -59t-90 -103t-32.5 -146q0 -62 25 -112.5t64.5 -83.5t87.5 -60.5t96 -50.5t87.5 -46.5t64.5 -56t25 -71.5q0 -82 -61 -125t-164 -43q-26 0 -51 2.5t-43 6.5t-32 7.5t-22 6.5l-8 2v174h-133zM133 -584l-72 82q13 12 31.5 31t50 59t31.5 58 q0 17 -10 49t-10 59q0 61 40 102.5t95 41.5q51 0 80.5 -30.5t29.5 -82.5q0 -41 -17 -84t-40 -77.5t-63 -75.5t-70 -67.5t-76 -64.5z" />
<glyph unicode="&#x21a;" horiz-adv-x="1124" d="M1196 1065h-131l-21 205h-264l-176 -1106l197 -41l-21 -123h-612l20 123l211 41l176 1106h-266l-84 -205h-133l62 369h1101zM301 -584l-72 82q13 12 31.5 31t50 59t31.5 58q0 17 -10 49t-10 59q0 61 40 102.5t95 41.5q51 0 80.5 -30.5t29.5 -82.5q0 -41 -17 -84 t-40 -77.5t-63 -75.5t-70 -67.5t-76 -64.5z" />
<glyph unicode="&#x21b;" horiz-adv-x="749" d="M633 184l33 -110q-17 -11 -46 -26.5t-100.5 -41.5t-122.5 -26q-207 0 -207 243q0 55 13 131l90 568h-203l23 133l204 20l41 258l203 41l-49 -299h283l-25 -153h-283l-88 -547q-12 -79 -12 -129q0 -55 18.5 -79t61.5 -24q25 0 66.5 10.5t70.5 20.5zM133 -584l-72 82 q13 12 31.5 31t50 59t31.5 58q0 17 -10 49t-10 59q0 61 40 102.5t95 41.5q51 0 80.5 -30.5t29.5 -82.5q0 -41 -17 -84t-40 -77.5t-63 -75.5t-70 -67.5t-76 -64.5z" />
<glyph unicode="&#x237;" horiz-adv-x="540" d="M258 922l-166 -994q-24 -143 -72 -204.5t-149 -61.5q-32 0 -63 2.5t-46 5.5l-14 2l-41 -133q82 -31 164 -31q175 0 279.5 105t136.5 295l196 1177l-381 -10l-20 -112z" />
<glyph unicode="&#x2c6;" horiz-adv-x="702" d="M68 1264l-68 92l332 266l121 10l249 -276l-94 -92l-235 200z" />
<glyph unicode="&#x2c7;" horiz-adv-x="694" d="M846 1505l-326 -266l-119 -10l-249 276l98 92l227 -215l314 215z" />
<glyph unicode="&#x2c9;" horiz-adv-x="563" d="M563 1505l-22 -153h-541l23 153h540z" />
<glyph unicode="&#x2d8;" horiz-adv-x="901" d="M633 1556l121 11q-21 -136 -118.5 -221.5t-219.5 -85.5q-98 0 -163 71t-65 172l5 53l120 11q0 -66 37.5 -110t100.5 -44q42 0 76 14.5t53 35.5t32 42.5t17 36.5z" />
<glyph unicode="&#x2d9;" horiz-adv-x="221" d="M139 1405q0 58 36.5 104.5t96.5 46.5q43 0 68 -25t25 -69q0 -68 -40 -109.5t-94 -41.5q-44 0 -68 24t-24 70z" />
<glyph unicode="&#x2da;" horiz-adv-x="798" d="M164 1405q0 108 81.5 191t188.5 83q83 0 141 -49.5t58 -136.5q0 -108 -82 -191t-189 -83q-86 0 -142 51t-56 135zM420 1577q-59 0 -97 -48t-38 -112q0 -46 24 -71t70 -25q59 0 96 47.5t37 112.5q0 96 -92 96z" />
<glyph unicode="&#x2db;" horiz-adv-x="634" d="M383 0h160q-10 -6 -26 -15.5t-58 -39.5t-74 -59t-58 -68t-26 -72q0 -34 21.5 -54t56.5 -20q18 0 41.5 4t37.5 8l15 3l4 -97q-86 -41 -166 -41q-76 0 -125 41t-49 113q0 52 25.5 101.5t61.5 83t72 60.5t62 40z" />
<glyph unicode="&#x2dc;" horiz-adv-x="780" d="M57 1300l-57 72q5 8 13 21t35 46t54.5 58.5t69 46.5t80.5 21q47 0 92.5 -15t76 -32.5t72.5 -32.5t82 -15q22 0 45.5 9t40.5 21.5t31 25t22 21.5l7 9l59 -71q-4 -8 -11.5 -20t-32.5 -44t-51.5 -56.5t-66.5 -44.5t-79 -20q-58 0 -115 23t-109.5 45.5t-101.5 22.5 q-36 0 -75 -22.5t-60 -45.5z" />
<glyph unicode="&#x2dd;" horiz-adv-x="1187" d="M168 1403l381 338l98 -133l-405 -308zM567 1403l379 338l101 -133l-406 -308z" />
<glyph unicode="&#x326;" horiz-adv-x="0" d="M133 -584l-72 82q13 12 31.5 31t50 59t31.5 58q0 17 -10 49t-10 59q0 61 40 102.5t95 41.5q51 0 80.5 -30.5t29.5 -82.5q0 -41 -17 -84t-40 -77.5t-63 -75.5t-70 -67.5t-76 -64.5z" />
<glyph unicode="&#x393;" horiz-adv-x="1062" d="M401 164l205 -41l-18 -123h-588l18 123l177 41l172 1106l-164 41l18 112l387 11h582l-55 -369h-131l-19 205h-412z" />
<glyph unicode="&#x394;" horiz-adv-x="1310" d="M899 1475l320 -1332l-25 -143h-1255l24 145l739 1330h197zM1006 164l-250 1079l-594 -1079h844z" />
<glyph unicode="&#x3a0;" horiz-adv-x="1456" d="M1319 1270l-154 -996q-11 -64 8.5 -94t51.5 -30q25 0 56.5 6t50.5 12l18 6l30 -113q-14 -9 -37.5 -22.5t-89.5 -36t-123 -22.5q-102 0 -149 76.5t-23 240.5l154 973h-510l-176 -1106l170 -41l-21 -123h-555l21 123l182 41l172 1106l-168 41l17 112l383 11h889l-19 -123z " />
<glyph unicode="&#x3a9;" horiz-adv-x="1587" d="M61 0l27 164h266q-7 7 -19 19.5t-42 56.5t-52.5 92t-41.5 123.5t-19 154.5q0 128 31.5 250t95 229.5t152.5 189t212 128.5t265 47q245 0 376.5 -138.5t131.5 -385.5q0 -99 -20.5 -194t-53 -169t-72.5 -140t-79.5 -112.5t-72 -81t-52.5 -51.5l-21 -16l273 8l-29 -174h-512 l22 133q8 4 22.5 12.5t56.5 41t80 71.5t84.5 106.5t79.5 143.5t56 184t23 228q0 163 -87 261.5t-239 98.5q-107 0 -194.5 -39t-146 -105t-98.5 -156.5t-57.5 -191t-17.5 -210.5q0 -95 21.5 -176t51 -128.5t61 -81t51 -46.5t22.5 -13l-23 -133h-512z" />
<glyph unicode="&#x3bc;" horiz-adv-x="1298" d="M225 -471l82 471q42 -20 84 -20q87 0 169 42t135.5 96.5t100 122t64 102.5t25.5 54l-84 -397l370 10l21 113l-176 41l151 921h-194l-68 -368q-3 -12 -10 -32t-29.5 -78.5t-47 -112t-63.5 -118.5t-80 -111.5t-94.5 -78.5t-107.5 -32q-108 0 -108 137q0 36 131 794 l-379 -10l-21 -112l178 -41l-237 -1393h188z" />
<glyph unicode="&#x3c0;" horiz-adv-x="1355" d="M467 922l-148 -922h-194l147 922l-163 41l16 112l371 10h768l-21 -122l-172 -31l-102 -668q-4 -28 -4 -39q0 -86 84 -86q24 0 54.5 6.5t48.5 12.5l19 6l35 -103q-13 -9 -36 -22.5t-89.5 -36t-128.5 -22.5q-80 0 -133 49.5t-53 160.5q0 42 8 86l103 646h-410z" />
<glyph unicode="&#x400;" d="M500 1724l75 162l447 -250l-55 -112zM225 1311l19 112l381 11h616l-55 -349h-115l-20 185h-453l-72 -441h467l-24 -163h-467l-80 -502h465l76 209h135l-64 -373h-1018l21 123l180 41l176 1106z" />
<glyph unicode="&#x401;" d="M492 1659q0 64 36.5 108.5t94.5 44.5q44 0 69 -25t25 -69q0 -62 -38.5 -106.5t-94.5 -44.5q-43 0 -67.5 24.5t-24.5 67.5zM903 1659q0 64 36.5 108.5t94.5 44.5q44 0 69 -25t25 -69q0 -62 -38.5 -106.5t-94.5 -44.5q-43 0 -67.5 24.5t-24.5 67.5zM225 1311l19 112l381 11 h616l-55 -349h-115l-20 185h-453l-72 -441h467l-24 -163h-467l-80 -502h465l76 209h135l-64 -373h-1018l21 123l180 41l176 1106z" />
<glyph unicode="&#x402;" horiz-adv-x="1449" d="M780 1270l-82 -516q127 74 203 102q98 35 189 35q141 0 211.5 -83t70.5 -226q0 -126 -21.5 -229t-68 -186.5t-128.5 -130t-193 -46.5q-41 0 -87 7.5t-72 14.5l-26 8l43 144q78 -10 123 -10q53 0 92.5 22t62 56t36 85.5t18 101.5t4.5 113q0 175 -168 175q-47 0 -101.5 -18 t-101.5 -47t-71 -45.5t-43 -31.5l-90 -565h-412l22 123l209 41l176 1106h-268l-82 -205h-133l62 369h1116l-60 -369h-131l-16 205h-283z" />
<glyph unicode="&#x403;" horiz-adv-x="1062" d="M649 1528l-53 108l444 248l76 -162zM401 164l205 -41l-18 -123h-588l18 123l177 41l172 1106l-164 41l18 112l387 11h582l-55 -369h-131l-19 205h-412z" />
<glyph unicode="&#x404;" horiz-adv-x="1308" d="M1114 1024l-12 215q-2 1 -21.5 7t-29.5 9t-34.5 8.5t-45 8.5t-51.5 5.5t-64 2.5q-170 0 -289 -118.5t-178 -344.5h602l-28 -164h-605q-8 -78 -8 -110q0 -182 90 -280.5t246 -98.5q69 0 134 13t120.5 37t90.5 43t77 46l66 -123q-33 -28 -81.5 -58.5t-117.5 -64.5 t-155 -55.5t-169 -21.5q-248 0 -388 135t-140 379q0 213 60.5 394t165.5 304.5t248.5 192.5t307.5 69q91 0 196 -25.5t165 -50.5l59 -26l-61 -328h-150z" />
<glyph unicode="&#x405;" horiz-adv-x="1183" d="M125 420l-57 -359q20 -9 55.5 -22.5t136.5 -36t191 -22.5q110 0 211 32.5t182.5 94t130.5 160.5t49 222q0 78 -32 138.5t-83 98t-112.5 67t-123 55t-112.5 53t-83 69t-32 95.5q0 91 77 153t204 62q43 0 93 -9t79 -19l29 -9l28 -219h115l66 348q-23 9 -61 22.5t-138 36.5 t-178 23q-102 0 -194.5 -27.5t-169.5 -81.5t-123 -145t-46 -207q0 -84 32 -148t83 -102.5t112.5 -69t123 -55.5t112.5 -52t83 -68.5t32 -96.5q0 -77 -51 -135t-123.5 -85t-149.5 -27q-54 0 -107.5 11t-80.5 21l-27 11l-6 223h-135z" />
<glyph unicode="&#x406;" horiz-adv-x="743" d="M215 1311l18 112l560 11l-21 -123l-180 -41l-178 -1106l172 -41l-21 -123h-559l21 123l184 41l176 1106z" />
<glyph unicode="&#x407;" horiz-adv-x="743" d="M256 1659q0 64 36.5 108.5t94.5 44.5q44 0 69 -25t25 -69q0 -62 -38.5 -106.5t-94.5 -44.5q-43 0 -67.5 24.5t-24.5 67.5zM668 1659q0 64 36.5 108.5t94.5 44.5q44 0 69 -25t25 -69q0 -62 -38.5 -106.5t-94.5 -44.5q-43 0 -67.5 24.5t-24.5 67.5zM215 1311l18 112l560 11 l-21 -123l-180 -41l-178 -1106l172 -41l-21 -123h-559l21 123l184 41l176 1106z" />
<glyph unicode="&#x408;" horiz-adv-x="710" d="M203 1311l18 112l559 11l-20 -123l-178 -41l-189 -1178q-29 -186 -145 -292.5t-295 -106.5q-22 0 -53.5 2.5t-52.5 4.5l-21 3l43 154h100q181 0 213 194l195 1219z" />
<glyph unicode="&#x409;" horiz-adv-x="1880" d="M1186 840h182q218 0 338.5 -73t120.5 -243q0 -130 -43.5 -231t-121.5 -164.5t-181.5 -96t-227.5 -32.5h-587l18 123l195 41l176 1106h-391q-91 -468 -158 -725q-20 -76 -34 -124.5t-33.5 -108t-37.5 -96.5t-42.5 -78t-51.5 -65t-61 -44.5t-75.5 -29.5t-90.5 -9 q-71 0 -154 26l68 220q46 -11 86 -11q92 0 155 80.5t109 257.5q88 332 160 707l-246 41l18 123h1205l-21 -123l-207 -41zM1075 164h213q143 0 233.5 84t90.5 231q0 60 -22 102t-62.5 64t-88.5 31.5t-110 9.5h-172z" />
<glyph unicode="&#x40a;" horiz-adv-x="2045" d="M1370 829h182q105 0 186 -16t144 -50.5t96.5 -94.5t34.5 -144q1 -129 -42 -230.5t-121 -165t-182 -96t-228 -32.5h-570l19 123l176 41l80 502h-668l-80 -502l178 -41l-20 -123h-559l20 123l177 39l178 1108l-168 41l18 112l563 11l-20 -123l-189 -41l-71 -441h667l70 441 l-186 41l18 112l594 11l-20 -123l-207 -41zM1262 164h213q144 0 234 84t89 231q-3 197 -285 197h-172z" />
<glyph unicode="&#x40b;" horiz-adv-x="1546" d="M1454 113l-18 -113h-510l18 113l158 49l55 340q35 215 -149 215q-66 0 -130 -21t-110 -51.5t-71 -52t-38 -35.5l-63 -393l154 -41l-19 -123h-567l20 123l207 41l176 1106h-260l-84 -205h-131l60 369h1128l-57 -369h-131l-17 205h-303l-86 -535q37 28 52.5 39.5t64 41 t85.5 44t95.5 28t116.5 13.5q168 0 236 -98t38 -271l-63 -368z" />
<glyph unicode="&#x40c;" horiz-adv-x="1329" d="M774 1528l-53 108l444 248l76 -162zM965 162l-267 493h-209l-77 -491l174 -41l-21 -123h-559l21 123l180 41l178 1106l-172 41l18 112l562 11l-21 -123l-182 -41l-74 -451h189l442 604l303 11l-20 -123l-175 -41l-387 -518l322 -588l145 -41l-20 -123h-533l21 123z" />
<glyph unicode="&#x40d;" horiz-adv-x="1619" d="M1147 1524l-467 200l76 162l446 -250zM1677 1434l-20 -123l-178 -41l-179 -1106l173 -41l-21 -123h-569l20 123l193 39l131 809l-817 -729l-13 -78l178 -41l-20 -123h-559l20 123l177 39l178 1108l-168 41l18 112l563 11l-20 -123l-189 -41l-131 -811l818 733l12 78 l-187 41l19 112z" />
<glyph unicode="&#x40e;" horiz-adv-x="1300" d="M1051 1864l79 -54q-58 -111 -153 -182.5t-211 -71.5q-125 0 -202.5 66t-94.5 195l197 47q15 -86 54.5 -127t108.5 -41q128 0 222 168zM1425 1434l-18 -123l-137 -41l-461 -840q-128 -230 -254.5 -340t-239.5 -110q-68 0 -132.5 17t-102.5 36l65 153q94 -32 177 -32 q127 0 219 139l-316 977l-133 41l17 112l530 11l-18 -123l-185 -41l234 -754l409 754l-178 41l21 112z" />
<glyph unicode="&#x40f;" horiz-adv-x="1499" d="M1559 1434l-23 -123l-176 -41l-178 -1106l164 -41l-21 -123h-567l-101 -358h-120l10 358h-551l20 123l177 41l178 1106l-164 41l22 112l570 11l-23 -123l-196 -41l-177 -1106h570l176 1106l-182 41l20 112z" />
<glyph unicode="&#x410;" horiz-adv-x="1458" d="M430 389l-113 -227l172 -39l-20 -123h-543l19 123l174 41l655 1259l203 11l246 -1276l139 -35l-21 -123h-542l18 123l176 41l-41 225h-522zM924 553l-105 616l-309 -616h414z" />
<glyph unicode="&#x411;" horiz-adv-x="1239" d="M500 799h184q227 0 347 -71t120 -236q0 -125 -43 -220.5t-121 -153.5t-178 -87t-221 -31h-588l18 123l177 41l172 1106l-164 41l18 112l387 11h592l-55 -369h-131l-19 205h-422zM401 164h211q144 0 233 70.5t89 211.5q0 109 -74.5 152t-212.5 43h-172z" />
<glyph unicode="&#x412;" horiz-adv-x="1288" d="M207 1311l18 112l379 11h213q172 0 286 -80.5t114 -233.5q0 -83 -29 -151t-78 -112.5t-102 -72.5t-111 -41q270 -61 270 -276q0 -112 -42.5 -201.5t-117 -147t-175 -88t-218.5 -30.5h-618l20 123l183 41l174 1106zM506 819h149q55 0 110 13t110 42.5t89.5 87.5t34.5 138 q0 81 -55.5 125.5t-146.5 44.5h-219zM403 164h191q167 0 260.5 81.5t93.5 200.5q0 121 -76.5 170.5t-236.5 49.5h-154z" />
<glyph unicode="&#x413;" horiz-adv-x="1062" d="M401 164l205 -41l-18 -123h-588l18 123l177 41l172 1106l-164 41l18 112l387 11h582l-55 -369h-131l-19 205h-412z" />
<glyph unicode="&#x414;" horiz-adv-x="1423" d="M1260 1270l-173 -1106l226 -37l-74 -485h-121l-35 358h-944l-153 -358h-119l86 491q74 20 124.5 47t84 55t61.5 87.5t45 109.5t47 156q35 122 63.5 240t44.5 196.5t48 245.5l-205 41l23 123h1161l-16 -123zM1049 1270h-400q-56 -286 -157 -686q-41 -158 -85.5 -259 t-107.5 -161h578z" />
<glyph unicode="&#x415;" d="M225 1311l19 112l381 11h616l-55 -349h-115l-20 185h-453l-72 -441h467l-24 -163h-467l-80 -502h465l76 209h135l-64 -373h-1018l21 123l180 41l176 1106z" />
<glyph unicode="&#x416;" horiz-adv-x="1914" d="M1825 1270l-375 -518l311 -588l158 -41l-18 -123h-562l19 123l180 41l-260 491h-207l-78 -491l158 -41l-18 -123h-502l18 123l150 41l100 633l-22 -142h-203l-398 -491l168 -41l-18 -123h-584l19 123l180 41l483 588l-205 518l-196 41l18 123l330 -11l234 -604h198 l72 451l-168 41l18 112l564 11l-19 -123l-201 -41l-71 -451h196l432 604l326 11l-18 -123z" />
<glyph unicode="&#x417;" horiz-adv-x="1163" d="M182 1044l43 336q26 8 70.5 20.5t164.5 33t220 20.5q208 0 323 -77t115 -222q0 -318 -346 -401q139 -27 205.5 -101.5t66.5 -179.5q0 -216 -174 -354.5t-450 -138.5q-211 0 -404 94l74 166q2 -1 30 -11t33.5 -12t32.5 -11t36.5 -11.5t35 -10t39 -10.5t37 -8t40.5 -7 t38 -3.5t41 -1.5q157 0 262.5 82.5t105.5 212.5q0 111 -74.5 164t-230.5 53h-192l26 163h180q99 0 173.5 24.5t115.5 66t60.5 89t19.5 101.5q0 79 -63 124.5t-195 45.5q-64 0 -125.5 -8t-91.5 -16l-29 -9l-49 -203h-164z" />
<glyph unicode="&#x418;" horiz-adv-x="1619" d="M1677 1434l-20 -123l-178 -41l-179 -1106l173 -41l-21 -123h-569l20 123l193 39l131 809l-817 -729l-13 -78l178 -41l-20 -123h-559l20 123l177 39l178 1108l-168 41l18 112l563 11l-20 -123l-189 -41l-131 -811l818 733l12 78l-187 41l19 112z" />
<glyph unicode="&#x419;" horiz-adv-x="1619" d="M1282 1874l80 -53q-58 -111 -153.5 -182.5t-211.5 -71.5q-125 0 -202.5 66t-94.5 194l197 47q15 -86 55 -127t109 -41q127 0 221 168zM1677 1434l-20 -123l-178 -41l-179 -1106l173 -41l-21 -123h-569l20 123l193 39l131 809l-817 -729l-13 -78l178 -41l-20 -123h-559 l20 123l177 39l178 1108l-168 41l18 112l563 11l-20 -123l-189 -41l-131 -811l818 733l12 78l-187 41l19 112z" />
<glyph unicode="&#x41a;" horiz-adv-x="1329" d="M965 162l-267 493h-209l-77 -491l174 -41l-21 -123h-559l21 123l180 41l178 1106l-172 41l18 112l562 11l-21 -123l-182 -41l-74 -451h189l442 604l303 11l-20 -123l-175 -41l-387 -518l322 -588l145 -41l-20 -123h-533l21 123z" />
<glyph unicode="&#x41b;" horiz-adv-x="1388" d="M1427 1311l-174 -41l-178 -1106l164 -41l-22 -123h-564l19 123l194 41l178 1106h-401q-91 -468 -158 -725q-20 -76 -34 -124.5t-33.5 -108t-37.5 -96.5t-42.5 -78t-51.5 -65t-61 -44.5t-75.5 -29.5t-90.5 -9q-70 0 -153 26l67 220q46 -11 86 -11q92 0 155.5 80.5 t109.5 257.5q84 318 159 707l-245 41l18 123h1190z" />
<glyph unicode="&#x41c;" horiz-adv-x="1781" d="M1470 164l175 1106l174 41l20 123l-428 -11l-500 -811l-243 822l-445 -11l-18 -112l170 -41l-178 -1106l-181 -41l-20 -123h551l20 123l-180 41l158 983l231 -789l168 11l479 770l-155 -975l-172 -41l-21 -123h539l20 123z" />
<glyph unicode="&#x41d;" horiz-adv-x="1587" d="M1063 162l80 493h-668l-78 -491l178 -41l-20 -123h-559l20 123l177 39l178 1108l-168 41l18 112l563 11l-20 -123l-189 -41l-73 -451h667l72 451l-186 41l18 112l572 11l-21 -123l-178 -41l-178 -1106l172 -41l-21 -123h-569l20 123z" />
<glyph unicode="&#x41e;" horiz-adv-x="1505" d="M612 -20q175 0 327 68.5t263 192.5t174.5 307.5t63.5 403.5q0 226 -137 364t-381 138q-170 0 -318 -71.5t-255 -198.5t-168.5 -309.5t-61.5 -395.5q0 -232 132 -365.5t361 -133.5zM1214 926q0 -217 -70 -393t-198 -277.5t-289 -101.5q-147 0 -230 88.5t-83 257.5 q0 210 66 387t191.5 285t285.5 108q153 0 240 -86.5t87 -267.5z" />
<glyph unicode="&#x41f;" horiz-adv-x="1517" d="M-4 0l20 123l177 41l178 1106l-164 41l18 112l379 11h981l-16 -123l-174 -41l-178 -1106l163 -41l-22 -123h-570l23 123l195 41l178 1106h-602l-179 -1106l183 -41l-21 -123h-569z" />
<glyph unicode="&#x420;" horiz-adv-x="1169" d="M602 1434h215q75 0 141.5 -16t127.5 -51.5t97 -102t36 -158.5q0 -130 -38.5 -232.5t-100 -165t-145.5 -103.5t-167.5 -57t-173.5 -16h-135l-60 -370l176 -39l-20 -123h-559l20 123l179 41l176 1106l-166 41l18 112zM483 696h138q106 0 183.5 30.5t119.5 84t61 116 t19 136.5q0 61 -23 104.5t-60 64t-71.5 29.5t-69.5 9h-205z" />
<glyph unicode="&#x421;" horiz-adv-x="1306" d="M1303 1004l55 348q-8 4 -23.5 11t-63.5 24.5t-96.5 31t-117 24.5t-131.5 11q-171 0 -319.5 -70.5t-255 -195.5t-167.5 -303t-61 -385q0 -239 136 -379.5t372 -140.5q96 0 191.5 24.5t172 64.5t121.5 69.5t84 60.5l-74 120q-32 -24 -72.5 -46.5t-100 -49t-133.5 -43 t-148 -16.5q-146 0 -235 103t-89 272q0 142 38.5 275.5t106.5 237t170.5 166t221.5 62.5q147 0 274 -51l25 -225h119z" />
<glyph unicode="&#x422;" horiz-adv-x="1124" d="M1196 1065h-131l-21 205h-264l-176 -1106l197 -41l-21 -123h-612l20 123l211 41l176 1106h-266l-84 -205h-133l62 369h1101z" />
<glyph unicode="&#x423;" horiz-adv-x="1300" d="M1425 1434l-18 -123l-137 -41l-461 -840q-128 -230 -254.5 -340t-239.5 -110q-68 0 -132.5 17t-102.5 36l65 153q94 -32 177 -32q127 0 219 139l-316 977l-133 41l17 112l530 11l-18 -123l-185 -41l234 -754l409 754l-178 41l21 112z" />
<glyph unicode="&#x424;" horiz-adv-x="1761" d="M1087 1348l-10 -70q609 -18 609 -461q0 -273 -209.5 -440t-567.5 -189l-10 -67l164 -39l-16 -123h-521l19 123l176 39l10 65q-307 9 -456.5 115.5t-149.5 335.5q0 277 202 446.5t572 192.5l10 72l-164 38l15 113l522 10l-18 -123zM1053 1124l-121 -784q126 7 221 34 t153 66t93.5 94t49 111.5t13.5 124.5q0 183 -95.5 264t-313.5 90zM754 340l120 784q-265 -15 -396.5 -121t-131.5 -321q0 -178 97 -255.5t311 -86.5z" />
<glyph unicode="&#x425;" horiz-adv-x="1282" d="M1067 164l-283 577l422 525l219 45l21 123l-543 -11l-20 -112l108 -29l-305 -387l-178 383l129 33l20 123l-546 -11l-21 -112l172 -39l273 -553l-437 -557l-190 -39l-21 -123h543l21 123l-129 37l315 403l192 -413l-131 -27l-20 -123h547l20 123z" />
<glyph unicode="&#x426;" horiz-adv-x="1536" d="M1231 -358l-33 358h-1194l12 123l177 41l178 1106l-164 41l18 112l570 11l-19 -123l-196 -41l-177 -1106h590l176 1106l-182 41l17 112l569 11l-17 -123l-176 -41l-178 -1106l225 -37l-75 -485h-121z" />
<glyph unicode="&#x427;" horiz-adv-x="1366" d="M1425 1434l-20 -123l-180 -41l-178 -1106l172 -41l-21 -123h-604l20 123l230 41l65 407q-180 -59 -352 -59q-402 0 -330 461l47 297l-143 41l19 112l518 11l-17 -123l-166 -39l-45 -279q-27 -162 20 -229.5t165 -67.5q89 0 176.5 18t134.5 34l84 522l-160 41l19 112z" />
<glyph unicode="&#x428;" horiz-adv-x="2078" d="M-4 0l22 123l177 41l178 1106l-164 41l20 112l531 11l-23 -123l-155 -41l-179 -1106h469l179 1106l-144 41l23 112l510 11l-23 -123l-155 -41l-179 -1106h469l179 1106l-144 41l21 112l530 11l-22 -123l-177 -41l-178 -1106l164 -41l-20 -123h-1909z" />
<glyph unicode="&#x429;" horiz-adv-x="2119" d="M1817 -358l-48 358h-1773l20 123l177 41l178 1106l-164 41l20 112l531 11l-23 -123l-155 -41l-179 -1106h469l179 1106l-144 41l23 112l510 11l-23 -123l-155 -41l-179 -1106h469l179 1106l-144 41l21 112l530 11l-22 -123l-177 -41l-178 -1106l244 -41l-68 -481h-118z " />
<glyph unicode="&#x42a;" horiz-adv-x="1382" d="M672 840h186q106 0 187 -16t144 -52t96.5 -99t33.5 -151q0 -129 -44 -229.5t-122.5 -164t-182.5 -96t-227 -32.5h-602l21 123l194 41l179 1106h-226l-86 -205h-131l62 369h815l-23 -123l-205 -41zM563 164h213q146 0 236 84t90 233q0 59 -22 100.5t-62.5 63.5t-88 31.5 t-108.5 9.5h-174z" />
<glyph unicode="&#x42b;" horiz-adv-x="1832" d="M500 840h182q218 0 338.5 -73t120.5 -243q0 -130 -43.5 -231t-121.5 -164.5t-181.5 -96t-227.5 -32.5h-569l18 123l177 41l176 1106l-164 41l20 123h570l-21 -123l-207 -41zM1315 1311l18 112l559 11l-20 -123l-180 -41l-179 -1106l173 -41l-21 -123h-559l20 123l185 41 l176 1106zM389 164h213q143 0 233.5 84t90.5 231q0 60 -22 102t-62.5 64t-88.5 31.5t-110 9.5h-172z" />
<glyph unicode="&#x42c;" horiz-adv-x="1173" d="M500 840h182q218 0 338.5 -73t120.5 -243q0 -130 -43.5 -231t-121.5 -164.5t-181.5 -96t-227.5 -32.5h-569l18 123l177 41l176 1106l-164 41l20 123h570l-21 -123l-207 -41zM389 164h213q143 0 233.5 84t90.5 231q0 60 -22 102t-62.5 64t-88.5 31.5t-110 9.5h-172z" />
<glyph unicode="&#x42d;" horiz-adv-x="1308" d="M201 1024l43 326q0 -1 69 23.5t189 52.5t223 28q254 0 385 -131.5t131 -388.5q0 -211 -63 -392t-169.5 -303t-248.5 -190.5t-299 -68.5q-47 0 -92 7.5t-80 18t-70.5 27.5t-59 31t-50 35t-39.5 32t-31 29t-21 20l111 121q3 -2 19 -15t24.5 -19t27.5 -19.5t34 -21 t38.5 -18.5t46.5 -17.5t51.5 -13.5t60.5 -10t67 -3q96 0 179 39t143 107t102 155t65 188h-588l29 164h584q2 23 2 66q0 196 -91 297.5t-247 101.5q-125 0 -250 -41l-74 -217h-151z" />
<glyph unicode="&#x42e;" horiz-adv-x="2105" d="M502 819h252q80 291 284 463t473 172q244 0 381.5 -138t137.5 -364q0 -220 -63.5 -403.5t-174.5 -307.5t-263 -192.5t-327 -68.5q-229 0 -361 133.5t-132 365.5q0 81 10 176h-244l-78 -491l178 -41l-20 -123h-559l20 123l177 39l178 1108l-168 41l18 112l563 11l-20 -123 l-189 -41zM1247 154q161 0 289 101.5t198 277.5t70 393q0 181 -87 267.5t-240 86.5q-160 0 -285.5 -108t-191.5 -285t-66 -387q0 -169 83 -257.5t230 -88.5z" />
<glyph unicode="&#x42f;" horiz-adv-x="1292" d="M1124 0h-555l19 123l180 41l68 430h-113q-72 0 -133 -50.5t-156 -195.5l-225 -348h-305l18 123l164 33l203 284q107 148 200 189q-52 15 -95.5 39t-83.5 62.5t-62.5 97.5t-22.5 133q0 233 146 353t383 120h596l-21 -123l-178 -41l-176 -1106l168 -41zM942 1270h-213 q-130 0 -211.5 -78.5t-81.5 -224.5q0 -219 312 -219h112z" />
<glyph unicode="&#x430;" horiz-adv-x="1214" d="M1090 20l-381 -20l82 377q-7 -14 -15.5 -30.5t-34 -58.5t-52 -78.5t-68 -80.5t-83.5 -75t-96.5 -52.5t-109.5 -21.5q-116 0 -192.5 102t-76.5 256q0 146 34 272t92.5 216t136.5 154t166.5 95t181.5 31q59 0 116.5 -15.5t85.5 -30.5l27 -16l62 41h112l-147 -921l178 -31z M817 707l41 215q-78 30 -184 30q-60 0 -117 -21t-110 -67t-92.5 -112.5t-63 -165t-23.5 -217.5q0 -104 34.5 -159.5t90.5 -55.5q50 0 100.5 30.5t91 79.5t78 107.5t65 117.5t48 108t30.5 79z" />
<glyph unicode="&#x431;" horiz-adv-x="1198" d="M1190 1595l43 -159q-34 -9 -128.5 -31.5t-175 -45t-163.5 -50.5q-132 -45 -235.5 -151.5t-161.5 -262.5q72 82 167 131t205 49q184 0 284.5 -107.5t100.5 -291.5q0 -147 -47.5 -277.5t-128.5 -221.5t-191.5 -144t-232.5 -53q-185 0 -284 104t-99 297q0 121 16 243 t57.5 257t104.5 247t165.5 204.5t232.5 137.5q60 21 144.5 43.5t184.5 46.5t142 35zM561 143q161 0 257.5 136.5t96.5 377.5q0 118 -52.5 186t-166.5 68q-183 0 -271.5 -127t-88.5 -364q0 -129 54.5 -203t170.5 -74z" />
<glyph unicode="&#x432;" horiz-adv-x="1032" d="M745 565q83 -22 122.5 -71.5t39.5 -133.5q0 -107 -66.5 -196t-169.5 -136.5t-214 -47.5q-187 0 -288 114.5t-101 304.5q0 128 43 253.5t120 226.5t194.5 164t254.5 63q145 0 220 -65.5t75 -163.5q0 -90 -62 -170.5t-168 -141.5zM629 954q-125 0 -213.5 -102t-124.5 -281 q241 3 365 76t124 172q0 63 -38.5 99t-112.5 36zM496 123q93 0 157 62.5t64 154.5q0 78 -60 113q-20 11 -57 12t-78 -5t-112 -12t-136 -6q-2 -29 -2 -86q0 -109 57.5 -171t166.5 -62z" />
<glyph unicode="&#x433;" horiz-adv-x="976" d="M764 227l61 -100q-236 -147 -415 -147q-149 0 -242.5 69.5t-93.5 214.5q0 64 26 119t69 94t98 74.5t112 61.5t112 54.5t98 54t69 60t26 72.5q0 45 -32 73.5t-79 28.5q-64 0 -149.5 -26.5t-139.5 -53.5l-53 -26l-61 102q237 154 424 154q131 0 210 -74.5t79 -197.5 q0 -73 -33.5 -133.5t-87.5 -102t-118.5 -77t-129.5 -65.5t-119 -60t-87.5 -67.5t-33.5 -80.5q0 -57 48.5 -86t117.5 -29q68 0 149 23.5t128 47.5z" />
<glyph unicode="&#x434;" horiz-adv-x="1120" d="M381 1419l-8 144q143 26 231 26q217 0 340 -163.5t123 -503.5q0 -91 -9.5 -181.5t-32.5 -184.5t-57 -177t-85.5 -157t-116 -127t-152 -84t-188.5 -31q-160 0 -260 111.5t-100 316.5q0 92 20.5 187t64.5 185t105.5 160.5t150 113t191.5 42.5q199 0 295 -168 q-5 260 -80 385t-244 125q-51 0 -188 -19zM475 143q69 0 128.5 29.5t102.5 79t74.5 114.5t46.5 136.5t15 144.5q0 150 -63 220.5t-167 70.5q-88 0 -157 -49.5t-107.5 -128.5t-58 -166.5t-19.5 -175.5q0 -275 205 -275z" />
<glyph unicode="&#x435;" horiz-adv-x="1015" d="M827 236l62 -105q-9 -6 -25 -16.5t-66.5 -36.5t-102 -45.5t-124.5 -36t-141 -16.5q-169 0 -269 99.5t-100 268.5q0 156 47 297t126.5 241.5t189 160t229.5 59.5q155 0 246.5 -72t91.5 -194q0 -117 -91 -207t-254.5 -139.5t-373.5 -49.5q-6 -47 -6 -88q0 -109 55.5 -161 t170.5 -52q67 0 150.5 23.5t133.5 46.5zM291 588q219 0 362.5 65t143.5 166q0 133 -154 133q-113 0 -213 -102t-139 -262z" />
<glyph unicode="&#x436;" horiz-adv-x="1757" d="M1657 799l-4 133q-38 10 -86 10q-75 0 -144 -83t-110 -213.5t-41 -266.5q0 -135 27.5 -190.5t101.5 -55.5q38 0 85 14.5t69 25t65 32.5l53 -96q-43 -28 -63.5 -40t-71 -38.5t-100 -38.5t-99.5 -12q-71 0 -120.5 28t-75.5 80t-37.5 115t-11.5 145q0 88 12 164h-148 l-84 -512h-180l84 512h-153q-25 -118 -74.5 -219t-111.5 -169t-133 -106t-140 -38q-71 0 -136.5 15.5t-92.5 27.5l47 264h116l4 -133q42 -11 86 -11q74 0 139.5 83.5t102.5 213.5t37 267q0 141 -20.5 193t-92.5 52q-80 0 -219 -71l-53 96q43 28 63.5 40t71 38.5t100 38.5 t99.5 12q57 0 98.5 -19.5t66.5 -51t39.5 -81t19.5 -100t5 -117.5q0 -48 -2 -71h160l67 409l179 10l-68 -419h160q64 198 191.5 319t256.5 121q71 0 137 -15.5t93 -27.5l-47 -264h-117z" />
<glyph unicode="&#x437;" horiz-adv-x="948" d="M256 645h141q271 0 271 193q0 57 -55 85.5t-138 28.5q-98 0 -186 -32l-33 -142h-117l17 248q200 78 372 78q157 0 249.5 -64.5t92.5 -167.5q0 -117 -69.5 -194t-198.5 -105q107 -22 164 -76t57 -132q0 -96 -44 -170.5t-117.5 -118.5t-161 -66t-183.5 -22q-203 0 -327 82 l69 139q123 -66 273 -66q122 0 202 51t80 150q0 77 -63.5 117.5t-181.5 40.5h-136z" />
<glyph unicode="&#x438;" horiz-adv-x="1302" d="M801 0l84 397q-4 -11 -14 -31.5t-34 -62t-52.5 -81.5t-71.5 -85t-89 -79t-107 -56t-124 -22q-227 0 -227 249q0 47 10 119l94 574l-174 41l19 112l374 10l-112 -706q-8 -66 -8 -90q0 -135 106 -135q56 0 110 31t96 80.5t79.5 109.5t64.5 120.5t47 110t30 80.5l9 31 l62 368h194l-147 -921l176 -31l-18 -113z" />
<glyph unicode="&#x439;" horiz-adv-x="1302" d="M1042 1577l80 -53q-58 -111 -153 -182.5t-211 -71.5q-125 0 -202.5 66t-94.5 194l196 47q15 -86 55 -127t109 -41q127 0 221 168zM801 0l84 397q-4 -11 -14 -31.5t-34 -62t-52.5 -81.5t-71.5 -85t-89 -79t-107 -56t-124 -22q-227 0 -227 249q0 47 10 119l94 574l-174 41 l19 112l374 10l-112 -706q-8 -66 -8 -90q0 -135 106 -135q56 0 110 31t96 80.5t79.5 109.5t64.5 120.5t47 110t30 80.5l9 31l62 368h194l-147 -921l176 -31l-18 -113z" />
<glyph unicode="&#x43a;" horiz-adv-x="1128" d="M604 674l201 266l-88 23l16 112l441 10l-21 -122l-154 -27l-262 -322l189 -450l166 -51l-21 -113h-283l-204 522h-174l-82 -522h-195l148 922l-175 41l19 112l375 10l-68 -411h172z" />
<glyph unicode="&#x43b;" horiz-adv-x="1132" d="M879 164l145 -51l-23 -113h-348l150 922h-275q-34 -169 -88 -394q-67 -278 -160 -413t-247 -135q-55 0 -129 16l49 190q27 -6 55 -6q99 0 165 83.5t118 279.5q43 171 86 379l-195 41l23 122h825z" />
<glyph unicode="&#x43c;" horiz-adv-x="1660" d="M1532 113l-19 -113h-358l145 874l-522 -874l-102 -10l-193 813q-60 -310 -73 -363q-63 -270 -158 -373q-80 -87 -199 -87q-55 0 -129 16l49 190q27 -6 64 -6q105 0 165 112q50 95 101 354q9 46 28 147q16 84 25 129l-194 41l20 112l430 10l185 -780l442 770l285 10 l-154 -921z" />
<glyph unicode="&#x43d;" horiz-adv-x="1288" d="M1182 133l-19 -113l-368 -20l75 492h-469l-75 -492h-201l145 922l-164 41l19 112l373 10l-70 -440h469l64 430l204 10l-147 -921z" />
<glyph unicode="&#x43e;" horiz-adv-x="1126" d="M446 -20q131 0 243.5 50.5t194 142.5t127.5 228.5t46 300.5q0 181 -100.5 292.5t-284.5 111.5q-266 0 -434 -200t-168 -521q0 -185 101 -295t275 -110zM854 707q0 -165 -42.5 -291.5t-127.5 -199.5t-201 -73q-97 0 -153 58.5t-56 177.5q0 153 39 278t123 205t199 80 q100 0 159.5 -56t59.5 -179z" />
<glyph unicode="&#x43f;" horiz-adv-x="1298" d="M807 0l115 707q8 62 8 90q0 135 -107 135q-54 0 -107.5 -31t-96 -80.5t-80.5 -109.5t-65.5 -120.5t-48 -110t-30.5 -80.5l-10 -31l-59 -369h-195l148 922l-173 41l19 112l375 10l-92 -397q6 13 14.5 31t34 61.5t53.5 82.5t72 85t90.5 79.5t107.5 56t125 22.5 q228 0 228 -252q0 -42 -11 -117l-94 -573l174 -31l-18 -113z" />
<glyph unicode="&#x440;" horiz-adv-x="1208" d="M485 1085l-82 -376q6 17 22 51t58 97.5t92 116t127.5 92.5t161.5 40q87 0 149.5 -52.5t92 -134.5t29.5 -182q0 -170 -51 -314.5t-137 -240t-197.5 -149t-233.5 -53.5q-113 0 -201 49l-53 -336l156 -51l-21 -113h-356l223 1393l-168 41l19 112zM379 379l-41 -215 q86 -31 188 -31q67 0 135.5 35.5t129.5 103t100 181.5t39 254q0 95 -34 160t-103 65q-52 0 -103 -30.5t-91 -79.5t-76 -107.5t-62 -117.5t-44.5 -108t-28.5 -79z" />
<glyph unicode="&#x441;" horiz-adv-x="931" d="M913 748l45 276q-5 3 -14 8.5t-39 20t-61.5 25t-78.5 19.5t-93 9q-173 0 -310 -92t-215.5 -263t-78.5 -393q0 -179 99.5 -278.5t258.5 -99.5q57 0 120.5 16t113 38t90.5 44.5t64 38.5l22 16l-62 103q-18 -10 -49.5 -25.5t-112.5 -41.5t-145 -26q-94 0 -144.5 56.5 t-50.5 169.5q0 151 42.5 280t128.5 211t198 82q37 0 70.5 -5t48.5 -10l14 -5l6 -174h133z" />
<glyph unicode="&#x442;" horiz-adv-x="1929" d="M784 0l115 707q8 62 8 90q0 135 -106 135q-53 0 -104 -31t-91.5 -80.5t-76.5 -109.5t-61.5 -120.5t-44.5 -110t-29 -80.5l-9 -31l-59 -369h-195l148 922l-173 41l19 112l373 10l-88 -397q4 10 12.5 30.5t30.5 62t48.5 82t67.5 86t85.5 79t104.5 56t124 22.5 q117 0 168 -64t51 -186q0 -52 -10 -127q19 46 41.5 88t64 97.5t87.5 95.5t112.5 68t140.5 28q225 0 225 -252q0 -49 -10 -117l-94 -573l174 -31l-18 -113l-377 -20l116 707q9 70 9 88q0 137 -107 137q-53 0 -105.5 -32t-93 -83t-77.5 -112.5t-63 -123t-45 -112.5t-28 -83 l-10 -32l-55 -354h-195z" />
<glyph unicode="&#x443;" horiz-adv-x="1079" d="M1020 930l-365 -862q-48 -113 -81 -185t-71 -141.5t-70.5 -108.5t-72.5 -70t-83.5 -43t-98.5 -12q-52 0 -109.5 8t-89.5 16l-32 9l41 131q81 -10 153 -10q103 0 160 55t121 203l-266 1004l-142 39l23 112l309 10l172 -751l19 -139l303 731l-154 37l19 112l450 10 l-20 -122z" />
<glyph unicode="&#x444;" horiz-adv-x="1400" d="M954 1577l-75 -473q229 -15 357 -128.5t128 -305.5q0 -140 -49.5 -259t-138 -203t-209 -136.5t-262.5 -67.5l-50 -315l168 -47l-18 -113h-533l19 113l180 47l49 313q-227 18 -354 129t-127 307q0 149 50 270t139 201.5t207 129t259 61.5l51 317l-167 37l16 123h360z M854 942l-123 -772q187 23 300.5 142t113.5 339q0 142 -76 210t-215 81zM547 170l123 770q-90 -11 -161.5 -41t-129.5 -84t-89.5 -141.5t-31.5 -202.5q0 -268 289 -301z" />
<glyph unicode="&#x445;" horiz-adv-x="1116" d="M725 0l315 20l19 113l-178 31l-197 403l287 353l176 43l20 122l-290 -10l-291 -379l-174 389l-322 -10l-18 -112l174 -41l192 -385l-284 -367l-187 -57l-18 -113h289l297 406z" />
<glyph unicode="&#x446;" horiz-adv-x="1378" d="M1270 184l24 -37l-125 -475h-215l205 387l-8 9q-112 -74 -178 -74q-83 0 -105.5 103t17.5 300q-38 -77 -85 -145.5t-108.5 -132.5t-139 -101.5t-159.5 -37.5q-227 0 -227 249q0 61 17.5 177t86.5 516l-174 41l19 112l374 10q-78 -471 -99 -612.5t-21 -183.5 q0 -135 106 -135q56 0 110 31t96 80.5t79.5 109.5t64.5 120.5t47 110t30 80.5l9 31l62 368h194l-153 -960z" />
<glyph unicode="&#x447;" horiz-adv-x="1124" d="M991 20l-368 -20l96 559q-24 -25 -54.5 -50.5t-82.5 -60.5t-119 -57t-135 -22q-285 0 -224 368l31 187l-129 39l17 112l339 10l-55 -327q-19 -109 9.5 -162t111.5 -53q84 0 179.5 64t131.5 124l62 344l188 10l-143 -921l162 -31z" />
<glyph unicode="&#x448;" horiz-adv-x="1894" d="M1788 133l-19 -113l-376 -20l84 397q-8 -19 -25 -54t-61 -102.5t-93.5 -122t-123 -96.5t-148.5 -42q-113 0 -170 78t-57 212l2 39q-32 -56 -67.5 -105t-88 -104t-118 -87.5t-134.5 -32.5q-227 0 -227 249q0 61 17.5 177t86.5 516l-174 41l19 112l374 10 q-78 -471 -99 -612.5t-21 -183.5q0 -135 106 -135q42 0 84 24.5t76 63t67 91.5t57.5 102.5t47 104t34.5 89t21 63.5l68 383l192 10q-80 -484 -100.5 -619.5t-20.5 -176.5q0 -135 107 -135q47 0 94.5 31t85 80.5t72.5 109.5t60.5 120.5t44.5 110t29 80.5l9 31l62 368h194 l-147 -921z" />
<glyph unicode="&#x449;" horiz-adv-x="1964" d="M1745 59l-205 -387h215l125 473l-25 39l-256 -59l160 960h-194l-62 -368q-3 -12 -9.5 -32t-28 -78.5t-45 -112t-60 -118.5t-73.5 -111.5t-84.5 -78.5t-94.5 -32q-107 0 -107 135q0 41 20.5 176.5t100.5 619.5l-192 -10l-68 -383q-9 -29 -21 -63.5t-34.5 -89t-47 -104 t-57.5 -102.5t-67 -91.5t-76 -63t-84 -24.5q-106 0 -106 135q0 42 21 183.5t99 612.5l-374 -10l-19 -112l174 -41q-69 -400 -86.5 -516t-17.5 -177q0 -249 227 -249q69 0 134.5 32.5t118 87.5t88 104t67.5 105l-2 -39q0 -134 57 -212t170 -78q75 0 148.5 42t123 96.5 t93.5 122t61 102.5t25 54q-84 -403 79 -403q66 0 181 74z" />
<glyph unicode="&#x44a;" horiz-adv-x="1083" d="M737 1085l-30 -133q-155 -240 -232 -407q64 67 152 114.5t186 47.5q96 0 155.5 -55.5t59.5 -159.5q0 -111 -45.5 -209t-118.5 -163t-164.5 -102.5t-183.5 -37.5q-142 0 -219.5 79.5t-77.5 206.5q0 223 281 656h-230l-51 -174h-143l30 337h631zM547 133q111 0 193.5 85.5 t82.5 219.5q0 45 -33 75t-79 30q-83 0 -167.5 -61.5t-99.5 -106.5q-20 -62 -20 -109q0 -66 33 -99.5t90 -33.5z" />
<glyph unicode="&#x44b;" horiz-adv-x="1548" d="M121 963l16 122h371l-70 -415l-35 -113q51 55 134.5 100t179.5 45q109 0 178.5 -72.5t69.5 -193.5q0 -106 -41 -193.5t-109 -144t-154.5 -87.5t-179.5 -31q-172 0 -246.5 102.5t-39.5 306.5l90 533zM1423 20l19 113l-174 31l147 921h-194l-174 -1085zM530 133 q97 0 159.5 86t62.5 205q0 57 -30 91t-89 34q-130 0 -244 -156q-23 -127 15.5 -193.5t125.5 -66.5z" />
<glyph unicode="&#x44c;" horiz-adv-x="1028" d="M121 963l16 122h371l-70 -415l-35 -113q51 55 134.5 100t179.5 45q109 0 178.5 -72.5t69.5 -193.5q0 -106 -41 -193.5t-109 -144t-154.5 -87.5t-179.5 -31q-172 0 -246.5 102.5t-39.5 306.5l90 533zM530 133q97 0 159.5 86t62.5 205q0 57 -30 91t-89 34q-130 0 -244 -156 q-23 -127 15.5 -193.5t125.5 -66.5z" />
<glyph unicode="&#x44d;" horiz-adv-x="1036" d="M139 768l31 256q7 3 20.5 8.5t55 20t83.5 25t102 19.5t116 9q207 0 313.5 -110t106.5 -310q0 -198 -77.5 -359t-219.5 -254t-322 -93q-56 0 -114 16t-100.5 38.5t-77 45.5t-52.5 39l-18 16l94 127q75 -57 144 -88t161 -31q133 0 227 86t125 252h-436l31 154h420v10 q0 146 -65 221.5t-185 75.5q-49 0 -93.5 -5t-64.5 -10l-20 -5l-54 -154h-131z" />
<glyph unicode="&#x44e;" horiz-adv-x="1658" d="M430 635h203q59 218 210.5 344.5t360.5 126.5q184 0 284.5 -111.5t100.5 -292.5q0 -329 -171 -525.5t-439 -196.5q-174 0 -275.5 110t-101.5 295q0 34 4 96h-200l-78 -481h-195l148 922l-175 41l21 112l375 10zM1016 143q174 0 272 156t98 408q0 123 -59.5 179t-159.5 56 q-87 0 -157 -46t-113.5 -124.5t-66.5 -179t-23 -213.5q0 -119 56 -177.5t153 -58.5z" />
<glyph unicode="&#x44f;" horiz-adv-x="1142" d="M1047 133l-19 -113l-379 -20l70 424q-86 -21 -160 -21h-27q-65 -122 -152 -232.5t-179 -170.5h-277l19 113l149 49q101 67 159 125.5t114 152.5q-162 71 -162 244q0 181 142 300.5t368 119.5q150 0 311 -53l-152 -889zM741 567l60 363q-47 17 -102.5 18t-109 -14.5 t-97 -44.5t-70.5 -78t-27 -109q0 -153 183 -153q86 0 163 18z" />
<glyph unicode="&#x450;" horiz-adv-x="1015" d="M461 1645l422 -302l-64 -108l-446 256zM827 236l62 -105q-9 -6 -25 -16.5t-66.5 -36.5t-102 -45.5t-124.5 -36t-141 -16.5q-169 0 -269 99.5t-100 268.5q0 156 47 297t126.5 241.5t189 160t229.5 59.5q155 0 246.5 -72t91.5 -194q0 -117 -91 -207t-254.5 -139.5 t-373.5 -49.5q-6 -47 -6 -88q0 -109 55.5 -161t170.5 -52q67 0 150.5 23.5t133.5 46.5zM291 588q219 0 362.5 65t143.5 166q0 133 -154 133q-113 0 -213 -102t-139 -262z" />
<glyph unicode="&#x451;" horiz-adv-x="1015" d="M827 236l62 -105q-9 -6 -25 -16.5t-66.5 -36.5t-102 -45.5t-124.5 -36t-141 -16.5q-169 0 -269 99.5t-100 268.5q0 156 47 297t126.5 241.5t189 160t229.5 59.5q155 0 246.5 -72t91.5 -194q0 -117 -91 -207t-254.5 -139.5t-373.5 -49.5q-6 -47 -6 -88q0 -109 55.5 -161 t170.5 -52q67 0 150.5 23.5t133.5 46.5zM291 588q219 0 362.5 65t143.5 166q0 133 -154 133q-113 0 -213 -102t-139 -262zM383 1403q0 64 36.5 108.5t94.5 44.5q44 0 69 -25t25 -69q0 -62 -38.5 -106.5t-94.5 -44.5q-43 0 -67.5 24.5t-24.5 67.5zM795 1403q0 64 36.5 108.5 t94.5 44.5q44 0 69 -25t25 -69q0 -62 -38.5 -106.5t-94.5 -44.5q-43 0 -67.5 24.5t-24.5 67.5z" />
<glyph unicode="&#x452;" horiz-adv-x="1228" d="M496 1167l-93 -520q3 9 13 30.5t32.5 62t50.5 82t69.5 86t87.5 79t106.5 56.5t124.5 22q223 0 223 -248q0 -178 -70 -538q-29 -148 -60.5 -263.5t-62 -194t-67 -133.5t-68 -86t-73 -47.5t-74 -21t-78.5 -4.5q-36 0 -77 7.5t-64 15.5l-23 8l41 133q51 -10 123 -10 q36 0 57 4.5t47.5 23.5t45.5 57.5t43 107t47.5 172t52.5 251.5q61 316 61 457q0 135 -106 135q-74 0 -145.5 -58t-120.5 -140.5t-87 -165.5t-56 -141l-19 -58l-62 -328h-194l186 1167h-174l19 123h174l20 123l-172 41l19 113l374 10l-51 -287h375l-19 -123h-376z" />
<glyph unicode="&#x453;" horiz-adv-x="976" d="M432 1327l422 301l88 -153l-446 -256zM764 227l61 -100q-236 -147 -415 -147q-149 0 -242.5 69.5t-93.5 214.5q0 64 26 119t69 94t98 74.5t112 61.5t112 54.5t98 54t69 60t26 72.5q0 45 -32 73.5t-79 28.5q-64 0 -149.5 -26.5t-139.5 -53.5l-53 -26l-61 102 q237 154 424 154q131 0 210 -74.5t79 -197.5q0 -73 -33.5 -133.5t-87.5 -102t-118.5 -77t-129.5 -65.5t-119 -60t-87.5 -67.5t-33.5 -80.5q0 -57 48.5 -86t117.5 -29q68 0 149 23.5t128 47.5z" />
<glyph unicode="&#x454;" horiz-adv-x="1030" d="M850 768l-14 154q-79 20 -177 20q-127 0 -221 -78t-131 -229h434l-24 -154h-430v-39q0 -148 64.5 -223.5t185.5 -75.5q53 0 106.5 12.5t92 30.5t69 36.5t45.5 31.5l16 12l49 -123q-8 -7 -23 -18t-62 -39t-94.5 -49.5t-115 -39t-128.5 -17.5q-209 0 -314.5 109.5 t-105.5 311.5q0 147 46 277t127 224.5t197.5 149t251.5 54.5q80 0 161.5 -20.5t122.5 -41.5l42 -20l-39 -256h-131z" />
<glyph unicode="&#x455;" horiz-adv-x="942" d="M92 328l-49 -297q16 -6 44.5 -14.5t109 -22.5t153.5 -14q209 0 335 94t126 254q0 58 -25.5 105.5t-66 79.5t-90 59.5t-98.5 52t-89.5 49.5t-66 59.5t-25.5 75.5q0 74 53 110.5t142 36.5q39 0 72.5 -4.5t46.5 -9.5l14 -4l12 -160h133l49 277q-153 51 -303 51 q-86 0 -159.5 -20t-131 -59t-90 -103t-32.5 -146q0 -62 25 -112.5t64.5 -83.5t87.5 -60.5t96 -50.5t87.5 -46.5t64.5 -56t25 -71.5q0 -82 -61 -125t-164 -43q-26 0 -51 2.5t-43 6.5t-32 7.5t-22 6.5l-8 2v174h-133z" />
<glyph unicode="&#x456;" horiz-adv-x="634" d="M420 1280q68 0 105.5 53.5t37.5 130.5q0 49 -30.5 76t-81.5 27q-68 0 -106 -54t-38 -131q0 -48 31 -75t82 -27zM510 20l18 113l-174 31l148 921l-375 -10l-21 -112l175 -41l-148 -922z" />
<glyph unicode="&#x457;" horiz-adv-x="641" d="M127 1403q0 64 36.5 108.5t94.5 44.5q44 0 69 -25t25 -69q0 -62 -38.5 -106.5t-94.5 -44.5q-43 0 -67.5 24.5t-24.5 67.5zM518 1403q0 64 36.5 108.5t94.5 44.5q44 0 69 -25t25 -69q0 -62 -38.5 -106.5t-94.5 -44.5q-43 0 -67.5 24.5t-24.5 67.5zM516 20l19 113l-175 31 l148 921l-375 -10l-20 -112l174 -41l-148 -922z" />
<glyph unicode="&#x458;" horiz-adv-x="604" d="M410 1280q68 0 105.5 53.5t37.5 130.5q0 48 -31 75.5t-82 27.5q-68 0 -105.5 -54t-37.5 -131q0 -48 31 -75t82 -27zM270 922l-159 -994q-24 -144 -73.5 -205t-156.5 -61q-32 0 -63 2.5t-46 5.5l-14 2l-41 -133q82 -31 164 -31q176 0 282 105.5t138 294.5l193 1177 l-379 -10l-21 -112z" />
<glyph unicode="&#x459;" horiz-adv-x="1556" d="M938 670l-35 -113q51 55 134.5 100t179.5 45q109 0 178 -72.5t69 -193.5q0 -106 -40.5 -193.5t-108.5 -144t-154.5 -87.5t-179.5 -31q-171 0 -245 103t-42 306l84 533h-250q-34 -169 -88 -394q-67 -278 -160 -413t-247 -135q-55 0 -129 16l49 190q27 -6 55 -6 q99 0 165 83.5t118 279.5q43 171 86 379l-195 41l23 122h803zM1030 133q97 0 159 86t62 205q0 57 -29.5 91t-88.5 34q-130 0 -244 -156q-23 -127 15.5 -193.5t125.5 -66.5z" />
<glyph unicode="&#x45a;" horiz-adv-x="1642" d="M1053 670l-35 -113q51 55 134 100t179 45q109 0 178.5 -72.5t69.5 -193.5q0 -106 -40.5 -193.5t-108.5 -144t-154.5 -87.5t-179.5 -31q-171 0 -245 103t-42 306l16 103h-424l-75 -492h-201l145 922l-164 41l19 112l373 10l-70 -440h422l70 440h202zM1145 133q97 0 159 86 t62 205q0 57 -30 91t-89 34q-129 0 -243 -156q-23 -127 15.5 -193.5t125.5 -66.5z" />
<glyph unicode="&#x45b;" horiz-adv-x="1282" d="M1186 133l-19 -113l-374 -20l110 666q8 41 8 90q0 135 -106 135q-74 0 -145.5 -58t-120.5 -140.5t-87 -165.5t-56 -141l-19 -58l-62 -328h-194l186 1167h-174l19 123h174l20 123l-172 41l19 113l374 10l-51 -287h375l-19 -123h-376l-93 -520q3 9 13 30.5t32.5 62t50.5 82 t69.5 86t87.5 79t106.5 56.5t124.5 22q223 0 223 -248q0 -49 -10 -121l-86 -532z" />
<glyph unicode="&#x45c;" horiz-adv-x="1128" d="M494 1327l421 301l89 -153l-447 -256zM604 674l201 266l-88 23l16 112l441 10l-21 -122l-154 -27l-262 -322l189 -450l166 -51l-21 -113h-283l-204 522h-174l-82 -522h-195l148 922l-175 41l19 112l375 10l-68 -411h172z" />
<glyph unicode="&#x45d;" horiz-adv-x="1302" d="M498 1645l422 -302l-64 -108l-446 256zM801 0l84 397q-4 -11 -14 -31.5t-34 -62t-52.5 -81.5t-71.5 -85t-89 -79t-107 -56t-124 -22q-227 0 -227 249q0 47 10 119l94 574l-174 41l19 112l374 10l-112 -706q-8 -66 -8 -90q0 -135 106 -135q56 0 110 31t96 80.5t79.5 109.5 t64.5 120.5t47 110t30 80.5l9 31l62 368h194l-147 -921l176 -31l-18 -113z" />
<glyph unicode="&#x45e;" horiz-adv-x="1079" d="M909 1577l80 -53q-58 -111 -153 -182.5t-211 -71.5q-125 0 -202.5 66t-94.5 194l196 47q15 -86 55 -127t109 -41q127 0 221 168zM1020 930l-365 -862q-48 -113 -81 -185t-71 -141.5t-70.5 -108.5t-72.5 -70t-83.5 -43t-98.5 -12q-52 0 -109.5 8t-89.5 16l-32 9l41 131 q81 -10 153 -10q103 0 160 55t121 203l-266 1004l-142 39l23 112l309 10l172 -751l19 -139l303 731l-154 37l19 112l450 10l-20 -122z" />
<glyph unicode="&#x45f;" horiz-adv-x="1302" d="M801 0l84 397q-4 -11 -14 -31.5t-34 -62t-52.5 -81.5t-71.5 -85t-89 -79t-107 -56t-124 -22q-227 0 -227 249q0 61 17.5 177t86.5 516l-174 41l19 112l374 10q-78 -471 -99 -612.5t-21 -183.5q0 -135 106 -135q56 0 110 31t96 80.5t79.5 109.5t64.5 120.5t47 110t30 80.5 l9 31l62 368h194l-147 -921l176 -31l-18 -113zM535 -92h131l-80 -328h-203z" />
<glyph unicode="&#x490;" horiz-adv-x="1028" d="M1153 1270h-580l-172 -1106l226 -41l-19 -123h-608l18 123l177 41l172 1106l-164 41l18 112l387 11h359l147 358h121z" />
<glyph unicode="&#x491;" horiz-adv-x="921" d="M498 922l-123 -758l192 -51l-22 -113h-570l21 113l178 51l125 758l-164 41l19 112l370 10h289l88 277h139l-73 -440h-469z" />
<glyph unicode="&#x4b0;" horiz-adv-x="1251" d="M1372 1434l-20 -123l-164 -41l-461 -727h281l-29 -154h-311l-35 -225l170 -41l-21 -123h-559l21 123l184 41l35 225h-273l29 154h264l-211 727l-172 41l19 112l317 11l205 -750l344 588l-184 39l20 112z" />
<glyph unicode="&#x4b1;" horiz-adv-x="1132" d="M1198 1085l-22 -122l-111 -21l-430 -799h213l-23 -143h-262l-51 -307l160 -51l-19 -113h-538l18 113l180 51l49 307h-260l23 143h213l-162 789l-110 31l20 112l258 10l162 -886l356 733l-133 31l21 112z" />
<glyph unicode="&#x1e80;" horiz-adv-x="1980" d="M766 1724l76 162l446 -250l-55 -112zM90 1311l19 112l362 11v-2l2 2l154 -1055l454 1044l129 11l164 -1069l385 905l-176 41l21 112l548 11l-20 -123l-158 -39l-588 -1272h-129l-178 993l-86 -209l-372 -784h-134l-225 1270z" />
<glyph unicode="&#x1e81;" horiz-adv-x="1589" d="M733 1645l422 -302l-63 -108l-447 256zM1133 0h-236l-94 696l-27 -102l-229 -594h-232l-147 932l-143 31l18 112l322 10l102 -890l334 880l145 10l105 -890l301 729l-174 39l18 112l469 10l-20 -122l-101 -25z" />
<glyph unicode="&#x1e82;" horiz-adv-x="1980" d="M911 1528l-53 108l445 248l75 -162zM90 1311l19 112l362 11v-2l2 2l154 -1055l454 1044l129 11l164 -1069l385 905l-176 41l21 112l548 11l-20 -123l-158 -39l-588 -1272h-129l-178 993l-86 -209l-372 -784h-134l-225 1270z" />
<glyph unicode="&#x1e83;" horiz-adv-x="1589" d="M700 1327l422 301l88 -153l-446 -256zM1133 0h-236l-94 696l-27 -102l-229 -594h-232l-147 932l-143 31l18 112l322 10l102 -890l334 880l145 10l105 -890l301 729l-174 39l18 112l469 10l-20 -122l-101 -25z" />
<glyph unicode="&#x1e84;" horiz-adv-x="1980" d="M840 1659q0 64 36.5 108.5t94.5 44.5q44 0 69 -25t25 -69q0 -62 -38.5 -106.5t-94.5 -44.5q-43 0 -67.5 24.5t-24.5 67.5zM1251 1659q0 64 36.5 108.5t94.5 44.5q44 0 69.5 -25t25.5 -69q0 -62 -39 -106.5t-95 -44.5q-43 0 -67.5 24.5t-24.5 67.5zM90 1311l19 112l362 11 v-2l2 2l154 -1055l454 1044l129 11l164 -1069l385 905l-176 41l21 112l548 11l-20 -123l-158 -39l-588 -1272h-129l-178 993l-86 -209l-372 -784h-134l-225 1270z" />
<glyph unicode="&#x1e85;" horiz-adv-x="1589" d="M623 1403q0 64 36.5 108.5t94.5 44.5q44 0 69 -25t25 -69q0 -62 -38.5 -106.5t-94.5 -44.5q-43 0 -67.5 24.5t-24.5 67.5zM1034 1403q0 64 36.5 108.5t94.5 44.5q44 0 69.5 -25t25.5 -69q0 -62 -39 -106.5t-95 -44.5q-43 0 -67.5 24.5t-24.5 67.5zM1133 0h-236l-94 696 l-27 -102l-229 -594h-232l-147 932l-143 31l18 112l322 10l102 -890l334 880l145 10l105 -890l301 729l-174 39l18 112l469 10l-20 -122l-101 -25z" />
<glyph unicode="&#x1ef2;" horiz-adv-x="1241" d="M336 1724l76 162l446 -250l-55 -112zM272 1270l-172 41l19 112l317 11l205 -750l344 588l-184 39l20 112l551 11l-20 -123l-164 -41l-506 -797l-49 -309l170 -41l-21 -123h-559l21 123l184 41l57 373z" />
<glyph unicode="&#x1ef3;" horiz-adv-x="1079" d="M293 1645l422 -302l-64 -108l-446 256zM1020 930l-365 -862q-48 -113 -81 -185t-71 -141.5t-70.5 -108.5t-72.5 -70t-83.5 -43t-98.5 -12q-52 0 -109.5 8t-89.5 16l-32 9l41 131q81 -10 153 -10q103 0 160 55t121 203l-266 1004l-142 39l23 112l309 10l172 -751l19 -139 l303 731l-154 37l19 112l450 10l-20 -122z" />
<glyph unicode="&#x2000;" horiz-adv-x="1083" />
<glyph unicode="&#x2001;" horiz-adv-x="2167" />
<glyph unicode="&#x2002;" horiz-adv-x="1083" />
<glyph unicode="&#x2003;" horiz-adv-x="2167" />
<glyph unicode="&#x2004;" horiz-adv-x="722" />
<glyph unicode="&#x2005;" horiz-adv-x="541" />
<glyph unicode="&#x2006;" horiz-adv-x="361" />
<glyph unicode="&#x2007;" horiz-adv-x="361" />
<glyph unicode="&#x2008;" horiz-adv-x="270" />
<glyph unicode="&#x2009;" horiz-adv-x="433" />
<glyph unicode="&#x200a;" horiz-adv-x="120" />
<glyph unicode="&#x2010;" horiz-adv-x="782" d="M649 645l-28 -174h-521l29 174h520z" />
<glyph unicode="&#x2011;" horiz-adv-x="782" d="M649 645l-28 -174h-521l29 174h520z" />
<glyph unicode="&#x2012;" horiz-adv-x="782" d="M649 645l-28 -174h-521l29 174h520z" />
<glyph unicode="&#x2013;" horiz-adv-x="1028" d="M1028 748l-27 -164h-1001l25 164h1003z" />
<glyph unicode="&#x2014;" horiz-adv-x="1939" d="M1972 748l-26 -164h-1946l27 164h1945z" />
<glyph unicode="&#x2015;" horiz-adv-x="1939" d="M1972 748l-26 -164h-1946l27 164h1945z" />
<glyph unicode="&#x2017;" horiz-adv-x="1054" d="M897 -164v-143h-1032v143h1032zM897 -451v-143h-1032v143h1032z" />
<glyph unicode="&#x2018;" horiz-adv-x="419" d="M481 1520l-78 77q-12 -11 -32.5 -30.5t-72.5 -77.5t-91.5 -112.5t-72 -124t-32.5 -124.5q0 -112 111 -112q67 0 110.5 49t43.5 113q0 27 -14.5 63t-14.5 55q0 26 36 82t72 99z" />
<glyph unicode="&#x2019;" horiz-adv-x="497" d="M154 1094l77 -78q12 11 32.5 30.5t72.5 77.5t91.5 112.5t72 124t32.5 124.5q0 112 -110 112q-67 0 -110.5 -48.5t-43.5 -112.5q0 -27 14.5 -63.5t14.5 -55.5q0 -26 -35.5 -82t-71.5 -99z" />
<glyph unicode="&#x201a;" horiz-adv-x="532" d="M0 -279l78 -77q12 11 32.5 30.5t72.5 77.5t91.5 112.5t72 124t32.5 124.5q0 112 -111 112q-67 0 -110 -49t-43 -113q0 -27 14 -63t14 -55q0 -26 -35.5 -82t-71.5 -99z" />
<glyph unicode="&#x201b;" horiz-adv-x="475" d="M401 1016l101 78q-9 14 -21.5 37t-33.5 77t-21 88q0 23 32.5 72.5t39.5 91.5q2 8 2 25q0 50 -29.5 81t-81.5 31q-64 0 -110 -45.5t-46 -146.5q0 -82 44.5 -184.5t123.5 -204.5z" />
<glyph unicode="&#x201c;" horiz-adv-x="811" d="M481 1520l-78 77q-12 -11 -32.5 -30.5t-72.5 -77.5t-91.5 -112.5t-72 -124t-32.5 -124.5q0 -112 111 -112q67 0 110.5 49t43.5 113q0 27 -14.5 63t-14.5 55q0 26 36 82t72 99zM872 1520l-77 77q-12 -11 -32.5 -30.5t-72.5 -77.5t-91.5 -112.5t-72 -124t-32.5 -124.5 q0 -112 110 -112q67 0 110.5 49t43.5 113q0 27 -14.5 63t-14.5 55q0 26 35.5 82t71.5 99z" />
<glyph unicode="&#x201d;" horiz-adv-x="1005" d="M154 1094l77 -78q12 11 32.5 30.5t72.5 77.5t91.5 112.5t72 124t32.5 124.5q0 112 -110 112q-67 0 -110.5 -48.5t-43.5 -112.5q0 -27 14.5 -63.5t14.5 -55.5q0 -26 -35.5 -82t-71.5 -99zM545 1094l78 -78q12 11 32.5 30.5t72.5 77.5t91.5 112.5t72 124t32.5 124.5 q0 112 -111 112q-67 0 -110.5 -48.5t-43.5 -112.5q0 -27 14.5 -63.5t14.5 -55.5q0 -26 -36 -82t-72 -99z" />
<glyph unicode="&#x201e;" horiz-adv-x="913" d="M0 -279l78 -77q12 11 32.5 30.5t72.5 77.5t91.5 112.5t72 124t32.5 124.5q0 112 -111 112q-67 0 -110 -49t-43 -113q0 -27 14 -63t14 -55q0 -26 -35.5 -82t-71.5 -99zM391 -279l78 -77q12 11 32.5 30.5t72.5 77.5t91.5 112.5t72 124t32.5 124.5q0 112 -111 112 q-67 0 -110 -49t-43 -113q0 -27 14.5 -63t14.5 -55q0 -26 -36 -82t-72 -99z" />
<glyph unicode="&#x2020;" horiz-adv-x="999" d="M506 1229l39 307l172 10l-60 -317h342l-22 -144l-432 -51l-402 51l23 144h340zM383 0l98 82l158 850l-111 -21l-100 21l-117 -850z" />
<glyph unicode="&#x2021;" horiz-adv-x="999" d="M506 1229l39 307l172 10l-60 -317h342l-22 -144l-430 -51l-404 51l23 144h340zM526 911l336 50l-24 -150l-342 -86l-326 86l25 150zM383 0l98 82l99 539l-103 -21l-92 21l-74 -539z" />
<glyph unicode="&#x2022;" horiz-adv-x="1034" d="M154 635q0 113 54 199t134 128t170 42q67 0 126.5 -22t107.5 -63.5t76 -109.5t28 -154q0 -89 -31 -161t-83 -116t-114.5 -67.5t-129.5 -23.5t-126.5 20.5t-107.5 61t-76 109t-28 157.5z" />
<glyph unicode="&#x2026;" horiz-adv-x="1474" d="M119 92q0 72 41.5 123t115.5 51q54 0 83.5 -28t29.5 -84q0 -71 -41.5 -122.5t-118.5 -51.5q-110 0 -110 112zM602 92q0 72 42 123t116 51q112 0 112 -112q0 -71 -41 -122.5t-118 -51.5q-111 0 -111 112zM1083 92q0 72 42 123t116 51q54 0 83.5 -28t29.5 -84 q0 -71 -41.5 -122.5t-118.5 -51.5q-111 0 -111 112z" />
<glyph unicode="&#x202f;" horiz-adv-x="433" />
<glyph unicode="&#x2030;" horiz-adv-x="2406" d="M567 1454q123 0 190.5 -68.5t67.5 -191.5q0 -192 -106.5 -324.5t-284.5 -132.5q-132 0 -201 65.5t-69 194.5q0 197 113.5 327t289.5 130zM528 1323q-93 0 -152 -82.5t-59 -218.5q0 -76 39.5 -115t106.5 -39q93 0 151 79.5t58 209.5q0 166 -144 166zM1239 696 q123 0 190.5 -68.5t67.5 -191.5q0 -192 -106.5 -324t-284.5 -132q-132 0 -201 65.5t-69 194.5q0 197 113.5 326.5t289.5 129.5zM1200 565q-93 0 -152 -82.5t-59 -218.5q0 -76 39.5 -114.5t106.5 -38.5q93 0 150.5 79t57.5 209q0 166 -143 166zM1974 696q123 0 190.5 -68.5 t67.5 -191.5q0 -192 -106.5 -324t-284.5 -132q-132 0 -201 65.5t-69 194.5q0 197 113.5 326.5t289.5 129.5zM1935 565q-93 0 -152 -82.5t-59 -218.5q0 -76 39.5 -114.5t106.5 -38.5q93 0 151 79t58 209q0 166 -144 166zM1442 1434l-1041 -1434h-180l1041 1434h180z" />
<glyph unicode="&#x2032;" horiz-adv-x="374" d="M166 1075l121 510l188 -18l-162 -506z" />
<glyph unicode="&#x2033;" horiz-adv-x="702" d="M166 1075l121 510l188 -18l-162 -506zM494 1075l120 510l189 -18l-162 -506z" />
<glyph unicode="&#x2039;" horiz-adv-x="686" d="M371 164l-248 334l18 123l338 297l105 -93l-271 -274l172 -305z" />
<glyph unicode="&#x203a;" horiz-adv-x="665" d="M326 918l237 -334l-18 -123l-328 -297l-104 90l260 276l-162 306z" />
<glyph unicode="&#x203c;" horiz-adv-x="1138" d="M594 1536l-197 -1024l-170 -10l135 1034h232zM1040 1536l-196 -1024l-170 -10l135 1034h231zM270 266q54 0 83.5 -28t29.5 -84q0 -71 -41.5 -122.5t-118.5 -51.5q-110 0 -110 112q0 72 41.5 123t115.5 51zM717 266q112 0 112 -112q0 -71 -41 -122.5t-118 -51.5 q-111 0 -111 112q0 72 42 123t116 51z" />
<glyph unicode="&#x203e;" horiz-adv-x="1034" d="M979 1423l-21 -133h-843l20 133h844z" />
<glyph unicode="&#x2044;" horiz-adv-x="1157" d="M1278 1444l-1284 -1536l-125 92l1282 1536z" />
<glyph unicode="&#x205f;" horiz-adv-x="541" />
<glyph unicode="&#x2074;" horiz-adv-x="817" d="M741 1434l-86 -541h146l-23 -133h-145l-29 -187h-172l29 187h-416l6 121l498 573zM485 893l58 367l-316 -367h258z" />
<glyph unicode="&#x207f;" horiz-adv-x="1036" d="M653 664l84 479q6 34 6 65q0 99 -77 99q-54 0 -103.5 -40t-82 -96.5t-57 -113.5t-35.5 -97l-11 -40l-43 -256h-160l109 643l-115 32l14 91l262 8l-65 -285l1 2q6 14 13 27t26.5 45t39.5 59t51.5 59.5t64 55t75.5 38t87 15.5q87 0 129.5 -49t42.5 -133q0 -42 -8 -86 l-67 -398l133 -28l-13 -88z" />
<glyph unicode="&#x20a3;" horiz-adv-x="1171" d="M1231 1434l-55 -349h-115l-21 185h-452l-74 -451h469l-25 -164h-466l-27 -166h258l-23 -153h-260l-28 -172l200 -41l-20 -123h-586l21 123l180 41l29 172h-166l22 153h168l125 781l-170 41l18 112l381 11h617z" />
<glyph unicode="&#x20a4;" horiz-adv-x="1247" d="M156 932h209q8 76 14 112q30 192 146.5 301t320.5 109q108 0 208 -15t146 -31l47 -15l-55 -351h-115l-26 236q-111 12 -222 12q-210 0 -243 -205q-14 -91 -21 -153h324l-25 -144h-733zM963 373h135l-62 -373h-1013l18 123l117 31q69 18 100 74.5t53 191.5q9 59 13 92 h-234l25 143h733l-25 -143h-299l-10 -72q-9 -57 -26 -106.5t-35 -79.5t-34.5 -51.5t-26.5 -30.5l-11 -8h506z" />
<glyph unicode="&#x20a7;" horiz-adv-x="1380" d="M1356 901h-152q-24 -88 -72.5 -156.5t-107.5 -111.5t-132.5 -71t-144 -39t-145.5 -11h-135l-57 -350l176 -39l-21 -123h-559l21 123l178 41l117 737h-170l22 154h172l35 215l-166 41l18 112l379 11h215q59 0 113 -9.5t108 -33.5t93 -61t63.5 -97t24.5 -137v-41h149z M551 1055h463q-1 51 -17 91t-39.5 62.5t-54.5 37t-58 19.5t-54 5h-205zM492 676h137q290 0 362 225h-465z" />
<glyph unicode="&#x20ac;" horiz-adv-x="1333" d="M991 778l23 144h-502q59 163 160.5 260.5t230.5 97.5q108 0 230 -33l24 -205h105l61 324q-20 10 -54.5 24.5t-134.5 39t-190 24.5q-225 0 -398.5 -141.5t-258.5 -390.5h-135l-23 -144h862zM84 489h137q0 -230 117 -369.5t334 -139.5q79 0 159.5 22.5t140 55t107.5 64.5 t73 54l24 23l-64 110q-8 -6 -22 -16t-58.5 -36t-88.5 -45.5t-106 -35.5t-118 -16q-93 0 -154.5 45t-88 116.5t-30.5 170.5h500l23 143h-863z" />
<glyph unicode="&#x2105;" horiz-adv-x="2101" d="M1624 866q303 0 303 -321q0 -246 -134.5 -400.5t-338.5 -154.5q-162 0 -243 77.5t-81 237.5q0 252 140.5 406.5t353.5 154.5zM1581 713q-122 0 -195 -96t-73 -277q0 -96 43 -147.5t129 -51.5q114 0 187 99.5t73 277.5q0 195 -164 195zM739 1157l-4 119q-53 14 -127 14 q-115 0 -192.5 -91t-77.5 -255q0 -107 51 -164t139 -57q61 0 120.5 22t88.5 44l29 22l57 -115q-6 -5 -17 -14t-46 -31t-71.5 -39t-90.5 -31t-106 -14q-338 0 -338 328q0 242 134 395.5t353 153.5q68 0 133.5 -16t97.5 -32l31 -16l-41 -223h-123zM1585 1434l-1024 -1434h-178 l1024 1434h178z" />
<glyph unicode="&#x2113;" horiz-adv-x="886" d="M66 389l-52 113q133 84 222 153l69 430q19 119 51 210t81 160.5t119.5 105.5t160.5 36q213 0 213 -225q0 -84 -30 -170.5t-77 -160.5t-116.5 -151t-137 -137.5t-149.5 -125.5q-37 -242 -37 -310q0 -90 31.5 -137t107.5 -47q36 0 77 5.5t64 10.5l23 5v-134 q-117 -40 -211 -40q-285 0 -285 317q0 74 19 176q-89 -58 -143 -84zM502 1120l-45 -284q139 128 225 259t86 234q0 105 -90 105q-39 0 -69.5 -25t-51 -71.5t-33.5 -98.5t-22 -119z" />
<glyph unicode="&#x2116;" horiz-adv-x="2533" d="M2130 1454q148 0 227.5 -76.5t79.5 -216.5q0 -226 -124.5 -371t-332.5 -145q-154 0 -235.5 74.5t-81.5 220.5q0 228 130.5 371t336.5 143zM2099 1319q-124 0 -196 -93.5t-72 -256.5q0 -95 50.5 -143t135.5 -48q114 0 183 95.5t69 246.5q0 94 -44 146.5t-126 52.5z M207 1311l170 -41l-176 -1106l-183 -41l-22 -123h532l23 123l-168 41l158 989l499 -1153h232l201 1270l174 41l20 123l-522 -11l-19 -112l164 -41l-155 -981l-480 1145l-430 -11zM2310 481l-22 -143h-703l23 143h702z" />
<glyph unicode="&#x2122;" horiz-adv-x="1949" d="M229 655l17 93l135 26l90 543h-149l-48 -139h-96l43 256h692l-43 -256h-96v139h-149l-90 -543l127 -26l-17 -93h-416zM1585 774l74 447l-240 -344l-104 -13l-127 348l-72 -438l121 -26l-16 -93h-355l15 93l110 26l90 547l-102 14l14 92l281 7l129 -392l260 385l268 7 l-14 -93l-107 -20l-90 -547l97 -26l-17 -93h-350l16 93z" />
<glyph unicode="&#x2126;" horiz-adv-x="1587" d="M61 0l27 164h266q-7 7 -19 19.5t-42 56.5t-52.5 92t-41.5 123.5t-19 154.5q0 128 31.5 250t95 229.5t152.5 189t212 128.5t265 47q245 0 376.5 -138.5t131.5 -385.5q0 -99 -20.5 -194t-53 -169t-72.5 -140t-79.5 -112.5t-72 -81t-52.5 -51.5l-21 -16l273 8l-29 -174h-512 l22 133q8 4 22.5 12.5t56.5 41t80 71.5t84.5 106.5t79.5 143.5t56 184t23 228q0 163 -87 261.5t-239 98.5q-107 0 -194.5 -39t-146 -105t-98.5 -156.5t-57.5 -191t-17.5 -210.5q0 -95 21.5 -176t51 -128.5t61 -81t51 -46.5t22.5 -13l-23 -133h-512z" />
<glyph unicode="&#x212e;" horiz-adv-x="1366" d="M348 737v-403q64 -61 152 -94t184 -33q131 0 256 47.5t203 126.5l53 -53q-87 -92 -229.5 -148.5t-282.5 -56.5q-263 0 -423.5 158.5t-160.5 425.5q0 166 80 305t219.5 219t305.5 80q162 0 293 -74.5t205.5 -206t74.5 -293.5h-930zM1032 809v287q-143 133 -327 133 q-205 0 -357 -152v-268h684z" />
<glyph unicode="&#x215b;" horiz-adv-x="1929" d="M1610 451q71 -29 111 -68t40 -102q0 -124 -110 -207.5t-269 -83.5q-133 0 -204.5 51.5t-71.5 146.5q0 59 25.5 108.5t65 79.5t68 45.5t54.5 24.5q-56 26 -83.5 61t-27.5 91q0 131 94.5 201.5t247.5 70.5q123 0 188.5 -49.5t65.5 -138.5q0 -82 -50 -141t-144 -90z M1370 616q0 -42 30.5 -68t94.5 -52q21 6 42.5 17t46 29t39.5 45.5t15 59.5q0 90 -120 90q-77 0 -112.5 -37t-35.5 -84zM1587 268q0 25 -8.5 43.5t-33.5 35t-40 23.5t-59 24q-8 3 -12 5q-69 -29 -100 -59q-50 -48 -50 -117q0 -48 35.5 -73t95.5 -25q88 0 130 43t42 100z M164 573l20 134h187l86 542l-232 -133l-49 123l334 195h149l-114 -727h174l-23 -134h-532zM1571 1434l-1041 -1434h-188l1040 1434h189z" />
<glyph unicode="&#x215c;" horiz-adv-x="1929" d="M1610 451q71 -29 111 -68t40 -102q0 -124 -110 -207.5t-269 -83.5q-133 0 -204.5 51.5t-71.5 146.5q0 59 25.5 108.5t65 79.5t68 45.5t54.5 24.5q-56 26 -83.5 61t-27.5 91q0 131 94.5 201.5t247.5 70.5q123 0 188.5 -49.5t65.5 -138.5q0 -82 -50 -141t-144 -90z M1370 616q0 -42 30.5 -68t94.5 -52q21 6 42.5 17t46 29t39.5 45.5t15 59.5q0 90 -120 90q-77 0 -112.5 -37t-35.5 -84zM1587 268q0 25 -8.5 43.5t-33.5 35t-40 23.5t-59 24q-8 3 -12 5q-69 -29 -100 -59q-50 -48 -50 -117q0 -48 35.5 -73t95.5 -25q88 0 130 43t42 100z M225 1194l27 211q166 39 287 39q129 0 197.5 -48.5t68.5 -140.5q0 -90 -57 -150.5t-152 -82.5q67 -6 114.5 -48t47.5 -108q0 -76 -31.5 -135t-86.5 -95t-123.5 -54.5t-147.5 -18.5q-63 0 -129.5 19.5t-101.5 39.5l-36 19l58 121q12 -7 34 -17.5t83.5 -27.5t117.5 -17 q85 0 137 38t52 106q0 104 -164 104h-92l18 125h94q91 0 143 36.5t52 109.5q0 92 -129 92q-38 0 -73 -4.5t-51 -9.5l-15 -5l-25 -98h-117zM1575 1434l-1040 -1434h-189l1040 1434h189z" />
<glyph unicode="&#x215d;" horiz-adv-x="1908" d="M1589 451q71 -29 111.5 -68t40.5 -102q0 -124 -110 -207.5t-269 -83.5q-133 0 -205 51.5t-72 146.5q0 59 25.5 108.5t65 79.5t68 45.5t54.5 24.5q-56 26 -83 61t-27 91q0 131 94.5 201.5t247.5 70.5q123 0 188.5 -49.5t65.5 -138.5q0 -81 -50.5 -140.5t-144.5 -90.5z M1350 616q0 -42 30.5 -68t94.5 -52q21 6 42.5 17t46 29t39.5 45.5t15 59.5q0 90 -121 90q-77 0 -112 -37t-35 -84zM1567 268q0 25 -10.5 44.5t-29.5 32.5t-44.5 25t-55.5 24q-9 3 -14 5q-70 -30 -101 -61q-48 -47 -48 -115q0 -48 35.5 -73t95.5 -25q88 0 130 43t42 100z M432 1296l-39 -186h56q87 0 152.5 -19.5t108 -67t42.5 -120.5q0 -100 -58 -180t-144 -121t-177 -41q-70 0 -136 15.5t-97 31.5l-31 15l55 127q106 -50 215 -50q86 0 142.5 43t56.5 121q0 61 -55 87t-161 26h-145l84 457h492l-25 -138h-336zM1554 1434l-1040 -1434h-188 l1040 1434h188z" />
<glyph unicode="&#x215e;" horiz-adv-x="1804" d="M1485 451q71 -29 111 -68t40 -102q0 -124 -110 -207.5t-269 -83.5q-133 0 -204.5 51.5t-71.5 146.5q0 59 25.5 108.5t65 79.5t68 45.5t54.5 24.5q-56 26 -83.5 61t-27.5 91q0 131 94.5 201.5t247.5 70.5q123 0 188.5 -49.5t65.5 -138.5q0 -82 -50 -141t-144 -90z M1245 616q0 -42 30.5 -68t94.5 -52q21 6 42.5 17t46 29t39.5 45.5t15 59.5q0 90 -120 90q-77 0 -112.5 -37t-35.5 -84zM1462 268q0 25 -8.5 43.5t-33.5 35t-40 23.5t-59 24q-8 3 -12 5q-69 -29 -100 -59q-50 -48 -50 -117q0 -48 35.5 -73t95.5 -25q88 0 130 43t42 100z M813 1331l-459 -770h-172l434 735h-288l-45 -104h-117l43 242h620zM1450 1434l-1040 -1434h-189l1041 1434h188z" />
<glyph unicode="&#x2190;" horiz-adv-x="1277" d="M332 565l262 -364l-111 -82l-389 475l15 102l507 482l97 -109l-342 -340h919l-20 -164h-938z" />
<glyph unicode="&#x2191;" horiz-adv-x="1187" d="M563 922l-405 -306l-78 113l545 449h102l426 -451l-117 -113l-309 306l-137 -920h-164z" />
<glyph unicode="&#x2192;" horiz-adv-x="1277" d="M928 729l-246 344l125 103l375 -480l-15 -102l-518 -481l-102 92l360 360h-919l20 164h920z" />
<glyph unicode="&#x2193;" horiz-adv-x="1187" d="M633 236l399 317l78 -113l-539 -460h-102l-426 450l117 113l309 -305l141 919h164z" />
<glyph unicode="&#x2194;" horiz-adv-x="1402" d="M586 965l-84 90l-396 -363l-10 -86l295 -362l105 92l-174 237h743l-244 -243l84 -90l389 362l11 86l-289 363l-109 -93l172 -237h-743z" />
<glyph unicode="&#x2195;" horiz-adv-x="937" d="M137 418l-104 -96l321 -342h86l418 348l-80 94l-282 -217l112 743l211 -209l105 97l-322 342h-86l-405 -351l79 -94l271 219l-113 -743z" />
<glyph unicode="&#x21a8;" horiz-adv-x="937" d="M154 418l-103 -96l320 -342h86l405 350l-78 94l-270 -219l111 743l213 -209l104 97l-321 342h-86l-416 -349l78 -94l282 217l-112 -743zM799 -164l-27 -143h-803l25 143h805z" />
<glyph unicode="&#x2202;" horiz-adv-x="1300" d="M459 1413v143q133 41 248 41q228 0 349.5 -132.5t121.5 -399.5q0 -119 -20 -243t-58 -246t-99.5 -229t-139 -189.5t-182 -130t-222.5 -47.5q-163 0 -269 100t-106 260q0 106 38 207t105.5 179.5t167.5 126.5t215 48q61 0 117.5 -14.5t93.5 -35.5t66 -42.5t42 -36.5 l13 -14q37 149 37 286q0 181 -77.5 285.5t-240.5 104.5q-28 0 -58.5 -2t-54.5 -5t-43.5 -6.5t-31 -5.5t-12.5 -2zM897 584q-3 6 -9.5 16.5t-31 37.5t-55 47t-84 37t-115.5 17q-138 0 -221.5 -106.5t-83.5 -259.5q0 -98 53.5 -160.5t136.5 -62.5q59 0 114 24t95 62t74.5 84.5 t57 93t39 84.5t23.5 62z" />
<glyph unicode="&#x2206;" horiz-adv-x="1310" d="M899 1475l320 -1332l-25 -143h-1255l24 145l739 1330h197zM1006 164l-250 1079l-594 -1079h844z" />
<glyph unicode="&#x220f;" horiz-adv-x="1474" d="M379 1270l-164 41l16 112l371 11h934l-18 -123l-177 -41l-276 -1741h-199l277 1741h-563l-279 -1741h-199z" />
<glyph unicode="&#x2211;" horiz-adv-x="1251" d="M655 494l-446 786l24 154h1018l-55 -349h-127l-25 185h-606l447 -772l-688 -805h608l76 211h147l-59 -375h-1051l25 154z" />
<glyph unicode="&#x2212;" horiz-adv-x="1191" d="M1090 635l-25 -164h-963l25 164h963z" />
<glyph unicode="&#x2215;" horiz-adv-x="1097" d="M1272 1444l-1272 -1536l-125 92l1272 1536z" />
<glyph unicode="&#x2219;" horiz-adv-x="661" d="M174 645q0 67 48 115.5t116 48.5t116 -48.5t48 -115.5t-48 -115.5t-116 -48.5t-116 48.5t-48 115.5z" />
<glyph unicode="&#x221a;" horiz-adv-x="1351" d="M92 1075l275 10l137 -901l592 1383l379 10l-19 -113l-231 -30l-641 -1434h-222l-172 938l-118 31z" />
<glyph unicode="&#x221e;" horiz-adv-x="1802" d="M1257 266q-112 0 -202 59.5t-183 166.5q-24 -21 -45 -37.5t-76.5 -55t-104 -64.5t-113.5 -47.5t-119 -21.5q-136 0 -213.5 72.5t-77.5 193.5q0 110 50.5 203t148 150t221.5 57q110 0 199.5 -59.5t183.5 -165.5q32 28 66 54t102.5 71t145.5 72.5t146 27.5q140 0 216.5 -71 t76.5 -195q0 -172 -119.5 -291t-302.5 -119zM449 420q76 0 164.5 55.5t164.5 124.5q-77 92 -139.5 140t-130.5 48q-100 0 -155.5 -66t-55.5 -163q0 -66 41 -102.5t111 -36.5zM1350 788q-134 0 -330 -180q39 -45 66.5 -73.5t63 -57.5t70.5 -43t72 -14q99 0 156 66t57 163 q0 65 -42 102t-113 37z" />
<glyph unicode="&#x221f;" horiz-adv-x="1228" d="M1055 195l-31 -195h-954l172 1106h207l-140 -911h746z" />
<glyph unicode="&#x2229;" horiz-adv-x="1228" d="M774 0l137 850q23 148 19 243.5t-51 141t-150 45.5q-85 0 -143.5 -24.5t-97.5 -81.5t-62 -134.5t-43 -199.5l-135 -840h-199l133 829q14 90 30.5 160.5t41 137.5t55.5 116t73.5 90.5t96 67t123 39.5t154.5 14q172 0 260.5 -65.5t107 -197.5t-13.5 -331l-137 -860h-199z " />
<glyph unicode="&#x222b;" horiz-adv-x="718" d="M881 1690l-39 -150q-66 16 -127 16q-97 0 -148 -56.5t-61 -178.5q-86 -1144 -119 -1495q-21 -203 -122.5 -321.5t-287.5 -118.5q-32 0 -76.5 7.5t-72.5 14.5l-29 8l33 144q78 -11 129 -11q97 0 148 57t61 179q86 1144 119 1495q10 96 37 173t75 138.5t123.5 95 t173.5 33.5q27 0 73 -7.5t78 -14.5z" />
<glyph unicode="&#x2248;" horiz-adv-x="1282" d="M231 571l-81 64q5 8 14.5 22t42.5 49.5t69 62.5t93 49t116 22q62 0 119.5 -22.5t94.5 -49.5t89.5 -49.5t106.5 -22.5q49 0 101 31t79 61l27 31l84 -63q-6 -9 -16.5 -23t-45.5 -51t-71 -65t-89 -51t-104 -23q-62 0 -122.5 22.5t-102 49t-97.5 49t-108 22.5q-49 0 -99 -29 t-75 -57zM178 233l-82 64q5 8 14.5 22t42.5 49.5t69.5 62.5t93.5 49t116 22q62 0 119.5 -22.5t94.5 -49.5t89.5 -49.5t106.5 -22.5q49 0 101 31t79 61l27 31l81 -63q-6 -9 -16.5 -23t-44.5 -51t-70 -65t-88.5 -51t-103.5 -23q-62 0 -122.5 22.5t-102 49t-97.5 49t-108 22.5 q-49 0 -99 -29t-75 -57z" />
<glyph unicode="&#x2260;" horiz-adv-x="1306" d="M733 840l166 266h170l-168 -266h303l-26 -164h-379l-150 -236h492l-27 -164h-567l-174 -276h-168l172 276h-275l25 164h352l150 236h-463l27 164h540z" />
<glyph unicode="&#x2261;" horiz-adv-x="1228" d="M1151 840l-27 -164h-983l27 164h983zM1096 504l-27 -164h-983l27 164h983zM1042 164l-26 -164h-983l26 164h983z" />
<glyph unicode="&#x2264;" horiz-adv-x="1259" d="M1092 276l-957 359l23 143l1071 348l-25 -163l-837 -256l751 -267zM33 0l22 160h1018l-24 -160h-1016z" />
<glyph unicode="&#x2265;" horiz-adv-x="1265" d="M182 963l25 163l956 -348l-22 -143l-1069 -359l26 164l838 267zM29 0l24 160h1014l-27 -160h-1011z" />
<glyph unicode="&#x2302;" horiz-adv-x="1228" d="M1065 625v-625h-922v625l420 460h82zM604 860l-276 -307v-389h553v389z" />
<glyph unicode="&#x2310;" horiz-adv-x="1228" d="M184 727l-84 -553h164l62 389h835l27 164h-1004z" />
<glyph unicode="&#x2320;" horiz-adv-x="763" d="M63 -614l295 1874q16 104 45 181.5t76.5 137.5t118.5 90.5t166 30.5q33 0 75 -8t67 -16l26 -7l-35 -143q-68 10 -117 10q-170 0 -205 -236l-303 -1914h-209z" />
<glyph unicode="&#x2321;" horiz-adv-x="700" d="M647 1700l-295 -1874q-16 -104 -44.5 -181.5t-76 -137.5t-118.5 -90.5t-166 -30.5q-33 0 -75 7.5t-68 14.5l-25 8l35 144q67 -11 116 -11q170 0 205 236l303 1915h209z" />
<glyph unicode="&#x25ca;" horiz-adv-x="1044" d="M557 1577h180l256 -829l-514 -830h-180l-254 832zM412 100l393 645l-189 650l-391 -643z" />
<glyph unicode="&#x25fc;" horiz-adv-x="1085" d="M0 1085h1085v-1085h-1085v1085z" />
<glyph unicode="&#xf6d4;" horiz-adv-x="663" d="M735 1577l80 -53q-58 -111 -153 -182.5t-211 -71.5q-125 0 -202.5 66t-94.5 194l196 47q15 -86 55 -127t109 -41q127 0 221 168z" />
<glyph horiz-adv-x="1228" d="M-37 1724l76 162l446 -250l-55 -112z" />
<glyph horiz-adv-x="1228" d="M59 1569l-59 61q5 8 13 21t35 46t54.5 58.5t69 46.5t80.5 21q58 0 117.5 -23.5t114.5 -47t104 -23.5q36 0 72 21.5t54 43.5l17 21l62 -62q-4 -7 -11.5 -19.5t-32.5 -44.5t-52 -56t-67 -44t-79 -20q-58 0 -117 22.5t-114 45t-105 22.5q-36 0 -75 -22.5t-60 -44.5z" />
<glyph horiz-adv-x="1228" />
<glyph horiz-adv-x="268" d="M209 1130l-109 44q120 253 140 413l196 10q-29 -154 -227 -467z" />
<glyph horiz-adv-x="1064" d="M221 1300l-65 93l344 276l121 10l256 -286l-95 -93l-241 222z" />
<glyph horiz-adv-x="1228" />
<glyph horiz-adv-x="1619" d="M1147 1524l-467 200l76 162l446 -250zM1677 1434l-20 -123l-178 -41l-179 -1106l173 -41l-21 -123h-569l20 123l193 39l131 809l-817 -729l-13 -78l178 -41l-20 -123h-559l20 123l177 39l178 1108l-168 41l18 112l563 11l-20 -123l-189 -41l-131 -811l818 733l12 78 l-187 41l19 112z" />
<glyph horiz-adv-x="1228" />
<glyph horiz-adv-x="1619" d="M1266 1864l80 -54q-58 -111 -153.5 -182.5t-211.5 -71.5q-125 0 -202.5 66t-94.5 195l197 47q15 -86 54.5 -127t108.5 -41q128 0 222 168zM1677 1434l-20 -123l-178 -41l-179 -1106l173 -41l-21 -123h-569l20 123l193 39l131 809l-817 -729l-13 -78l178 -41l-20 -123 h-559l20 123l177 39l178 1108l-168 41l18 112l563 11l-20 -123l-189 -41l-131 -811l818 733l12 78l-187 41l19 112z" />
<glyph horiz-adv-x="1550" d="M1300 0h-1005q-92 0 -140.5 48t-48.5 140v1006q0 94 48 142t141 48h1005q94 0 142.5 -48t48.5 -142v-1006q0 -92 -48.5 -140t-142.5 -48zM651 926l-114 -68q-18 -6 -23 -6q-12 0 -12 18v279h-176v-819h176v428q0 15 11.5 21.5t43.5 6.5q102 0 102 -133v-323h177v424 q0 74 -53 123t-132 49zM905 825h60q26 0 26 -22v-314q0 -74 53 -124t132 -50l149 88v60q-38 -10 -63 -10q-49 0 -72 33t-23 104v213q0 22 23 22h137v86h-137q-10 0 -16.5 7t-6.5 18v65h-51l-211 -133v-43z" />
<glyph horiz-adv-x="788" d="M455 1167l-41 -77l-232 -156l-57 141l252 103zM473 1153l45 -66l-8 -239h-162l66 242zM481 1204l-41 64l9 239h161l-65 -239zM459 1190l-82 -12l-219 104l100 141l182 -155zM502 1190l43 78l231 155l58 -141l-252 -104zM582 1178l219 -103l-101 -141l-182 153l-20 80z " />
<glyph horiz-adv-x="509" d="M229 1528l-53 108l445 248l75 -162z" />
<glyph horiz-adv-x="694" d="M834 1868l55 -92l-326 -228l-119 -10l-249 238l98 92l235 -176z" />
<glyph horiz-adv-x="1228" d="M371 1706l-305 -170l-66 92l330 225l121 11l251 -236l-96 -92z" />
</font>
</defs>
</svg>
